#TITLE:planarian;
#SUBTITLE:;
#ARTIST:S-C-U;
#TITLETRANSLIT:;
#SUBTITLETRANSLIT:;
#ARTISTTRANSLIT:;
#GENRE:ELECTRIC POP;
#CREDIT:;
#BANNER:Planarian_banner.png;
#BACKGROUND:Planarian.png;
#LYRICSPATH:;
#CDTITLE:;
#MUSIC:planarian.ogg;
#OFFSET:-0.510000;
#SAMPLESTART:73.680000;
#SAMPLELENGTH:12.000000;
#LASTBEATHINT:294.500000;
#SELECTABLE:YES;
#BPMS:0.000000=164.000000
;
#STOPS:192.000000=2.561000
;
#BGCHANGES:;
#KEYSOUNDS:;
#ATTACKS:;

//---------------dance-single - ----------------
#NOTES:
     dance-single:
     :
     Easy:
     6:
     0.249985,0.284142,0.094822,0.137923,0.000000,203.000000,192.000000,11.000000,16.000000,0.000000,0.000000,0.249985,0.284142,0.094822,0.137923,0.000000,203.000000,192.000000,11.000000,16.000000,0.000000,0.000000:
0000
0000
0000
0000
,
0000
0000
0000
0000
,
0000
0000
0000
0000
,
0000
0000
0000
0000
,
0010
0001
1000
0000
,
0010
1000
0001
0000
,
0100
0001
1000
0100
,
0020
0000
0030
0000
,
0001
0100
0000
0100
,
0010
0100
0001
0000
,
1000
0010
0000
0010
,
1000
0100
1000
0000
,
0001
1000
0000
1000
,
0100
0010
0001
0000
,
0100
0010
1000
0001
,
2002
0000
3003
0000
,
0100
1000
0000
0001
,
0010
0001
0000
0001
,
0100
0010
0020
0030
,
1000
0100
0200
0300
,
1000
0001
0010
0000
,
0001
1000
0010
0000
,
0100
0010
1000
0100
,
0010
0000
0011
0000
,
1000
0010
0100
0000
,
0100
0010
1000
0000
,
0100
0010
0001
0000
,
0001
0010
0100
0000
,
1000
0001
0010
0000
,
0001
0100
0010
0000
,
1000
0001
0010
0100
,
2000
0000
3000
0000
,
0010
0010
0100
0010
,
0100
0000
1001
0000
,
0010
0001
1000
0000
,
0001
1000
0010
0000
,
1000
0100
0200
0000
,
0000
0000
0300
0000
,
0010
0001
0002
0000
,
0000
0000
0003
0000
,
1000
0010
1000
0000
,
0001
0100
0001
0000
,
0010
0100
1000
0000
,
0010
0100
0001
0000
,
0010
0100
2200
0000
,
0000
0000
3300
0000
,
0010
0100
0101
0000
,
0010
0100
1000
0000
,
1001
0100
0010
0001
,
0000
0010
0100
1000
,
0000
0001
1000
0100
,
0000
1000
0001
0100
,
0000
0010
1000
0001
,
1000
0020
0000
0130
,
0000
0001
0010
0100
,
1000
0010
0000
0110
,
0000
1000
0100
1000
,
0000
0001
0100
0001
,
0000
0010
0001
1000
,
0100
0020
0000
0130
,
0000
1000
1000
1000
,
0000
0001
0001
0001
,
0000
0010
0100
0010
,
0100
0110
0000
1001
,
0000
0200
0000
0000
,
0300
0010
1000
0001
,
0010
0002
0000
0000
,
0003
1000
0100
0010
,
0100
1000
0010
0100
,
0000
0001
0100
0010
,
0000
1000
0001
0010
,
0100
1000
0000
1001
,
0000
0220
0000
0000
,
0000
0330
0000
0000
;

//---------------dance-single - ----------------
#NOTES:
     dance-single:
     :
     Medium:
     9:
     0.375593,0.410428,0.086202,0.146543,0.124992,305.000000,295.000000,10.000000,17.000000,0.000000,0.000000,0.375593,0.410428,0.086202,0.146543,0.124992,305.000000,295.000000,10.000000,17.000000,0.000000,0.000000:
0000
0000
0000
0000
,
0000
0000
0000
0000
,
0010
0000
1001
0000
,
0100
0010
1000
0001
,
0010
0000
0001
0100
0000
0000
0010
0000
,
1000
0000
0001
0100
0000
0000
0010
0000
,
1000
0001
0010
0100
,
1000
0000
0000
1000
0000
0000
1000
0000
0000
0000
0010
0000
0010
0000
0000
0000
,
0100
0000
0001
0100
0000
0000
0100
0000
,
0010
0000
1000
0010
0000
0000
0010
0000
,
2000
0000
3001
0000
,
0010
0001
1000
0000
0001
0000
0100
0000
,
0010
0000
0000
1000
0000
0000
0100
0000
,
1000
0010
0100
0001
,
0010
0001
1000
0010
,
0100
0010
0100
0010
0000
1000
1000
0000
,
1001
0010
0100
0001
,
0002
0000
0013
0100
,
1000
0000
0000
0010
0000
0000
1000
0000
0000
0000
0000
0000
0001
0000
0000
0000
,
0010
0000
0001
0000
1000
0010
0100
0000
,
0010
1000
0100
0010
,
0001
0000
1000
0000
0010
0100
0010
0000
,
1000
0000
0001
0000
0010
0100
1000
0000
,
0001
0100
0220
0330
,
0001
0000
0000
0000
0010
0000
0000
0000
0001
0000
0000
1000
0000
0000
0100
0000
,
0000
1000
0010
0100
,
0001
0000
0000
0010
0000
0000
0002
0000
0000
0000
0000
0000
1003
0000
0000
0000
,
0010
0000
1000
0000
0010
0100
0010
0000
,
1000
0100
0010
0100
,
1000
0001
0100
0010
,
0100
0000
0001
0000
0010
0100
1000
0000
,
2002
0000
0000
0000
0000
3003
0000
0000
,
0000
0000
0100
0000
0010
0000
0000
0000
1000
0000
0000
0010
0000
0000
1000
0000
,
0000
0000
0001
0000
0010
0001
1000
0000
,
0001
0000
0000
0000
1000
0000
0000
0000
0010
0000
0000
1000
0000
0000
0100
0000
,
0000
0000
0010
0000
0100
1000
0001
0000
,
1000
0000
0000
0010
0000
0000
0200
0000
0000
0000
0000
0000
0001
0000
0000
0000
,
0000
0010
0000
0301
,
0010
0000
0100
1000
0001
0000
1000
0000
,
0001
0010
0220
0330
,
1000
0000
0000
0000
0010
0000
0000
0000
1000
0000
0000
0001
0000
0000
0100
0000
,
0000
0010
1000
0000
,
0001
0000
0000
0000
0010
0000
0000
0000
0001
0000
0000
0100
0000
0000
0010
0000
,
0000
0100
0001
0000
,
1000
0000
0000
0001
0000
0000
0020
0000
0000
0000
0000
0000
0100
0000
0000
0000
,
0000
1000
0000
0130
,
0001
0000
0000
1000
0000
0000
0010
0000
0000
0000
0000
0000
0100
0000
0000
0000
,
0010
0001
0010
0110
,
0000
0000
0000
0000
0001
0000
0000
0010
0000
0000
0001
0000
1000
0000
0000
0010
,
0000
0000
1000
0000
0001
0000
0000
0100
0000
0000
0001
0000
1000
0000
0000
0000
,
0010
0000
0000
0000
0100
0000
0000
0001
0000
0000
0100
0000
0001
0000
0000
0010
,
0000
0000
0001
0000
1000
0000
0000
0010
0000
0000
1000
0000
0100
0000
0000
0000
,
1000
0000
0000
0000
0010
0000
0000
0100
0000
0000
0010
0000
1000
0000
0000
0000
,
0100
0000
0000
0000
1000
0000
0000
0001
0000
0000
0100
0000
0001
0000
0000
0000
,
0010
0000
0000
0000
0001
0000
0000
1000
0000
0000
1000
0000
0010
0000
0000
0100
,
0000
0000
0100
0000
0001
0000
0000
0010
0000
0000
0100
0000
2000
0000
0000
0000
,
3000
0000
0000
0000
0100
0000
0000
1000
0000
0000
0100
0000
1000
0000
0000
0001
,
0000
0000
1000
0000
0001
0000
0000
0010
0000
0000
0001
0000
0200
0000
0000
0000
,
0301
0000
0000
0000
0010
0000
0000
0001
0000
0000
0100
0000
0010
0000
0000
1000
,
0000
0000
0100
0000
1000
0000
0000
0001
0000
0000
0100
0000
0010
0000
0000
0000
,
0110
0000
1000
0000
0100
1000
0000
1000
,
0001
0000
0011
0000
0010
0001
0000
0001
,
0100
0000
0010
1000
0100
0000
0010
0001
,
0100
0000
0000
0000
0001
0000
0000
1000
0000
0000
0010
0000
0100
0000
0000
0000
,
0110
2000
0100
0000
,
3001
0010
0001
1000
,
0010
0200
0000
0000
0010
0000
0000
0000
,
0301
0010
0001
1000
,
0100
0000
1000
0000
0000
0001
0000
0000
,
0010
0001
0100
0010
,
1000
0001
0010
1000
,
0010
0000
0001
1000
0010
0000
0100
0000
,
0001
2002
0000
0000
,
0000
3003
0000
0000
;

//---------------dance-single - ----------------
#NOTES:
     dance-single:
     :
     Hard:
     14:
     0.672373,0.694570,0.172403,0.103442,0.379287,546.000000,526.000000,20.000000,12.000000,0.000000,0.000000,0.672373,0.694570,0.172403,0.103442,0.379287,546.000000,526.000000,20.000000,12.000000,0.000000,0.000000:
// measure 0
0000
0000
0000
0000
,  // measure 1
0000
0000
0000
0000
,  // measure 2
1001
0000
0110
0000
,  // measure 3
0011
0000
1000
0000
0010
0100
0010
1000
,  // measure 4
0100
1000
0010
1000
0000
1000
0100
1000
,  // measure 5
0001
0010
0001
0100
0000
0100
0001
0010
,  // measure 6
0001
1000
0010
0100
0001
0010
0100
1000
,  // measure 7
0001
0000
0000
1010
0000
0000
0011
0000
0000
0000
0100
0000
0100
0000
0000
0000
,  // measure 8
0010
1000
0100
0010
0000
0010
0100
1000
,  // measure 9
0010
0100
0001
0100
0000
0100
0010
0100
,  // measure 10
0002
0000
0010
0000
0000
0000
1003
0010
,  // measure 11
0100
0010
1000
0001
0010
0100
1000
0000
,  // measure 12
1001
0000
0010
0100
0000
0100
1000
0010
,  // measure 13
1000
0001
0100
0010
0001
0010
0100
0000
,  // measure 14
0001
1000
0010
1000
0100
1000
0010
0000
,  // measure 15
0100
0000
0001
0000
0100
0000
1000
0000
0000
0100
0010
0100
0010
0000
0000
0000
,  // measure 16
1000
0000
0100
0000
0010
0000
0001
0000
0100
0000
0000
0001
0000
0000
0011
0000
,  // measure 17
0000
1000
0001
0100
0010
1000
0001
0010
,  // measure 18
0100
0000
0000
1100
0000
0000
0001
0000
0000
0000
1000
0000
0010
0000
0100
0000
,  // measure 19
0010
0000
1000
0000
0001
0000
0010
0100
0000
0000
1000
0000
0010
0000
1000
0000
,  // measure 20
0001
0000
0100
0000
0010
0000
0100
0001
0000
0000
0001
0000
0010
0000
0001
0000
,  // measure 21
1000
0000
0100
0000
0010
0000
0100
1000
0000
0000
0010
0000
1000
0000
0001
0000
,  // measure 22
0100
0000
0001
0000
0010
0000
0100
1000
0001
0000
1000
0000
0010
0000
0100
0000
,  // measure 23
0010
1000
0000
1000
0001
0000
0010
0000
0100
0000
0000
0000
1001
0000
0000
0000
,  // measure 24
0100
0000
0010
0000
0100
0000
0001
0000
0010
0000
0000
0011
0000
0000
1000
0000
,  // measure 25
0000
0000
0010
0000
0100
0000
0010
1000
0010
0000
0100
0000
0001
0000
0010
0000
,  // measure 26
0001
0000
0000
1100
0000
0000
0010
0000
0000
0000
1000
0000
0010
0000
1000
0000
,  // measure 27
0001
0000
0010
0000
0100
0000
1000
0010
0000
0000
0100
0000
0010
0000
1000
0000
,  // measure 28
0100
0000
0010
0000
0001
0000
1000
0001
0000
0000
0100
0000
0001
0000
0010
0000
,  // measure 29
0001
0000
1000
0000
0001
0000
0010
0100
0000
0000
0010
0000
0100
0000
1000
0000
,  // measure 30
0010
0000
0100
0000
0001
0000
1000
0010
1000
0000
0000
0001
0000
0000
0010
0000
,  // measure 31
0001
1000
0000
1000
0010
0000
0100
0000
0010
0000
1000
0000
0100
0000
0200
0000
,  // measure 32
0300
0000
1000
0000
1001
0000
0000
0000
0010
0000
0000
0001
0000
0000
0101
0000
,  // measure 33
0000
0000
1000
0000
0001
0000
0010
0000
0100
0000
1000
0010
0000
0100
0001
0000
,  // measure 34
1000
0000
0001
0000
0010
0000
0100
0000
1000
0000
0000
1001
0000
0000
0010
0000
,  // measure 35
0000
0000
0010
0000
1000
0000
0001
0000
0010
0000
0001
0100
0000
0010
1000
0000
,  // measure 36
0001
0000
0010
0001
0000
0100
0001
0000
0020
0000
0000
0000
0100
0000
0000
0000
,  // measure 37
1000
0000
0100
0000
0001
0000
0130
1000
,  // measure 38
0010
0000
0100
0001
0000
0100
0010
0000
0200
0000
0000
0000
0001
0000
0000
0000
,  // measure 39
0010
1000
0010
0301
,  // measure 40
1000
0000
0001
0000
0010
0000
0100
0000
1000
0000
0000
1001
0000
0000
0010
0000
,  // measure 41
0000
0000
0001
0000
1000
0000
0010
0000
1000
0000
0100
0010
0000
0100
1000
0000
,  // measure 42
0010
0000
0100
0000
0001
0000
1000
0000
0010
0000
0000
0110
0000
0000
1000
0000
,  // measure 43
0000
0010
1000
0001
0010
0001
0100
0001
,  // measure 44
0010
0000
0100
1000
0000
0100
0010
0000
0200
0000
0000
0000
1000
0000
0000
0000
,  // measure 45
0010
1000
0001
1300
,  // measure 46
0001
0000
0100
0010
0000
0100
0001
0000
0000
0000
0001
0000
0010
0000
0100
0000
,  // measure 47
0000
0000
1000
0000
0010
0000
1000
0000
0001
1000
0001
1000
0001
0000
0100
0000
,  // measure 48
0220
0330
0000
0000
0000
0000
0000
0000
0001
0000
0000
0000
0010
0000
0001
0000
0000
0000
0001
0000
1000
0000
0000
0000
0010
0000
0000
0000
0100
0000
0010
0000
,  // measure 49
0000
0010
1000
0000
0100
0000
1000
0001
0000
0001
0010
0000
0001
0000
1000
0000
,  // measure 50
0020
0000
0000
0000
0130
0000
0001
1000
0000
1000
0010
0000
0100
0000
0001
0010
,  // measure 51
0000
0010
0001
0000
1000
0000
0100
0010
0000
0010
0100
0000
1000
0000
0010
0000
,  // measure 52
0100
0000
0001
0000
0010
0000
0001
1000
0000
0001
0010
0000
0100
0000
1000
0000
,  // measure 53
0100
0000
0001
0000
0100
0000
1000
0010
0000
1000
0100
0000
0010
0000
1000
0000
,  // measure 54
0010
0000
0001
0000
1000
0000
0001
0010
0000
0010
0100
0000
1000
0000
0010
0100
,  // measure 55
0000
0100
0001
0000
0010
0000
0100
1000
0000
1000
0001
0000
0100
0000
0010
0000
,  // measure 56
0110
0000
0000
0000
1000
0000
1000
0010
0000
0010
0100
0000
0100
0000
0001
0010
,  // measure 57
0000
0010
0001
0000
0010
0000
0010
0100
0000
0100
1000
0000
1000
0000
0010
0000
,  // measure 58
0001
0000
0010
0000
1000
0000
1000
0100
0000
0100
0010
0000
0010
0000
0001
1000
,  // measure 59
0000
1000
0001
0000
0100
0000
0010
0100
0000
0100
0001
0000
1000
0000
0001
0000
,  // measure 60
0010
0100
0010
0001
0010
1000
0010
0001
,  // measure 61
0010
0100
0010
0000
0100
0000
1000
0000
0100
0000
0001
0000
0100
0000
1000
0000
,  // measure 62
0100
0010
0100
0000
1000
0000
0010
0000
1000
0000
0001
0000
1000
0000
0100
0000
,  // measure 63
1000
0010
1000
0000
0010
0000
0100
0001
0000
0001
0010
0100
0000
0100
1000
0000
,  // measure 64
0020
0000
1030
0100
0001
0100
0000
0100
,  // measure 65
1000
0100
0010
0001
0010
1000
0010
0001
,  // measure 66
1000
0020
0100
0000
1000
0000
0000
0000
,  // measure 67
0130
0001
1000
0100
0010
0001
0100
0001
,  // measure 68
1000
0000
0011
0000
0100
1000
0000
0010
,  // measure 69
0100
0001
1000
0001
0010
0001
0000
1000
,  // measure 70
0001
0000
1000
0000
0001
0000
0010
0001
0010
0000
0100
0000
1000
0010
1000
0000
,  // measure 71
0001
0000
0100
0000
0010
0000
1000
0100
0000
1000
0010
0000
1000
0001
0000
0001
,  // measure 72
0010
0100
0220
0000
0000
0000
0000
0000
,  // measure 73
0000
0330
0000
0000
;
