#TITLE:nalca;
#SUBTITLE:;
#ARTIST:onoken;
#TITLETRANSLIT:;
#SUBTITLETRANSLIT:;
#ARTISTTRANSLIT:;
#GENRE:;
#CREDIT:;
#BANNER:nalca_banner.png;
#BACKGROUND:nalca_bg.png;
#LYRICSPATH:;
#CDTITLE:;
#MUSIC:nalca.ogg;
#OFFSET:-0.380000;
#SAMPLESTART:81.099998;
#SAMPLELENGTH:14.120000;
#LASTBEATHINT:265.000000;
#SELECTABLE:YES;
#BPMS:0.000000=136.000000
;
#STOPS:
;
#BGCHANGES:;
#KEYSOUNDS:;
#ATTACKS:;

//---------------dance-single - ----------------
#NOTES:
     dance-single:
     :
     Easy:
     4:
     0.139394,0.213447,0.058882,0.075705,0.004206,116.000000,109.000000,7.000000,9.000000,0.000000,0.000000,0.139394,0.213447,0.058882,0.075705,0.004206,116.000000,109.000000,7.000000,9.000000,0.000000,0.000000:
// measure 0
0000
0000
0000
0000
,  // measure 1
0000
0000
0000
0000
,  // measure 2
0000
0000
0000
0000
,  // measure 3
0000
0000
0000
0000
,  // measure 4
1000
0000
0010
0000
,  // measure 5
1000
0000
0000
0000
,  // measure 6
0001
0000
0100
0000
,  // measure 7
0001
0000
0000
0000
,  // measure 8
0010
0000
0100
0020
,  // measure 9
0000
0000
0030
0000
,  // measure 10
0000
0000
0000
0000
,  // measure 11
1000
0000
0100
0000
,  // measure 12
0010
0000
0000
0000
,  // measure 13
0001
0000
0100
0000
,  // measure 14
0010
0000
0000
0000
,  // measure 15
1000
0000
0100
0000
,  // measure 16
0010
0000
0000
0000
,  // measure 17
0001
0000
0010
0000
,  // measure 18
0100
0000
0000
0000
,  // measure 19
1001
0000
0010
0000
,  // measure 20
1000
0000
0001
0000
,  // measure 21
0100
0000
0010
0000
,  // measure 22
2000
0000
3000
0000
,  // measure 23
0001
0000
0010
0000
,  // measure 24
0100
0000
1000
0000
,  // measure 25
0010
0000
0100
0000
,  // measure 26
0002
0000
0003
0000
,  // measure 27
0010
0000
0100
0000
,  // measure 28
0010
0000
0001
0000
,  // measure 29
1000
0000
0010
0000
,  // measure 30
0100
0000
0010
0000
,  // measure 31
2000
0000
3100
0000
,  // measure 32
0020
0000
0031
0000
,  // measure 33
0002
0000
0103
0000
,  // measure 34
0020
0000
1030
0000
,  // measure 35
0110
0000
0000
0000
,  // measure 36
0000
0000
0000
0000
,  // measure 37
0001
0000
0001
0000
,  // measure 38
1000
0000
1000
0000
,  // measure 39
0010
0000
0100
0000
,  // measure 40
0001
0000
0000
0000
,  // measure 41
0010
0000
0100
0000
,  // measure 42
1000
0000
0001
0000
,  // measure 43
0100
0000
0010
0220
,  // measure 44
0000
0000
0330
0000
,  // measure 45
0000
0000
0000
0000
,  // measure 46
1001
0000
0010
0000
,  // measure 47
0001
0100
0001
0000
,  // measure 48
1000
0000
0100
0000
,  // measure 49
1000
0010
1000
0000
,  // measure 50
0001
0000
0010
0000
,  // measure 51
0001
0010
0100
0000
,  // measure 52
1000
0000
0010
0000
,  // measure 53
1000
0100
0010
0000
,  // measure 54
1001
0000
0010
0000
,  // measure 55
0100
1000
0001
0000
,  // measure 56
0100
0000
0010
0000
,  // measure 57
1000
0001
0100
0000
,  // measure 58
0011
0000
1000
0000
,  // measure 59
1100
0000
0001
0000
,  // measure 60
0100
0000
0010
0000
,  // measure 61
1000
0001
1000
0000
,  // measure 62
0010
0000
0100
0000
,  // measure 63
0001
0000
0000
0000
0000
0000
0000
1000
0000
0000
0000
0000
0000
0000
0000
0000
;

//---------------dance-single - ----------------
#NOTES:
     dance-single:
     :
     Medium:
     11:
     0.338871,0.416379,0.134587,0.201881,0.227116,282.000000,266.000000,16.000000,24.000000,0.000000,0.000000,0.338871,0.416379,0.134587,0.201881,0.227116,282.000000,266.000000,16.000000,24.000000,0.000000,0.000000:
// measure 0
0000
0000
0000
0000
,  // measure 1
0000
0000
0000
0000
,  // measure 2
0000
0000
0000
0000
,  // measure 3
0000
0000
0000
0000
,  // measure 4
0001
0000
0000
0100
0000
0000
0020
0000
0000
0000
0000
0000
1030
0000
0000
0000
,  // measure 5
1000
0000
0000
0100
0000
0000
0020
0000
0000
0000
0000
0000
0031
0000
0000
0000
,  // measure 6
0100
0000
0000
0001
0000
0000
1000
0000
0000
0000
0100
0000
1000
0000
0000
0000
,  // measure 7
0002
0103
0020
1030
,  // measure 8
0001
0010
0100
0000
1000
0000
2002
0000
,  // measure 9
0000
0000
0000
0000
,  // measure 10
0000
0000
0000
3003
0000
0000
0000
0000
,  // measure 11
0010
0000
0000
0100
0000
0000
0000
0000
0001
0000
0000
0010
0000
0000
0000
0000
,  // measure 12
0001
0000
0000
1000
0000
0000
0000
0000
0100
0000
0000
0000
1000
0000
0010
0000
,  // measure 13
0100
0000
0000
0001
0000
0000
0000
0000
1000
0000
0000
0010
0000
0000
0000
0000
,  // measure 14
1000
0000
0000
0100
0000
0000
0000
0000
1000
0000
0000
0000
0001
0000
0100
0000
,  // measure 15
0010
0000
0000
0100
0000
0000
0001
0000
0010
0000
0000
0100
0000
0000
1000
0000
,  // measure 16
0010
0000
0000
0100
0000
0000
0001
0000
1000
0000
0000
0000
1001
0000
0000
0000
,  // measure 17
0100
0000
0000
0001
0000
0000
0010
0000
0100
0000
0000
1000
0000
0000
0010
0000
,  // measure 18
0100
0000
0000
0001
0000
0000
1000
0000
0020
0000
0000
0000
0000
0000
0000
0000
,  // measure 19
0130
0000
0001
0010
0100
0010
0001
0000
,  // measure 20
1000
0000
0010
0100
0001
0000
0101
0000
,  // measure 21
0010
0000
1000
0010
0100
0010
1000
0000
,  // measure 22
0002
2003
3002
2003
,  // measure 23
3100
0000
0010
0100
1000
0100
0010
0000
,  // measure 24
0001
0000
0100
0010
1000
0000
1010
0000
,  // measure 25
0001
0000
0010
0001
1000
0001
0010
0000
,  // measure 26
0220
0000
0000
0330
,  // measure 27
1000
0100
0000
0100
0010
0001
0000
0001
,  // measure 28
0100
0010
0000
0010
1000
0001
0100
0000
,  // measure 29
0001
0010
0000
0010
0100
1000
0000
1000
,  // measure 30
0010
0100
0001
1000
0010
0000
0110
0000
,  // measure 31
1000
0100
0000
0100
1000
0001
0000
0001
,  // measure 32
0010
0001
0100
0010
1000
0000
1001
0000
,  // measure 33
0010
1000
0000
1000
0001
0100
0000
0100
,  // measure 34
0010
0100
0001
0010
0200
0000
0000
0000
,  // measure 35
1300
0001
0010
0100
,  // measure 36
0010
0001
1000
0000
,  // measure 37
0001
0100
1000
0100
,  // measure 38
0001
0010
0100
0000
,  // measure 39
0101
0000
1010
0000
,  // measure 40
1000
0100
0001
0100
,  // measure 41
1100
0000
0011
0000
,  // measure 42
0001
0010
1000
0010
,  // measure 43
0001
1000
0010
0220
,  // measure 44
0000
0000
0000
0000
,  // measure 45
0000
0000
0000
0330
0000
0000
0000
0000
,  // measure 46
1001
0000
0000
0000
0000
0000
0000
0010
0001
0000
0000
0000
1000
0000
0000
0000
,  // measure 47
0010
0000
0000
0100
0000
0010
0000
0100
0000
0000
0000
0000
0001
0000
0000
0000
,  // measure 48
0010
0000
0000
0100
0000
0000
1000
0000
0010
0000
0000
0100
0000
0000
0001
0000
,  // measure 49
0010
0000
0000
0001
0000
1000
0000
0001
0000
0000
0000
0000
0100
0000
0000
0000
,  // measure 50
0220
0000
0000
0000
0330
0000
0000
0010
1000
0000
0000
0100
0000
0000
0010
0000
,  // measure 51
0001
0000
0000
1000
0000
0100
0000
1000
0000
0000
0000
0000
0010
0000
0000
0000
,  // measure 52
0100
0000
0000
0001
0000
0000
0010
0000
0200
0000
0000
0000
1300
0000
0000
0000
,  // measure 53
0010
0000
0000
1000
0000
0001
0000
2000
0000
0000
0000
0000
3000
0000
0000
0000
,  // measure 54
1001
0000
0000
0000
0000
0000
0000
0010
0100
0000
0000
0000
0001
0000
0000
0000
,  // measure 55
0010
0000
0000
0001
0000
0100
0000
0001
0000
0000
0000
0000
1000
0000
0000
0000
,  // measure 56
0010
0000
0000
0100
0000
0000
0001
0000
0010
0000
0000
0100
0000
0000
1000
0000
,  // measure 57
0010
0000
0000
0100
0000
0010
0000
0100
0000
0000
0000
0000
0001
0000
0000
0000
,  // measure 58
0022
0000
0000
0000
0033
0000
0000
0001
1000
0000
0000
0100
0000
0000
1000
0000
,  // measure 59
0010
0000
0000
0100
0000
0001
0000
0100
0000
0000
0000
0000
0010
0000
0000
0000
,  // measure 60
1000
0000
0100
0000
0010
0001
1000
0010
,  // measure 61
0100
0000
0000
0001
0000
1000
0000
0002
0000
0000
0000
0000
0003
0000
0000
0000
,  // measure 62
1000
0000
0000
0010
0000
0000
0100
0000
0010
0000
0100
0000
0001
0000
0000
0000
,  // measure 63
0010
0000
0000
0100
0000
1000
0000
0002
0000
0000
0000
0000
0000
0000
0000
0000
,  // measure 64
0000
0000
0000
0000
,  // measure 65
0000
0000
0000
0000
,  // measure 66
0003
0000
0000
0000
;

//---------------dance-single - ----------------
#NOTES:
     dance-single:
     :
     Hard:
     15:
     0.615256,0.721724,0.201881,0.319645,0.736024,512.000000,488.000000,24.000000,38.000000,0.000000,0.000000,0.615256,0.721724,0.201881,0.319645,0.736024,512.000000,488.000000,24.000000,38.000000,0.000000,0.000000:
// measure 0
0000
0000
0000
0000
,  // measure 1
0000
0000
0000
0000
,  // measure 2
0000
0000
0000
0000
,  // measure 3
0000
0000
0000
0000
,  // measure 4
0001
0000
0000
0010
0000
0000
0201
0000
0000
0310
0000
0000
1000
0000
0100
0010
,  // measure 5
0100
0000
0000
1000
0000
0000
1002
0000
0000
0013
0000
0000
0100
0000
1000
0001
,  // measure 6
1000
0000
0000
0010
0000
0000
0210
0000
0000
0301
0000
0000
0010
0000
0100
1000
,  // measure 7
0001
0000
1000
0010
0100
0000
0001
0010
0100
0000
1000
0100
0010
0000
0001
0100
,  // measure 8
0010
0000
0100
0001
0010
0000
0100
1000
0010
0000
0000
0000
0220
0000
0000
0000
,  // measure 9
0000
0000
0000
0000
,  // measure 10
0000
0000
0000
0000
0000
0000
0000
0330
0000
0000
0000
0000
0000
0000
0000
0000
,  // measure 11
0001
0010
0000
0020
0000
0000
0130
0000
1000
0010
0000
0020
0000
0000
0130
0000
,  // measure 12
0001
0100
0000
0200
0000
0000
0310
0000
1000
0000
0001
0010
0001
0000
1000
0010
,  // measure 13
1000
0100
0000
0200
0000
0000
0310
0000
0001
0100
0000
0200
0000
0000
0310
0000
,  // measure 14
1000
0010
0000
0020
0000
0000
0130
0000
0001
0000
1000
0100
1000
0000
0001
0100
,  // measure 15
0001
0010
0000
0200
0000
0000
1300
0010
0100
0010
0000
2000
0000
0000
3001
0100
,  // measure 16
0001
0000
0010
0000
0001
0100
0000
0010
0000
0000
0010
1000
0100
0000
1000
0000
,  // measure 17
0010
0100
0000
0002
0000
0000
0013
0100
1000
0010
0000
0200
0000
0000
0301
0010
,  // measure 18
0001
1000
0000
0010
0000
0100
0010
0100
0000
0001
0010
0100
2000
0000
0000
0000
,  // measure 19
3010
0000
0100
0001
1000
0000
0100
1000
0001
0000
0100
0001
1000
0000
0000
0000
,  // measure 20
0010
0000
1000
0001
0010
0000
0001
1000
0010
0000
1000
0001
0010
0000
0000
0000
,  // measure 21
0001
0000
0100
0010
1000
0000
0100
0010
0001
0000
0100
0010
1000
0000
0000
0000
,  // measure 22
0001
0100
1000
0100
0001
0100
1000
0100
,  // measure 23
0010
0000
1000
0100
0010
0000
0100
1000
0001
0000
0100
0001
0010
0000
0000
0000
,  // measure 24
0100
0000
1000
0010
0100
0000
0010
1000
0100
0000
0010
0001
0100
0000
0000
0000
,  // measure 25
0010
0000
1000
0001
0010
0000
0001
1000
0010
0000
1000
0001
0100
0000
0000
0000
,  // measure 26
0010
1000
0010
0001
0010
1000
0010
0000
,  // measure 27
0200
0000
0001
0000
0000
0000
0301
0000
0020
0000
0100
0000
0000
0000
0130
1000
,  // measure 28
0001
0000
1000
0010
0100
0000
0001
0010
0100
0000
1000
0010
0100
0000
0001
0010
,  // measure 29
0200
0000
1000
0000
0000
0000
1300
0000
0020
0000
0100
0000
0000
0000
0130
0001
,  // measure 30
1000
0000
0001
1000
0010
0000
0100
0001
0010
0000
0100
1000
0001
0000
0100
0010
,  // measure 31
0200
0000
0001
0000
0000
0000
1300
0000
0200
0000
1000
0000
0000
0000
0301
0010
,  // measure 32
0100
0000
1000
0010
0100
0000
0001
0010
0100
0000
1000
0001
0100
0000
0010
0100
,  // measure 33
0020
0000
1000
0000
0000
0000
0031
0000
0020
0000
0001
0000
0000
0000
1030
0001
,  // measure 34
1000
0000
0100
0010
0001
0000
1000
0010
0100
0000
0010
0100
0001
0000
0010
0100
,  // measure 35
1000
0100
0001
0100
,  // measure 36
1000
0010
0001
0010
,  // measure 37
0100
1000
0010
0001
,  // measure 38
1001
0110
2002
3003
,  // measure 39
0100
0000
0000
0001
0000
0000
0021
0000
0000
0130
0000
0000
1000
0000
0010
0100
,  // measure 40
0010
0000
0000
1000
0000
0000
1002
0000
0000
0103
0000
0000
0010
0000
0100
0001
,  // measure 41
0010
0000
0000
0100
0000
0000
2100
0000
0000
3010
0000
0000
0100
0000
0010
1000
,  // measure 42
0001
0000
0010
0100
1000
0000
0010
0100
0001
0000
0010
0100
1000
0000
0010
0100
,  // measure 43
0001
0000
0010
0001
0010
0000
0100
1000
0100
0000
0000
0000
2002
0000
0000
0000
,  // measure 44
0000
0000
0000
0000
,  // measure 45
0000
0000
0000
0000
0000
0000
0000
3003
0000
0000
0000
0000
0110
0000
0000
0000
,  // measure 46
1001
0000
0000
0000
0100
0000
0000
0010
0100
0000
0001
0000
0010
0000
0001
0000
,  // measure 47
1000
0000
0100
0010
0000
0001
0000
1002
0000
0000
0103
0000
0010
0000
1000
0010
,  // measure 48
0100
0000
0000
0101
0000
0000
0010
0000
0100
0000
0001
0010
0000
0000
0100
0000
,  // measure 49
0010
0100
1000
0001
0000
0100
0000
0110
0000
0000
0010
0000
1000
0000
0001
0000
,  // measure 50
0010
0000
0000
0100
0000
0000
1000
0010
0100
0000
0010
1000
0000
1000
0001
0000
,  // measure 51
0010
0000
0100
0010
0000
0010
0001
1000
0000
0000
1000
0010
1000
0000
0001
0000
,  // measure 52
0100
0010
0100
0001
0000
0000
0001
0010
0100
0000
1000
0000
0100
0000
0001
0000
,  // measure 53
0100
1000
0010
0100
0000
0010
0000
2002
0000
3003
0000
0000
0110
0000
0000
0000
,  // measure 54
0001
0000
0100
0000
0001
0000
0010
0100
1000
0000
0010
0100
0001
0000
0010
0000
,  // measure 55
0001
0000
1000
0100
0000
0100
1000
0010
0000
0000
0010
0100
0001
0000
0010
0000
,  // measure 56
0001
0100
1000
0100
0000
0000
0001
0000
1000
0000
0100
0010
0000
0001
0100
0000
,  // measure 57
0001
0010
1000
0010
0000
0001
0000
1001
0000
0000
0100
0000
0010
0000
1000
0000
,  // measure 58
0100
0000
0010
0100
0000
0010
0100
0000
1000
0000
0001
1000
0000
0001
1000
0000
,  // measure 59
0010
0100
0001
1000
0000
1010
0000
0011
0000
0001
0010
0100
1000
0000
0010
0000
,  // measure 60
0100
0001
0010
0001
0000
1000
0010
0000
1000
0100
0010
0100
0000
1000
0001
0000
,  // measure 61
0100
0010
0100
0010
0000
1000
0000
2200
0000
0000
0000
0000
3300
0000
0000
0000
,  // measure 62
0001
0100
0010
0100
0000
0001
0010
0000
0100
1000
0010
0100
0000
0100
0010
0000
,  // measure 63
1000
0010
0001
0010
0000
1010
0000
0202
0000
0000
0000
0000
0000
0000
0000
0000
,  // measure 64
0000
0000
0000
0000
,  // measure 65
0000
0000
0000
0000
,  // measure 66
0303
0000
0000
0000
;
