#TITLE:n'pa pa BBQ;
#SUBTITLE:;
#ARTIST:YUC'e;
#TITLETRANSLIT:;
#SUBTITLETRANSLIT:;
#ARTISTTRANSLIT:;
#GENRE:FUTURE TERROR;
#CREDIT:;
#BANNER:n'pa pa BBQ_banner.png;
#BACKGROUND:n'pa pa BBQ.png;
#LYRICSPATH:;
#CDTITLE:;
#MUSIC:n'pa pa BBQ.ogg;
#OFFSET:-0.680000;
#SAMPLESTART:37.640003;
#SAMPLELENGTH:15.000000;
#LASTBEATHINT:417.000000;
#SELECTABLE:YES;
#BPMS:0.000000=150.000000
,96.000000=300.000000
,224.000000=150.000000
,288.000000=300.000000
,416.000000=150.000000
;
#STOPS:
;
#BGCHANGES:;
#KEYSOUNDS:;
#ATTACKS:;

//---------------dance-single - ----------------
#NOTES:
     dance-single:
     :
     Easy:
     6:
     0.244196,0.444437,0.085469,0.170937,0.000000,200.000000,190.000000,10.000000,20.000000,0.000000,0.000000,0.244196,0.444437,0.085469,0.170937,0.000000,200.000000,190.000000,10.000000,20.000000,0.000000,0.000000:
0000
0000
0000
0000
,
0000
0000
0000
0000
,
0000
0000
0000
0000
,
0000
0000
0000
0000
,
0001
0010
0001
1000
,
0010
1000
0100
1000
,
0010
0100
0001
1000
,
2002
0000
0000
0000
0000
3003
0000
0000
,
0100
0000
0100
0000
,
0010
0100
0010
0100
,
0001
0000
0001
0000
,
1000
0100
1000
0000
,
0010
0000
0010
0000
,
0100
0010
1000
0001
,
1000
0000
0001
0000
,
0220
0000
0000
0000
0000
0330
0000
0000
,
1000
1000
1000
0000
,
0001
0001
0001
0000
,
0010
0010
0010
0010
,
0010
0000
0110
0000
,
0001
0001
0001
0000
,
1000
1000
1000
0000
,
0100
0100
0100
0100
,
0020
0000
0030
0000
,
1000
0000
0000
0000
,
0001
0000
0010
0000
,
0001
0000
0000
0000
,
0100
0000
0010
0000
,
1000
0000
0000
0000
,
0100
0000
1000
0000
,
0001
0000
0000
0000
,
0220
0000
0330
0000
,
0010
0000
0000
0000
,
1000
0000
0100
0000
,
0010
0000
0000
0000
,
0001
0000
0100
0000
,
0010
0000
0000
0000
,
1000
0000
0001
0000
,
2000
0000
3000
0000
,
0002
0000
0003
0000
,
0100
0000
0000
0000
,
0100
0000
0010
0000
,
1000
0000
0000
0000
,
0001
0000
0010
0000
,
0100
0000
0000
0000
,
1000
0000
0100
0000
,
0010
0000
0000
0000
,
2002
0000
3003
0000
,
0010
0000
0010
0000
,
0010
0000
0000
0000
,
0100
0000
0100
0000
,
0100
0000
0000
0000
,
0001
0000
1000
0000
,
0001
0000
1000
0000
,
0020
0000
0000
0000
,
0030
0000
0000
0000
,
0100
0000
0100
0001
,
0010
0000
0001
1000
,
0100
0000
1000
0000
,
0001
0100
0001
0000
,
0010
0000
0001
1000
,
0010
0000
1000
0001
,
0100
0000
0001
0000
,
0220
0000
0330
0000
,
1000
1000
1000
0000
,
0100
0100
0100
0000
,
0010
0010
0010
0010
,
0010
0000
0110
0000
,
0001
0001
0001
0000
,
1000
1000
1000
0000
,
0100
0100
0100
0100
,
0200
0000
0300
0000
,
0010
0000
0000
0000
,
0010
0000
0100
0000
,
1000
0000
0000
0000
,
0001
0000
1000
0000
,
0010
0000
0000
0000
,
0100
0000
0001
0000
,
1000
0000
0000
0000
,
2002
0000
3003
0000
,
0100
0000
0000
0000
,
0001
0000
0010
0000
,
0001
0000
0000
0000
,
1000
0000
0010
0000
,
1000
0000
0000
0000
,
0100
0000
0010
0000
,
0100
0000
1000
0000
,
0001
0000
0100
0000
,
0020
0000
0030
0000
,
0010
0000
0000
0000
,
1000
0000
0000
0000
,
0001
0000
0100
0000
,
0001
0000
0000
0000
,
0010
0000
0100
0000
,
0010
0000
0000
0000
,
2200
0000
3300
0000
,
0010
0000
0000
0000
,
0010
0000
0000
0000
,
0100
0000
0000
0000
,
0100
0000
0000
0000
,
0001
0000
0010
0000
,
0100
0000
1000
0000
,
0010
0000
0010
0000
,
0100
0000
0100
0000
,
1001
0000
0000
0000
;

//---------------dance-single - ----------------
#NOTES:
     dance-single:
     :
     Medium:
     12:
     0.518917,0.666655,0.222218,0.205125,0.051281,425.000000,399.000000,26.000000,24.000000,0.000000,0.000000,0.518917,0.666655,0.222218,0.205125,0.051281,425.000000,399.000000,26.000000,24.000000,0.000000,0.000000:
// measure 0
0000
0000
0000
0000
,  // measure 1
0000
0000
0000
0000
,  // measure 2
0000
0000
0000
0000
,  // measure 3
0000
0000
0000
0000
,  // measure 4
1000
0000
0010
0000
1000
0000
0000
0000
0001
0000
0000
0010
0000
0000
0100
0000
,  // measure 5
1000
0000
0001
0000
0100
0000
0000
0000
0001
0000
0000
1000
0000
0000
0100
0000
,  // measure 6
0010
0000
0001
0000
1000
0000
0000
0000
0010
0000
0000
0100
0000
0000
0001
0000
,  // measure 7
1000
0000
0100
0000
0010
0000
0001
0000
0100
0000
0000
0010
0000
0000
0100
0000
,  // measure 8
0002
0000
0013
1000
0020
0000
0031
1000
,  // measure 9
0100
1000
0100
0001
0200
0000
1300
0010
,  // measure 10
1000
0001
0010
0100
1000
0010
0000
0010
,  // measure 11
0000
0100
0010
0100
0001
0000
1001
0000
,  // measure 12
2000
0000
3010
0001
0020
0000
1030
0010
,  // measure 13
0100
0001
0010
0100
1000
0000
0001
0100
,  // measure 14
0001
0010
0100
0000
1000
0010
0100
0000
,  // measure 15
0110
0001
1000
0001
,  // measure 16
0010
0100
0010
0100
0010
0100
0000
1000
,  // measure 17
0000
0100
1000
0100
1000
0000
1001
0000
,  // measure 18
0010
1000
0010
1000
0001
0000
0001
0010
,  // measure 19
0000
0010
0001
1000
0001
0000
0011
0000
,  // measure 20
0100
0001
0100
0001
0100
0001
0000
1000
,  // measure 21
0000
0010
1000
0010
1000
0000
1100
0000
,  // measure 22
0010
0001
0100
0010
1000
0001
0010
0100
,  // measure 23
0000
0000
1000
0000
0100
0000
0001
0000
0100
0000
0000
1000
0000
0000
0001
0000
,  // measure 24
0100
0010
1000
0001
,  // measure 25
0010
0000
0000
0100
0000
0000
1000
0000
,  // measure 26
0010
1000
0001
0100
,  // measure 27
0010
0000
0000
1000
0000
0000
0100
0000
,  // measure 28
0010
0001
1000
0001
,  // measure 29
0010
0000
0000
0001
0000
0000
1000
0000
,  // measure 30
0010
0100
0010
0000
,  // measure 31
2002
0000
3003
0000
,  // measure 32
0100
0001
1000
0100
,  // measure 33
1000
0000
0000
0010
0000
0000
0100
0000
,  // measure 34
0001
0010
0001
1000
,  // measure 35
0001
0000
0000
0010
0000
0000
0100
0000
,  // measure 36
1000
0001
1000
0010
,  // measure 37
0100
0000
0000
0001
0000
0000
0010
0000
,  // measure 38
0100
0000
0110
0000
,  // measure 39
2002
0000
3003
0000
,  // measure 40
0220
0000
0330
0000
,  // measure 41
0001
0000
1000
0100
0000
0000
1000
0000
,  // measure 42
0010
1000
0001
0000
,  // measure 43
0010
0000
0000
0001
0000
0000
1000
0000
,  // measure 44
0010
1000
0001
0000
,  // measure 45
0100
0000
0000
0001
0000
0000
0010
0000
,  // measure 46
0001
1000
0001
0000
,  // measure 47
2020
0000
3030
0000
,  // measure 48
0100
0010
0100
0000
,  // measure 49
0001
0000
0000
0010
0000
0000
0001
0000
,  // measure 50
1000
0100
1000
0000
,  // measure 51
0010
0000
0000
1000
0000
0000
0010
0000
,  // measure 52
0100
0010
0100
0000
,  // measure 53
0001
0010
0001
0010
,  // measure 54
0100
0000
0000
0000
0100
0000
1000
0000
0000
0000
1000
0000
,  // measure 55
0010
0000
0000
0000
0010
0000
0100
0000
0000
0000
0000
0000
,  // measure 56
1001
0000
0000
0010
0001
0000
0000
1000
,  // measure 57
0010
1000
0001
0010
0001
0000
0100
0000
,  // measure 58
0001
0010
0100
0000
1000
0010
0100
0010
,  // measure 59
0000
1000
0010
1000
0001
0000
0011
0000
,  // measure 60
0100
0000
0001
0010
0001
0000
1000
0010
,  // measure 61
1000
0000
0100
1000
0001
0000
0100
0000
,  // measure 62
0010
0100
0001
0000
0010
0100
1000
0001
,  // measure 63
0000
1000
0001
0100
0010
0000
1010
0000
,  // measure 64
0001
0010
0001
0010
0001
0010
0000
0100
,  // measure 65
0000
1000
0100
1000
0100
0000
1001
0000
,  // measure 66
1000
0010
0100
0010
1000
0000
0001
0010
,  // measure 67
0000
0001
1000
0001
0020
0000
0031
0000
,  // measure 68
0100
0001
0100
0001
0100
0001
0000
1000
,  // measure 69
0000
0010
1000
0100
1000
0000
0001
0000
,  // measure 70
0100
0010
1000
0001
0010
0100
1000
0001
,  // measure 71
0000
0000
0100
0000
0100
0000
0000
0000
0010
0000
0000
0100
0000
0000
0010
0000
,  // measure 72
1000
0000
1100
0000
,  // measure 73
0011
0000
0000
1000
0000
0000
0100
0000
,  // measure 74
1000
0000
0101
0000
,  // measure 75
0220
0000
0330
0000
,  // measure 76
0001
0010
0100
0000
,  // measure 77
1000
0000
0000
0001
0000
0000
1000
0000
,  // measure 78
0001
0010
0001
0000
,  // measure 79
0202
0000
0303
0000
,  // measure 80
0010
1000
0001
0000
,  // measure 81
0010
0000
0000
0001
0000
0000
0100
0000
,  // measure 82
0010
1000
0100
0000
,  // measure 83
1000
0000
0000
0010
0000
0000
0100
0000
,  // measure 84
0010
0100
0001
0000
,  // measure 85
0010
0000
0000
0100
0000
0000
1000
0000
,  // measure 86
0001
0000
0101
0000
,  // measure 87
2200
0000
3300
0000
,  // measure 88
2002
0000
3003
0000
,  // measure 89
0010
0000
0000
0001
0000
0000
1000
0000
,  // measure 90
0010
1000
0100
0000
,  // measure 91
1000
0000
0000
0010
0000
0000
0100
0000
,  // measure 92
0001
0010
0001
0000
,  // measure 93
1000
0000
0000
0001
0000
0000
0010
0000
,  // measure 94
0001
0100
0001
0000
,  // measure 95
2020
0000
3030
0000
,  // measure 96
0100
0010
0100
0010
,  // measure 97
1000
0000
1100
0000
,  // measure 98
0001
0010
0001
0010
,  // measure 99
0001
0000
1001
0000
,  // measure 100
0100
0010
1000
0000
,  // measure 101
0001
0010
0100
1000
,  // measure 102
0010
0000
0000
0000
0010
0000
0100
0000
0000
0000
0100
0000
,  // measure 103
0001
0000
0000
0000
0001
0000
0010
0000
0000
0000
0000
0000
,  // measure 104
1100
0000
0000
0000
;

//---------------dance-single - ----------------
#NOTES:
     dance-single:
     :
     Hard:
     15:
     0.783869,0.933317,0.358968,0.324781,0.205125,642.000000,600.000000,42.000000,38.000000,0.000000,0.000000,0.783869,0.933317,0.358968,0.324781,0.205125,642.000000,600.000000,42.000000,38.000000,0.000000,0.000000:
// measure 0
0000
0000
0000
0000
,  // measure 1
0000
0000
0000
0000
,  // measure 2
0000
0000
0000
0000
,  // measure 3
0000
0000
0000
0000
,  // measure 4
0001
0000
0100
0000
0001
0000
0010
0100
1000
0000
0000
1010
0000
0000
0100
0000
,  // measure 5
0010
0000
1000
0001
0100
0000
0001
0000
0010
0000
0000
0110
0000
0000
1000
0000
,  // measure 6
0001
0000
0010
0001
1000
0000
0010
0000
0100
0000
0000
1001
0000
0000
0010
0000
,  // measure 7
1000
0000
0100
0000
1000
0001
0010
0001
1000
0000
0100
0000
0110
0000
0000
0000
,  // measure 8
0002
0000
0013
1000
0020
0000
0031
1000
,  // measure 9
0010
0000
0100
0001
0000
1000
0010
0000
0000
0000
0010
0000
1000
0000
0100
0000
,  // measure 10
0010
0001
1000
0001
0100
1000
0100
0010
,  // measure 11
0000
0000
0010
0000
1000
0000
0100
0000
0010
0100
0010
0100
0010
0000
0000
0000
,  // measure 12
1001
0000
0100
0010
1000
0000
0100
0010
,  // measure 13
0001
0000
1000
0001
0000
0010
0100
0000
0000
0000
1000
0000
0100
0000
0001
0000
,  // measure 14
0100
1000
0001
0010
1000
0001
0000
0001
,  // measure 15
0100
0000
1000
0010
1000
0000
0001
0010
0001
0000
0100
0010
0100
0000
0000
0000
,  // measure 16
0001
0001
0001
0001
0001
1001
0000
1010
,  // measure 17
0000
0100
0100
0100
0100
0000
0110
0000
,  // measure 18
1000
1000
1000
1000
1100
0000
0101
0010
,  // measure 19
0000
0010
0100
0001
1000
0001
1001
0000
,  // measure 20
0010
0010
0010
0010
0010
0011
0000
1100
,  // measure 21
0000
1000
1000
1000
1001
0000
0110
0000
,  // measure 22
0001
0000
1000
0000
0001
0000
1000
0000
0010
0100
0001
1000
0001
0010
0100
1000
,  // measure 23
0000
0000
0010
0000
0010
0000
0010
0000
0100
0000
0000
1001
0000
0000
0010
0000
,  // measure 24
1000
0000
0100
0000
1000
0001
0100
0000
,  // measure 25
0001
0000
0010
0100
0000
0100
0010
0000
,  // measure 26
0001
0000
1000
0000
0010
0100
0001
0000
,  // measure 27
0010
0000
0100
1000
0000
1000
0100
0000
,  // measure 28
0010
0000
0001
0000
1000
0001
0100
0000
,  // measure 29
0010
0000
1000
0001
0000
0001
1000
0000
,  // measure 30
0010
0100
0010
0100
0002
0000
2003
0000
,  // measure 31
3001
0010
0100
1000
0020
0000
0000
0000
,  // measure 32
1030
0000
0001
0000
0010
0100
1000
0000
,  // measure 33
0010
0000
1000
0001
0000
0100
0001
0000
,  // measure 34
0010
0000
0001
0000
1000
0010
0100
0000
,  // measure 35
0001
0000
1000
0001
0000
0010
0100
0000
,  // measure 36
0010
0000
0001
0000
1000
0001
0100
0000
,  // measure 37
0010
0000
0100
0010
0000
1000
0001
0000
,  // measure 38
2020
3030
0022
0033
,  // measure 39
2200
3300
0202
0303
,  // measure 40
2002
0000
3003
0000
,  // measure 41
0100
0010
0100
0001
0000
0000
1001
0000
,  // measure 42
1000
0000
0010
0000
0100
0001
0010
0000
,  // measure 43
0001
0000
0010
0100
0000
1000
0100
0000
,  // measure 44
1000
0000
0001
0000
0100
0010
1000
0000
,  // measure 45
0010
0000
1000
0100
0000
0010
0001
0000
,  // measure 46
1000
0010
1000
0010
0200
0000
0302
0000
,  // measure 47
0013
0100
1000
0001
0200
0000
0000
0000
,  // measure 48
0301
0000
0010
0000
0001
1000
0100
0000
,  // measure 49
1000
0000
0010
0100
0000
0001
0100
0000
,  // measure 50
0001
0000
0010
0000
0100
1000
0001
0000
,  // measure 51
1000
0000
0010
0100
0000
0010
1000
0000
,  // measure 52
0001
0100
0010
0000
1000
0100
0010
0000
,  // measure 53
0001
1000
0010
0100
0001
0010
0100
1000
,  // measure 54
0010
0000
0010
0000
0010
0000
0100
0000
0100
0000
0100
0000
,  // measure 55
0001
0000
1000
0000
0001
0000
1001
0000
0000
0000
0000
0000
,  // measure 56
0200
0000
0310
1000
0200
0000
1300
0001
,  // measure 57
0010
0000
0001
0100
0000
0010
1000
0000
0000
0000
0001
0000
1000
0000
0010
0000
,  // measure 58
0001
0010
1000
0001
1000
0100
0010
0001
,  // measure 59
0000
0000
0001
0000
0100
0000
0010
0000
1000
0001
1000
0001
1000
0000
0000
0000
,  // measure 60
0110
0000
1000
0100
0010
0000
0010
0100
,  // measure 61
1000
0000
0001
0100
0000
0010
0100
0000
0000
0000
0001
0000
0010
0000
1000
0000
,  // measure 62
0010
0001
1000
0100
0001
1000
0010
0001
,  // measure 63
0000
0000
1000
0000
0001
0000
0100
0000
0001
0000
0010
0100
1000
0000
0000
0000
,  // measure 64
0010
0000
0010
0100
0010
0000
0010
0000
0100
0000
0110
0000
0000
0000
1100
0000
,  // measure 65
0000
0000
0100
1000
0100
0000
1000
0000
1001
0000
0000
0000
0011
0000
0000
0000
,  // measure 66
0100
0000
0100
0010
0100
0000
0100
0000
0001
1000
0001
0000
0010
0100
1000
0000
,  // measure 67
0000
0000
1000
0001
1000
0000
0010
0000
0100
0000
0001
0000
0011
0000
0000
0000
,  // measure 68
1000
0000
1000
0010
1000
0000
1000
0000
1000
0000
1100
0000
0000
0000
0011
0000
,  // measure 69
0000
0000
0001
0100
0001
0000
0010
0000
0011
0000
0000
0000
1001
0000
0000
0000
,  // measure 70
0100
0000
0001
0000
0010
0000
0100
0000
1000
0001
0010
0100
1000
0010
0100
0001
,  // measure 71
0000
0000
0010
0000
0010
0000
0100
0000
0110
0000
0000
1001
0000
0000
0100
0000
,  // measure 72
0001
0000
0010
0100
1000
0000
0001
0100
,  // measure 73
0010
0000
0000
1010
0000
0000
0100
0000
,  // measure 74
0001
0000
1000
0100
0010
0000
0100
0010
,  // measure 75
0001
1000
0001
0200
0000
0000
0310
0000
,  // measure 76
1000
0000
0001
0000
0010
0100
1000
0000
,  // measure 77
0010
0100
0010
1000
0000
0001
0010
0000
,  // measure 78
0001
0100
0001
1000
0200
0000
2300
0000
,  // measure 79
3010
1000
0100
0010
0002
0000
0000
0000
,  // measure 80
0103
0000
0010
0100
0001
0000
0010
0100
,  // measure 81
1000
0010
1000
0010
0000
0000
0100
0000
,  // measure 82
0001
0000
1000
0010
0100
0000
0001
0010
,  // measure 83
0001
0100
0001
0100
0000
0000
0010
0000
,  // measure 84
1000
0100
0010
0000
0100
1000
0001
0000
,  // measure 85
0100
0010
1000
0001
0000
1000
0100
0000
,  // measure 86
2020
3030
0022
0033
,  // measure 87
2200
3300
0202
0303
,  // measure 88
0220
0000
0330
0000
,  // measure 89
0001
1000
0010
0100
0000
0000
0010
0000
,  // measure 90
1000
0001
0100
0000
0001
0010
0100
0000
,  // measure 91
1000
0100
0010
0100
0000
1000
0001
0000
,  // measure 92
0100
0010
1000
0000
0001
0010
0100
0000
,  // measure 93
0010
0001
0100
0010
0000
1000
0010
0000
,  // measure 94
1000
0100
1000
0100
0020
0000
0032
0000
,  // measure 95
0103
0010
0100
0001
2000
0000
0000
0000
,  // measure 96
3010
0000
0010
0000
0010
0100
0010
0000
,  // measure 97
1000
0100
0010
0001
0100
0000
0001
0000
,  // measure 98
0100
0000
0100
0000
0100
0010
0100
0000
,  // measure 99
0001
1000
0010
0100
0001
0000
0010
0000
,  // measure 100
0001
0100
0010
1000
0100
1000
0010
0100
,  // measure 101
0001
1000
0100
0010
0001
1000
0002
0000
,  // measure 102
1003
0100
1000
0010
0100
0001
0010
0001
,  // measure 103
1000
0001
0010
0100
1000
0000
0000
0000
,  // measure 104
0110
0000
0000
0000
;
