#TITLE:mint candy ☆ citrus drop;
#SUBTITLE:;
#ARTIST:U.KI;
#TITLETRANSLIT:;
#SUBTITLETRANSLIT:;
#ARTISTTRANSLIT:UKI;
#GENRE:;
#CREDIT:;
#BANNER:mint candy citrus drop_banner.png;
#BACKGROUND:mint candy citrus drop.png;
#LYRICSPATH:;
#CDTITLE:;
#MUSIC:mint candy citrus drop.ogg;
#OFFSET:-0.580000;
#SAMPLESTART:66.199997;
#SAMPLELENGTH:15.000000;
#SELECTABLE:YES;
#BPMS:0.000000=128.000000
;
#STOPS:
;
#BGCHANGES:;
#KEYSOUNDS:;
#ATTACKS:;

//---------------dance-single - ----------------
#NOTES:
     dance-single:
     :
     Easy:
     3:
     0.160687,0.194458,0.038129,0.085790,0.000000,118.000000,114.000000,4.000000,9.000000,0.000000,0.000000,0.160687,0.194458,0.038129,0.085790,0.000000,118.000000,114.000000,4.000000,9.000000,0.000000,0.000000:
0000
0000
0000
0000
,
0000
0000
0000
0000
,
0000
0000
0000
0000
,
0000
0000
0000
0000
,
0000
0000
0000
0000
,
0000
0000
0000
0000
,
1000
0000
1000
0000
,
0001
0000
0001
0000
,
0100
0000
0100
0000
,
0020
0000
0000
0000
0000
0030
0000
0000
,
0100
0001
0100
0000
,
0010
0010
0010
0000
,
1000
0100
1000
0000
,
0001
0001
0001
0000
,
0100
0010
0100
0000
,
0010
1000
0010
0000
,
0100
0001
0100
0000
,
2002
0000
0000
0000
0000
3003
0000
0000
,
0010
0000
1000
0000
,
0001
0000
0100
0000
,
0001
0000
0010
0000
,
0100
0000
1000
0000
,
0010
1000
0010
0000
,
0100
0001
0100
0000
,
0001
0010
0100
0000
,
1000
0100
0010
0000
,
0001
1000
0001
0000
,
0100
0010
0100
0000
,
0001
0000
0001
0010
,
0001
0000
1000
0100
,
1000
0010
1000
0000
,
0001
0100
0001
0000
,
1000
0000
1000
0010
,
0100
0000
0001
0100
,
0220
0000
0000
0000
0000
0330
0000
0000
,
1000
0001
0010
0000
,
0001
1000
0100
0000
,
1000
0010
0100
0000
,
0001
0010
0100
0000
,
0010
0001
0010
0000
,
1000
0010
1000
0000
,
0100
1000
0100
0000
,
0001
0000
0011
0000
,
2000
0000
0000
0000
0000
3000
0000
0000
,
0002
0000
0000
0000
0000
0003
0000
0000
,
0200
0000
0000
0000
0000
0300
0000
0000
,
0020
0000
0000
0000
0000
0030
0000
0000
,
0100
0001
0100
0000
,
0010
1000
0010
0000
,
1000
0100
0001
0000
,
0001
0010
1000
0000
,
1001
0000
0000
0000
;

//---------------dance-single - ----------------
#NOTES:
     dance-single:
     :
     Medium:
     7:
     0.266903,0.315994,0.133452,0.057194,0.000000,196.000000,182.000000,14.000000,6.000000,0.000000,0.000000,0.266903,0.315994,0.133452,0.057194,0.000000,196.000000,182.000000,14.000000,6.000000,0.000000,0.000000:
0000
0000
0000
0000
,
0000
0000
0000
0000
,
0000
0010
0000
0010
,
0000
0010
0000
0010
,
0000
0100
0000
0100
,
0000
0100
0000
0100
,
0001
1000
0001
1000
,
0010
0100
0010
0000
,
1000
0010
1000
0001
,
0100
0010
0101
0000
,
0001
0010
0001
1000
,
0100
1000
0010
0000
,
0100
0001
1000
0001
,
0010
0100
1000
0000
,
0010
1000
0001
0010
,
0100
1000
0001
0000
,
1000
0100
0010
0001
,
1001
0000
0110
0000
,
1000
0010
1000
0000
,
0001
0010
0001
0000
,
0100
0010
1000
0001
,
1001
0000
0110
0000
,
0100
0001
0100
0000
,
0010
1000
0010
0000
,
1000
0001
0100
0010
,
1000
0000
0100
0000
1000
0001
1000
0000
,
0001
0000
0001
0000
1000
0010
1000
0000
,
0001
0000
0101
0000
,
1000
0000
1000
0000
0001
0100
0001
0000
,
1000
0000
1010
0000
,
0100
0000
0010
0000
0100
0010
0100
0000
,
0010
0000
1001
0000
,
0001
0000
0100
0000
0010
1000
0010
0000
,
0100
0001
1000
0010
,
2002
0000
0000
0000
0000
3003
0000
0000
,
0001
0010
0001
1000
0000
0000
1010
0000
,
0100
0001
1000
0100
,
1000
0010
1000
0001
0000
0000
0011
0000
,
0100
0000
1000
0000
0001
0100
0001
0000
,
1000
0010
1000
0001
0000
0000
1001
0000
,
0100
0000
0010
0000
0100
0001
0100
0000
,
0001
0010
0001
1000
0000
0000
1001
0000
,
1000
0100
1000
0000
0001
0100
0001
0000
,
2000
0010
0000
3010
,
0002
0000
0103
0000
0000
1000
1000
0000
,
0002
0010
0000
0013
,
2000
0000
3100
0000
0000
0001
0001
0000
,
1000
0010
1000
0000
0010
0000
0100
0000
,
0001
0010
0001
0000
0100
0000
0010
0000
,
1000
0000
0001
0000
1000
0010
1000
0000
,
0001
0000
0010
0000
0001
1000
0001
0000
,
0110
0000
0000
0000
;

//---------------dance-single - ----------------
#NOTES:
     dance-single:
     :
     Hard:
     11:
     0.439845,0.413223,0.247839,0.076258,0.000000,323.000000,297.000000,26.000000,8.000000,0.000000,0.000000,0.439845,0.413223,0.247839,0.076258,0.000000,323.000000,297.000000,26.000000,8.000000,0.000000,0.000000:
// measure 0
0000
0000
0000
0000
,  // measure 1
0000
0000
0000
0000
,  // measure 2
0002
0010
0000
0013
,  // measure 3
2000
0010
0000
3010
,  // measure 4
0200
0001
0000
0301
,  // measure 5
0020
1000
0000
1030
,  // measure 6
0100
0000
0101
0000
0001
1000
0001
0000
,  // measure 7
1000
0000
1010
0000
0010
0100
0010
0000
,  // measure 8
0100
0001
0100
0000
0001
0000
1001
0000
,  // measure 9
1000
0010
0100
0010
1000
0001
0010
0001
,  // measure 10
1000
0000
1100
0000
0001
0100
0001
0000
,  // measure 11
0010
0001
1000
0001
0010
0001
0100
0000
,  // measure 12
0010
1000
0010
0100
0001
0000
1001
0000
,  // measure 13
1000
0001
0010
0001
1000
0100
1000
0000
,  // measure 14
0010
0100
0001
0100
0010
1000
0010
0000
,  // measure 15
0100
0001
0010
0001
0100
0010
1000
0000
,  // measure 16
0001
0010
0100
0000
1000
0010
0100
0000
,  // measure 17
0001
1000
0001
1000
0010
0100
0010
0000
,  // measure 18
1000
0100
1000
0010
0000
0010
0100
0001
,  // measure 19
0000
0001
0010
0001
1000
0010
1000
0001
,  // measure 20
0000
0100
0001
0010
0000
0001
1000
0100
,  // measure 21
0000
0001
0100
1000
0001
1000
0100
0010
,  // measure 22
0001
1000
0001
0100
0000
0010
1000
0100
,  // measure 23
0000
1000
0001
0010
0001
0010
0100
1000
,  // measure 24
0000
0010
0100
0010
1000
0001
1000
0001
,  // measure 25
0100
0010
1000
0001
0010
0100
1000
0000
,  // measure 26
0001
0101
0000
1100
0000
1010
0000
0011
,  // measure 27
0000
1000
0010
1000
0001
0100
0001
0000
,  // measure 28
1000
1100
0000
0101
0000
0011
0000
1010
,  // measure 29
0000
1000
0001
0010
0001
0100
0010
0000
,  // measure 30
0100
0001
1000
0100
0000
1010
0000
0011
,  // measure 31
0000
0001
0100
0010
0100
0001
1000
0000
,  // measure 32
0010
1000
0001
0010
0000
1100
0000
0101
,  // measure 33
0000
1000
0010
0100
0010
1000
0001
0010
,  // measure 34
0002
0000
1000
0000
1003
0010
0100
0010
,  // measure 35
1000
0100
0010
0001
0000
1100
0000
0011
,  // measure 36
0000
1000
0010
0100
0001
1000
0100
0000
,  // measure 37
0010
0001
1000
0010
0000
0101
0000
1010
,  // measure 38
0000
0010
1000
0100
1000
0010
0100
0000
,  // measure 39
0001
0010
0100
1000
0000
0011
0000
1100
,  // measure 40
0000
1000
0010
0001
0010
1000
0001
0000
,  // measure 41
0100
0010
1000
0001
0000
0011
0000
1010
,  // measure 42
0000
1000
0100
0001
0100
1000
0001
0000
,  // measure 43
2000
0001
0000
0001
0000
0010
0000
3010
,  // measure 44
0002
1000
0000
1000
0000
0100
0103
0000
,  // measure 45
0020
1000
0000
1000
0000
0100
0000
0130
,  // measure 46
0001
1000
0001
1000
0000
0100
0110
0000
,  // measure 47
0010
0001
1000
0100
1000
0001
0010
0100
,  // measure 48
1000
0010
1000
0100
1000
0001
0010
0001
,  // measure 49
0100
0010
0100
0010
1000
0001
1000
0001
,  // measure 50
1000
0010
0100
0001
0010
0001
0100
0010
,  // measure 51
1000
0000
0000
0000
;
