#TITLE:milky ice bear;
#SUBTITLE:;
#ARTIST:S-C-U;
#TITLETRANSLIT:;
#SUBTITLETRANSLIT:;
#ARTISTTRANSLIT:;
#GENRE:;
#CREDIT:;
#BANNER:Milky_ice_bear_banner.png;
#BACKGROUND:Milky_ice_bear.png;
#LYRICSPATH:;
#CDTITLE:;
#MUSIC:milky ice bear.ogg;
#OFFSET:-0.400000;
#SAMPLESTART:68.959999;
#SAMPLELENGTH:13.000000;
#SELECTABLE:YES;
#BPMS:0.000000=147.000000
;
#STOPS:92.000000=0.102000,
92.500000=0.102000,
93.000000=0.102000,
93.500000=0.102000
;
#BGCHANGES:;
#KEYSOUNDS:;
#ATTACKS:;

//---------------dance-single - ----------------
#NOTES:
     dance-single:
     :
     Easy:
     6:
     0.214067,0.289227,0.070516,0.149847,0.000000,170.000000,162.000000,8.000000,17.000000,0.000000,0.000000,0.214067,0.289227,0.070516,0.149847,0.000000,170.000000,162.000000,8.000000,17.000000,0.000000,0.000000:
0000
0000
0000
0000
,
0000
0000
0000
0000
,
0000
0000
0000
0000
,
0000
0000
0000
0000
,
0001
0000
0010
0000
,
0100
0000
1000
0000
,
0020
0000
0000
0030
,
0000
0000
0000
0000
,
2000
0000
0010
0000
,
3010
0000
0001
0100
,
0002
0000
0013
0001
,
1000
0000
1001
0000
,
0200
0000
0000
0300
,
0010
0000
0010
1000
,
0002
0000
0013
0000
,
0100
0000
1000
0001
,
0100
0000
0100
0000
,
0010
0000
0010
0000
,
1000
0000
1000
0000
,
0001
0100
0010
0000
,
1000
0000
1000
0000
,
0001
0000
0001
0000
,
0100
0000
0100
0000
,
0010
0000
0000
0100
,
0000
0001
0000
1000
,
0100
1000
0000
0002
,
0000
0003
0000
0010
,
0001
1000
0100
1000
,
0000
0010
0000
0100
,
0001
0100
0000
2002
,
0000
3003
0000
1000
,
0010
1000
0000
0010
,
0100
0010
0000
1000
,
0001
0010
0000
0001
,
0100
0010
0000
1000
,
0100
0010
0001
0100
,
0010
0000
0010
1000
,
0001
1000
0100
0010
,
0001
0000
0001
1000
,
0100
0000
0100
1000
,
0010
0100
0001
0220
,
0000
0000
0000
0330
0000
0000
0001
0000
,
0010
0001
0000
1000
,
0100
1000
0000
0020
,
0000
0130
0000
0010
,
0100
1001
0000
0100
,
0010
1000
0000
0001
,
0010
0100
0000
1000
,
0100
0010
0001
2000
,
0000
3010
0010
0100
,
1000
0100
0000
0001
,
0010
0001
0000
0100
,
0010
1000
0000
0001
,
1000
0010
0000
0110
,
0000
1000
0001
0100
,
0000
0010
1000
0100
,
1000
0001
0010
1001
,
0000
0110
0000
0002
,
0000
0000
0013
0200
,
0000
0000
1300
2000
,
0000
3010
0000
0100
,
0001
1000
0100
0020
,
0001
0000
0031
0200
,
1000
0000
1300
1000
,
0001
0010
0100
1001
,
0000
0000
0010
0000
0100
0010
0000
0000
;

//---------------dance-single - ----------------
#NOTES:
     dance-single:
     :
     Medium:
     9:
     0.411765,0.441278,0.123403,0.123403,0.052887,327.000000,313.000000,14.000000,14.000000,0.000000,0.000000,0.411765,0.441278,0.123403,0.123403,0.052887,327.000000,313.000000,14.000000,14.000000,0.000000,0.000000:
0000
0000
0000
0000
,
0000
0000
0000
0000
,
0000
0000
0000
0000
,
0000
0000
0000
0000
,
0012
0000
0000
1003
0000
0100
0000
0220
,
0000
0000
0330
0000
0000
1000
0000
0002
,
0000
0000
0000
0003
,
0000
0100
0010
0000
1000
0001
1000
0000
,
0001
0010
0100
0000
1000
0000
0010
0000
,
1000
0100
0010
0000
0001
0000
0100
0000
,
0010
0100
0010
0000
1000
0000
0100
0000
,
1000
0010
0100
0000
0001
0000
0010
0000
,
0001
0100
0010
0000
1000
0000
0001
0000
,
0010
0100
1000
0000
0001
0000
0010
0000
,
0001
0100
0010
0000
1000
0100
0010
0001
,
0000
1000
0001
0000
0100
0000
0110
0000
,
0010
0000
0000
0010
0000
0000
0010
0000
1000
0000
0000
0000
0001
0000
0000
0000
,
0100
0000
0000
0100
0000
0000
0100
0000
0001
0000
0000
0000
0010
0000
0000
0000
,
0001
0000
0000
0001
0000
0000
0001
0000
1000
0000
0000
0000
0100
0000
0000
0000
,
1000
0000
0000
1000
0000
0000
1000
0000
0010
0000
0000
0000
0100
0000
0000
0000
,
0001
0000
0000
0100
0000
0000
0001
0000
1000
0000
0000
0000
0010
0000
0000
0000
,
1000
0000
0000
0100
0000
0000
1000
0000
0001
0000
0000
0000
0010
0000
0000
0000
,
0001
0000
0000
0100
0000
0000
0010
0000
1000
0000
0000
0000
0001
0000
0000
0000
,
1000
0001
1000
0001
0100
0000
0010
0000
,
1000
0000
0010
0100
0010
0000
1000
0001
,
1000
0000
0000
0000
0001
0000
0000
0010
0000
0000
0200
0000
0000
0000
0000
0000
,
1000
0000
0310
0001
,
0010
0000
0000
0000
0001
0000
0000
1000
0000
0000
0001
0000
0100
0000
0000
0000
,
0110
0000
0010
1000
0010
0000
0100
0001
,
0100
0000
0000
0000
0010
0000
0000
1000
0000
0000
0002
0000
0000
0000
0000
0000
,
0010
0000
0000
0000
1003
0000
0010
0100
,
0010
0100
0000
0001
1000
0000
1001
0000
,
0010
0000
0100
0010
0100
0000
0010
1000
,
0100
1000
0001
0010
,
0100
0000
1000
0001
1000
0000
0010
0100
,
0010
1000
0001
0000
1001
0000
0100
0000
,
0010
0000
1000
0100
0010
0000
0001
1000
,
0100
0000
1000
0000
0101
0000
0010
1000
,
0010
0000
0100
0001
0100
0000
0001
0010
,
0001
0000
1000
0100
1000
0000
0010
0100
,
0010
0000
1000
0001
0100
0020
0000
0000
,
0000
0000
0000
0000
0130
0000
0001
1000
,
0001
0000
1000
0000
0100
0000
0000
0010
0000
0000
0001
0000
0000
0000
0100
0000
,
0010
0000
1000
0000
1001
0000
0010
0100
,
0010
0000
1000
0001
1000
0000
0010
0100
,
0001
1000
0010
0000
1010
0000
0001
0010
,
0100
0000
0010
0100
1000
0000
0010
0100
,
0001
0000
1000
0100
0010
0000
0001
1000
,
0100
0010
0100
0000
1100
0000
0010
1000
,
0001
0010
0200
0000
0310
0000
0001
0010
,
0100
0000
1000
0000
0001
0000
0000
1000
0000
0000
0001
0000
0000
0000
0100
0000
,
0010
0000
1000
0000
0101
0000
0010
1000
,
0100
0000
1000
0001
0010
0000
0001
1000
,
0100
0010
0001
0000
1001
0000
0100
0010
,
1000
0000
0010
0100
0001
0000
0010
0001
,
0100
0010
2000
0000
3001
0000
0100
0010
,
0100
0001
2000
0000
3010
0000
0100
0001
,
0010
0000
0001
1000
0100
0000
0020
0000
,
0001
0000
0130
0002
,
1000
0000
0103
0200
,
0010
0000
0000
0000
1300
0000
0010
0100
,
0010
0000
1000
0001
0010
0100
1000
0010
,
1000
0000
0001
0000
0101
0000
0010
0100
,
0010
0000
1000
0000
1010
0000
0001
0010
,
1000
0000
1000
0010
0001
0010
0000
0001
,
0100
0000
0010
1000
0001
0200
0000
0000
,
0000
0000
0000
0300
;

//---------------dance-single - ----------------
#NOTES:
     dance-single:
     :
     Hard:
     13:
     0.651016,0.823718,0.537687,0.105774,0.414283,517.000000,456.000000,61.000000,12.000000,0.000000,0.000000,0.651016,0.823718,0.537687,0.105774,0.414283,517.000000,456.000000,61.000000,12.000000,0.000000,0.000000:
0000
0000
0000
0000
,
0000
0000
0000
0000
,
0000
0000
0000
0000
,
0000
0000
0000
0000
,
1002
0000
0000
0103
0000
0010
0100
0120
,
0000
0000
0000
0000
0000
1030
0000
2200
,
0000
0000
0000
3300
,
0000
0000
0001
0000
0010
0000
0001
0100
0000
0010
1000
0000
0010
0000
0100
0000
,
0010
0000
1000
0000
0100
0000
1000
0001
0000
0010
0001
0000
0100
0000
0010
0000
,
1000
0000
0010
0000
0100
0000
0001
0010
0000
0100
1000
0000
0001
0000
0100
0000
,
0010
0000
0100
0000
0001
0000
1000
0100
0000
0010
0001
0000
0100
0000
0010
0000
,
1000
0000
0010
0000
0100
0000
0001
0010
0000
0001
1000
0000
0100
0000
1000
0000
,
0010
0000
0100
0000
0010
0000
1000
0010
0000
0100
0001
0000
0010
0000
0001
0000
,
1000
0000
0010
0000
0001
0000
0010
1000
0000
0001
0100
0000
0001
0000
0010
0000
,
0100
0000
1000
0000
0100
0000
0001
0100
0000
1000
0010
0000
0100
0000
0001
0000
,
0000
0010
0001
0100
0010
1000
1001
0000
,
0110
0000
0000
0010
0000
0000
1010
0000
1001
0000
0000
0001
0000
0000
0101
0000
,
0110
0000
0000
0010
0000
0000
0010
0000
0011
0000
0000
0001
0000
0000
0110
0000
,
1100
0000
0000
0100
0000
0000
0110
0000
0011
0000
0000
0001
0000
0000
1001
0000
,
1010
0011
1100
0101
,
0011
0000
0000
0011
0000
0000
0011
0000
1001
0000
0000
1001
0000
0000
1001
0000
,
1010
0000
0000
1010
0000
0000
1010
0000
0110
0000
0000
0110
0000
0000
0110
0000
,
0101
0000
0000
1100
0000
0000
1010
0000
0110
0000
0000
0101
0000
0000
0011
0000
,
1010
0101
0011
1100
1001
0000
0001
0010
,
0001
0100
0000
0100
0010
0000
1000
0100
0000
0100
1000
0000
0001
0000
0010
0000
,
0100
0000
1000
0000
0010
0000
0000
0100
0000
0000
1010
0000
0000
0000
0010
0000
,
0100
0001
0010
1000
0020
0000
0031
1000
,
0100
0000
1000
0000
0010
0000
0000
0110
0000
0000
0100
0000
0001
0000
1000
0000
,
0100
0010
0000
0010
0100
0000
1000
0001
0000
0001
0010
0000
0001
0000
0100
0000
,
0010
0000
1000
0000
0001
0000
0000
0011
0000
0000
1100
0000
0000
0000
1000
0000
,
0010
0100
0010
1000
0001
0000
1000
0001
,
1000
0010
0000
0100
0110
0000
0010
1000
,
0010
0000
0100
0010
0000
0100
0010
0000
1000
0000
0001
0000
0010
0000
0001
0000
,
1000
0000
0100
1000
0000
0001
0010
0000
0002
0000
0000
0000
0013
0000
0100
0000
,
1000
0000
0010
0100
0000
0001
0010
0000
0001
0000
1000
0000
0100
0000
0001
0000
,
0100
0000
1000
0010
0000
0100
0001
0000
1000
0000
1000
0000
0001
0000
0100
0000
,
0010
0000
0100
0001
0000
1000
0010
0000
0100
0000
0010
0000
1000
0000
0100
0000
,
0010
0000
0001
0010
0000
0001
0100
0000
0020
0000
0000
0000
1030
0000
0100
0000
,
1000
0000
0010
0100
0000
0010
0100
0000
0001
0000
0010
0000
0001
0000
1000
0000
,
0100
0000
1000
0001
0000
1000
0001
0000
0010
0000
0100
0000
0010
0000
0001
0000
,
1000
0000
0001
0100
0000
0010
1000
0000
0010
0000
0200
0000
0000
0000
0000
0000
,
0010
0000
0000
0010
0000
0000
0010
0000
0310
0000
0000
0000
1000
0000
0010
0000
,
0100
0000
0010
0000
1000
0000
0000
0001
0000
0000
1001
0000
0000
0000
0010
0000
,
0100
0000
0000
0000
0001
0000
0000
0010
0000
0000
1100
0000
0000
0000
1000
0000
,
0001
0000
0010
0001
0000
1000
0100
0000
1000
0000
0010
0000
0100
0000
0001
0000
,
1000
0100
0000
0011
0000
1000
0001
0010
,
0100
0000
0000
0000
0010
0000
0000
1001
0000
0000
1000
0000
0000
0010
0100
0000
,
0001
0000
0100
0010
0000
1000
0001
0000
1000
0000
0100
0000
1000
0000
0010
0000
,
0001
0000
0010
0100
0000
0010
0100
0000
0001
0000
1000
0000
0000
0000
0001
0000
,
0100
1000
0001
0010
1000
0000
1001
1000
,
0100
0000
0010
0000
0001
0000
0000
1001
0000
0000
0110
0000
0000
0000
0010
0000
,
1000
0000
0100
0000
1000
0000
0000
0011
0000
0000
0100
0000
0001
0000
0100
0000
,
0010
0000
1000
0001
0000
1000
0001
0000
0010
0000
0100
0000
1000
0000
0010
0000
,
0001
0010
0000
0110
0000
1010
1000
0001
,
0020
0000
0000
0000
0031
0000
0000
0101
0000
0000
1010
0000
0000
0100
0010
0000
,
0100
0000
0010
1000
0000
0001
0010
0000
0001
0000
1000
0000
0100
0000
1000
0000
,
0001
0000
0010
0001
0000
1000
0100
0000
1000
0000
0010
0000
0000
0000
0100
0000
,
0010
0000
0001
0010
0000
1000
0100
0000
2000
0000
0000
0000
3001
0000
0010
0000
,
0001
0000
1000
0100
0000
1000
0010
0000
0100
0000
0010
0000
1000
0000
0001
0000
,
0010
0000
0100
1000
0000
0100
0010
0000
0001
0000
0010
0000
0001
0000
0100
0000
,
0001
0000
1000
0010
0000
0100
0010
0000
1000
0000
0100
0000
1000
0000
0010
0000
,
0100
0000
0010
1000
0000
0001
0100
0000
0001
0000
0010
0000
0001
0000
1000
0000
,
0010
0000
0100
0010
0000
0010
0100
0000
0010
0000
1000
0000
0100
0000
0010
0000
,
0001
0000
1000
0100
0000
0100
1000
0000
0001
0000
0010
0000
0001
0000
0100
0000
,
0010
0000
1000
0001
0000
0001
1000
0000
0010
0000
0110
0000
0000
0000
1000
0000
,
0010
0001
1000
0100
0001
2002
0000
0000
,
0000
0000
0000
3003
;

//---------------dance-double - ----------------
#NOTES:
     dance-double:
     :
     Hard:
     13:
     0.635906,0.823718,0.449541,0.105774,0.401061,505.000000,454.000000,51.000000,12.000000,0.000000,0.000000,0.635906,0.823718,0.449541,0.105774,0.401061,505.000000,454.000000,51.000000,12.000000,0.000000,0.000000:
// measure 0
00000000
00000000
00000000
00000000
,  // measure 1
00000000
00000000
00000000
00000000
,  // measure 2
00000000
00000000
00000000
00000000
,  // measure 3
00000000
00000000
00000000
00000000
,  // measure 4
00110000
00000000
01000000
10000000
00000000
00100000
01000000
00002000
,  // measure 5
00000000
00000000
00010000
00000000
00000000
01003000
00000000
00020020
,  // measure 6
00000000
00000000
00000000
00030030
,  // measure 7
00000000
00000000
00001000
00000000
00000001
00000000
00000010
00000001
00000000
00001000
00000010
00000000
00010000
00000000
00000100
00000000
,  // measure 8
00010000
00000000
00001000
00000000
01000000
00000000
00010000
00100000
00000000
01000000
10000000
00000000
00100000
00000000
10000000
00000000
,  // measure 9
01000000
00000000
00100000
00000000
00001000
00000000
00010000
00000100
00000000
00001000
00000010
00000000
00000100
00000000
00000001
00000000
,  // measure 10
00000010
00000000
00000100
00000000
00000010
00000000
00000001
00001000
00000000
00000010
00010000
00000000
00000100
00000000
00001000
00000000
,  // measure 11
00000010
00000000
00010000
00000000
00001000
00000000
00100000
00010000
00000000
10000000
01000000
00000000
20000000
00000000
00000000
00000000
,  // measure 12
30100000
00000000
01000000
00000000
00100000
00000000
10000000
01000000
00000000
00100000
00010000
00000000
01000000
00000000
00001000
00000000
,  // measure 13
00010000
00000000
00000100
00000000
00010000
00000000
00001000
00100000
00000000
00001000
00010000
00000000
00000010
00000000
00001000
00000000
,  // measure 14
00000001
00000000
00000100
00000000
00000010
00000000
00001000
00000001
00000000
00000010
00000100
00000000
00010000
00000000
00001000
00000000
,  // measure 15
00000000
00010000
01000000
10000000
01000000
00010000
00001000
00000000
,  // measure 16
00010010
00000000
00000000
00000010
00000000
00000000
00000010
00000000
00001010
00000000
00000000
00001000
00000000
00000000
00001000
00000000
,  // measure 17
00001001
00000000
00000000
00000001
00000000
00000000
00000001
00000000
00000011
00000000
00000000
00000010
00000000
00000000
00000010
00000000
,  // measure 18
00000110
00000000
00000000
00000100
00000000
00000000
00000100
00000000
00010100
00000000
00000000
00010000
00000000
00000000
00010000
00000000
,  // measure 19
00011000
00110000
11000000
10010000
,  // measure 20
01100000
00000000
00000000
10010000
00000000
00000000
10100000
00000000
10010000
00000000
00000000
00110000
00000000
00000000
00101000
00000000
,  // measure 21
00011000
00000000
00000000
00010100
00000000
00000000
00010010
00000000
00001010
00000000
00000000
00001100
00000000
00000000
00001001
00000000
,  // measure 22
00000011
00000000
00000000
00001100
00000000
00000000
00000011
00000000
00000110
00000000
00000000
00010100
00000000
00000000
00011000
00000000
,  // measure 23
00101000
01010000
10100000
10010000
01100000
00000000
01000000
00010000
,  // measure 24
00100000
01000000
00000000
01000000
10000000
00000000
00100000
01000000
00000000
01000000
00010000
00000000
00100000
00000000
00001000
00000000
,  // measure 25
01000000
00000000
00100000
00000000
10000000
00000000
00000000
11000000
00000000
00000000
00110000
00000000
00000000
00000000
01000000
00000000
,  // measure 26
00010000
00100000
00001000
00010000
00000020
00000000
00000130
00000100
,  // measure 27
00000001
00000000
00000010
00000000
00000100
00000000
00000000
00010100
00000000
00000000
00001000
00000000
00000010
00000000
00000100
00000000
,  // measure 28
00000001
00000010
00000000
00000010
00000100
00000000
00001000
00000010
00000000
00000010
00000100
00000000
00000001
00000000
00001000
00000000
,  // measure 29
00000010
00000000
00010000
00000000
00000100
00000000
00000000
00001100
00000000
00000000
00000001
00000000
00000010
00000000
00000001
00000000
,  // measure 30
00001000
00000000
00000010
00010000
00001000
00000000
00100000
00001000
,  // measure 31
00010000
00000100
00000000
00010000
00011000
00000000
01000000
00100000
,  // measure 32
10000000
00000000
00010000
00100000
00000000
00001000
00100000
00000000
00010000
00000000
10000000
00000000
01000000
00000000
00100000
00000000
,  // measure 33
00001000
00000000
00010000
00000100
00000000
00010000
00001000
00000000
00020000
00000000
00000000
00000000
00030010
00000000
00001000
00000000
,  // measure 34
00000100
00000000
00001000
00000001
00000000
00000100
00000010
00000000
00010000
00000000
00000010
00000000
00001000
00000000
00000100
00000000
,  // measure 35
00000010
00000000
00000001
00001000
00000000
00000010
00010000
00000000
00001000
00000000
00010000
00000000
01000000
00000000
10000000
00000000
,  // measure 36
00100000
00000000
10000000
00010000
00000000
00100000
00001000
00000000
00010000
00000000
00000010
00000000
00001000
00000000
00000100
00000000
,  // measure 37
00000001
00000000
00000100
00001000
00000000
00000010
00010000
00000000
00002000
00000000
00000000
00000000
00013000
00000000
00000100
00000000
,  // measure 38
00000010
00000000
00000100
00001000
00000000
00000001
00001000
00000000
00000010
00000000
00010000
00000000
00001000
00000000
00100000
00000000
,  // measure 39
00010000
00000000
10000000
00010000
00000000
00100000
01000000
00000000
10000000
00000000
00010000
00000000
00100000
00000000
00001000
00000000
,  // measure 40
00010000
00000000
00000100
00010000
00000000
00001000
00100000
00000000
00001000
00000000
00022000
00000000
00000000
00000000
00033000
00000000
,  // measure 41
00000000
00000000
00000000
00000000
00000000
00000000
00100000
01000000
,  // measure 42
10000000
00000000
00100000
00000000
10000000
00000000
00000000
10010000
00000000
00000000
01000000
00000000
00001000
00000000
00010000
00000000
,  // measure 43
00000010
00000000
00000000
00000000
00001100
00000000
00000000
00010000
00000000
00000000
00000010
00000000
00001000
00000000
00000001
00000000
,  // measure 44
00000010
00000000
00000100
00010000
00000000
00001000
00010000
00000000
00001000
00000000
00100000
00000000
00010000
00000000
10000000
00000000
,  // measure 45
00100000
01000000
00000000
00110000
00000000
10000000
00010000
00100000
,  // measure 46
00001000
00000000
00000000
00000000
00010010
00000000
00000000
00001000
00000000
00000000
00000100
00000000
00000000
00010000
00000010
00000000
,  // measure 47
00001000
00000000
00000100
00001000
00000000
00001000
00000001
00000000
00000010
00000000
00000100
00000000
00001000
00000000
00000010
00000000
,  // measure 48
00010000
00000000
00001000
00100000
00000000
00100000
00001000
00000000
00010000
00000000
00000100
00000000
00000000
00000000
00001000
00000000
,  // measure 49
00000100
00000001
00000100
00001000
00000010
00000000
00011000
00001000
,  // measure 50
00100000
00000000
00010000
00000000
10000000
00000000
00000000
00110000
00000000
00000000
10000000
00000000
00000000
00000000
00100000
00000000
,  // measure 51
01000000
00000000
00001000
00000000
00010000
00000000
00000000
00001010
00000000
00000000
00000100
00000000
00010000
00000000
00000010
00000000
,  // measure 52
00001000
00000000
00000001
00000010
00000000
00000100
00001000
00000000
00000010
00000000
00010000
00000000
00001000
00000000
00100000
00000000
,  // measure 53
01000000
10000000
00000000
10010000
00000000
00100000
00001000
01000000
,  // measure 54
00010000
00000000
00000000
00000000
00101000
00000000
00000000
00010000
00000000
00000000
00000100
00000000
00000000
00001000
00000010
00000000
,  // measure 55
00000100
00000000
00000001
00000010
00000000
00000001
00001000
00000000
00000010
00000000
00010000
00000000
00000100
00000000
00010000
00000000
,  // measure 56
00001000
00000000
01000000
00100000
00000000
00100000
01000000
00000000
00010000
00000000
10000000
00000000
00000000
00000000
10000000
00000000
,  // measure 57
01000000
00010000
01000000
10000000
00020000
00000000
00130000
00001000
,  // measure 58
00010000
00000000
00000010
00000100
00000000
00000010
00001000
00000000
00000001
00000000
00000010
00000000
00000100
00000000
00001000
00000000
,  // measure 59
00000010
00000000
00010000
00001000
00000000
00010000
00000100
00000000
00001000
00000000
00000010
00000000
00010000
00000000
00001000
00000000
,  // measure 60
00100000
00000000
00010000
10000000
00000000
01000000
10000000
00000000
00100000
00000000
01000000
00000000
00010000
00000000
10000000
00000000
,  // measure 61
00100000
00000000
00010000
00100000
00000000
10000000
00100000
00000000
01000000
00000000
00001000
00000000
00100000
00000000
00010000
00000000
,  // measure 62
01000000
00000000
00001000
00010000
00000000
00010000
00000010
00000000
00001000
00000000
00000001
00000000
00000100
00000000
00000010
00000000
,  // measure 63
00010000
00000000
00000100
00001000
00000000
00001000
00000010
00000000
00000100
00000000
00000001
00000000
00000010
00000000
00000100
00000000
,  // measure 64
00010000
00000000
00001000
00100000
00000000
00100000
00010000
00000000
10000000
00000000
00100000
00000000
00000000
00000000
10000000
00000000
,  // measure 65
01000000
00010000
00001000
00000100
00000001
00000202
00000000
00000000
,  // measure 66
00000000
00000000
00000000
00000303
;
