#TITLE:Jewelry girl*;
#SUBTITLE:;
#ARTIST:jun;
#TITLETRANSLIT:;
#SUBTITLETRANSLIT:;
#ARTISTTRANSLIT:;
#GENRE:JEWERLY ROCK;
#CREDIT:;
#BANNER:Jewerly girl_banner.png;
#BACKGROUND:Jewelry girl.png;
#LYRICSPATH:;
#CDTITLE:;
#MUSIC:Jewelry girl.ogg;
#OFFSET:-0.700000;
#SAMPLESTART:35.340000;
#SAMPLELENGTH:13.000000;
#SELECTABLE:YES;
#BPMS:0.000000=173.000000
,232.000000=86.500000
,248.000000=173.000000
;
#STOPS:
;
#BGCHANGES:;
#KEYSOUNDS:;
#ATTACKS:;

//---------------dance-single - ----------------
#NOTES:
     dance-single:
     :
     Easy:
     6:
     0.237719,0.331109,0.144330,0.110370,0.000000,196.000000,179.000000,17.000000,13.000000,0.000000,0.000000,0.237719,0.331109,0.144330,0.110370,0.000000,196.000000,179.000000,17.000000,13.000000,0.000000,0.000000:
0000
0000
0000
0000
,
0000
0000
0000
0000
,
0000
0000
0000
0000
,
0000
0000
0000
0000
,
0001
0010
0001
0000
,
0100
0000
0010
0000
,
1000
0100
1000
0000
,
0001
1000
0001
0000
,
0100
0200
0000
0000
,
0300
0000
0000
0000
,
0010
0000
1000
0000
,
0001
0000
0100
0000
,
0010
0020
0000
0000
,
0030
0000
0000
0000
,
1000
0001
1000
0000
,
0010
0100
0000
0000
,
0001
0000
0010
0000
,
0001
0000
1000
0000
,
0100
0000
1000
0000
,
0010
0000
0110
0000
,
0100
0000
0001
0000
,
1000
0000
0010
0000
,
1000
0000
0001
0100
,
0010
0000
0110
0000
,
2002
0000
0000
0000
0000
3003
0000
0000
,
1000
0010
0100
0000
,
0001
0010
0100
0000
,
1000
0100
1000
0000
,
0001
0010
0001
0000
,
1001
0000
0100
0000
,
0010
0000
0100
0000
,
0001
0010
0100
1000
,
0001
0000
1001
0000
,
1000
0010
0100
0000
,
0001
0010
0100
0000
,
1000
0001
0100
0000
,
0001
1000
0010
0000
,
0110
0000
0010
0000
,
1000
0001
0100
0000
,
0001
1000
0100
0010
,
0001
0000
1001
0000
,
0020
0000
0000
0000
,
0000
0000
0030
0000
,
0100
0010
1000
0000
,
0001
0000
1001
0000
,
0001
0010
0001
0000
,
1000
0000
1010
0000
,
0100
0001
1000
0010
,
0100
0000
0110
0000
,
1000
0010
1000
0000
,
0001
0000
0001
0000
,
0100
0010
0100
0000
,
0010
0000
0010
0000
,
1000
0001
1000
0000
,
0010
0000
1010
0000
,
0001
0100
0001
0000
,
1000
0010
0100
0000
,
0220
0000
0000
0000
0000
0330
0000
0000
,
1000
0000
0010
0000
,
0100
0001
0100
0010
,
1000
0001
1000
0001
,
0010
0100
2002
3003
,
0100
0010
1000
0000
,
0001
0010
0100
0000
,
1000
0010
0100
0001
,
1000
0000
1010
0000
,
0001
0010
0001
0000
,
1000
0100
1000
0000
,
0010
0100
0001
1000
,
0010
0000
1001
0000
,
0220
0000
0000
0000
,
0000
0000
0330
0000
,
1000
0010
1000
0000
,
0100
0000
0100
0000
,
0001
0010
0001
0000
,
0100
0000
0100
0000
,
0010
0100
0010
0000
,
1000
0000
2002
0000
,
3003
0000
0000
0000
;

//---------------dance-single - ----------------
#NOTES:
     dance-single:
     :
     Medium:
     9:
     0.385687,0.528925,0.203759,0.127350,0.000000,318.000000,294.000000,24.000000,15.000000,0.000000,0.000000,0.385687,0.528925,0.203759,0.127350,0.000000,318.000000,294.000000,24.000000,15.000000,0.000000,0.000000:
0000
0000
0000
0000
,
0000
0000
0000
0000
,
0000
0000
0000
0000
,
0000
0000
0000
0000
,
1000
0010
0110
0000
,
0001
0010
0100
1000
,
0010
0100
0110
0000
,
0001
1000
1001
0000
,
1000
0100
0010
0100
,
1000
0001
0100
0000
,
0010
1000
0100
1000
,
0001
0010
0001
0100
,
0010
2000
0000
3001
,
0010
0001
1000
0100
,
0010
0010
0110
0000
,
0100
0100
0110
0000
,
0001
1000
0100
1000
,
0010
0000
0100
0000
0001
0010
0001
0000
,
1000
0010
0100
0010
,
1000
0100
1001
0000
,
0001
0010
0001
0100
,
0010
0000
1000
0000
0100
1000
0100
0000
,
1000
0000
0010
0100
0000
0100
0010
0000
,
0100
0001
0100
0000
0010
0000
0100
0000
,
2002
0000
0000
3003
,
1000
0000
0100
1000
0100
0000
1000
0000
,
0001
0100
0010
1000
,
0001
0011
1000
1100
,
1000
0000
0010
0100
0000
0010
0100
0000
,
0001
0000
0010
0100
0000
0010
0100
0000
,
1000
0000
0001
0100
0000
1000
0100
0000
,
0010
0100
0001
1000
,
0001
1000
0100
0010
0000
0000
0101
0000
,
0100
0000
0010
1000
0010
0000
0100
0000
,
0001
1000
0100
1000
,
0010
1010
0100
0101
,
0001
0000
0010
1000
0000
1000
0010
0000
,
0001
0000
0100
0010
0000
0100
0010
0000
,
1000
0000
0100
0010
0000
0100
0010
0000
,
0001
1000
0010
0100
,
0010
0000
1000
0100
0010
0001
1000
0000
,
0002
0010
0013
0000
,
1000
0010
0100
0010
,
2000
0100
3100
0000
,
0001
1000
0110
0000
,
0020
1000
1030
0000
,
0001
0100
0010
1000
,
0002
0010
0013
0000
,
2000
0010
3010
0000
,
0100
0010
0120
0000
,
0000
0000
1030
0000
,
0100
0010
0210
0000
,
0000
0000
0301
0000
,
0010
0001
2001
0000
,
0010
0000
3010
0000
,
0100
0001
1001
0000
,
1000
0000
0010
0000
0101
0000
1000
0010
,
0000
0000
0000
0000
,
0002
0013
0020
0130
,
0200
1300
2000
3001
,
0100
0010
0100
0010
1000
0001
1000
0001
,
1000
0100
0010
0001
0100
0010
1000
0000
,
0001
0000
0100
0001
0100
0000
0010
0000
,
1000
0100
1000
0010
,
0100
0001
1000
0010
,
0110
0000
0000
1001
0000
0000
1010
0000
,
0100
0000
0001
0010
0000
0100
1000
0000
,
0010
0000
0100
0010
0000
1000
0001
0000
,
0010
0001
1000
0100
,
1000
0000
0010
0000
0100
0001
1000
0010
,
0100
0000
0001
0000
0000
1000
0001
0000
,
1000
0000
0010
0000
0000
0100
0001
0000
,
1000
0000
1100
0000
0000
0001
0010
0000
,
0001
0000
0100
0000
0010
1000
0010
0000
,
0100
0000
0101
0000
0000
0001
1000
0000
,
0010
0100
0010
0000
1000
0001
1000
0000
,
0010
0100
0110
0000
,
0001
0000
1000
0000
0010
1000
0100
0001
;

//---------------dance-single - ----------------
#NOTES:
     dance-single:
     :
     Hard:
     13:
     0.663431,1.090908,0.645238,0.093390,0.127350,547.000000,471.000000,76.000000,11.000000,0.000000,0.000000,0.663431,1.090908,0.645238,0.093390,0.127350,547.000000,471.000000,76.000000,11.000000,0.000000,0.000000:
// measure 0
0000
0000
0000
0000
,  // measure 1
0000
0000
0000
0000
,  // measure 2
0000
0000
0000
0000
,  // measure 3
0000
0000
0000
0000
,  // measure 4
1010
0000
1001
0000
0100
0010
0100
0001
,  // measure 5
0010
0001
1000
0010
0100
0010
1000
0000
,  // measure 6
0101
0000
1001
0000
1000
0010
0100
0000
,  // measure 7
0001
0010
0001
0100
0010
1000
0010
0100
,  // measure 8
0001
0000
1000
0100
0010
0100
1000
0010
,  // measure 9
0100
0010
0100
0001
0010
0001
1000
0000
,  // measure 10
0001
0011
0101
1010
,  // measure 11
1100
1010
1001
0101
,  // measure 12
0110
0000
1010
0000
1000
0001
0010
0100
,  // measure 13
0010
0001
1000
0010
0100
0010
1000
0000
,  // measure 14
1010
0000
1010
0000
0100
0001
0100
0000
,  // measure 15
0011
0000
0011
0000
1000
0100
0010
0100
,  // measure 16
1000
1010
1001
0101
,  // measure 17
0011
0101
1010
1001
,  // measure 18
0110
0000
1010
0000
1000
0100
0010
0001
,  // measure 19
0100
0010
1000
0001
0010
0100
0010
0000
,  // measure 20
0001
1100
1010
0101
,  // measure 21
0011
1001
0110
1001
,  // measure 22
0010
1000
0100
1000
0000
1000
0001
0010
,  // measure 23
0001
0000
0100
0000
0010
0000
1000
0000
0001
0010
0100
0000
1000
0000
1000
0000
,  // measure 24
0002
0000
0000
0103
,  // measure 25
0110
0010
1000
0001
0100
0010
1000
0100
,  // measure 26
1000
0001
0010
0100
0010
0001
1000
0010
,  // measure 27
1010
0101
0011
1100
,  // measure 28
0010
0100
1000
0200
0000
0010
0310
0000
,  // measure 29
0101
0001
0010
0100
1000
0100
0010
1000
,  // measure 30
0010
0001
1000
0002
0000
0100
0103
0000
,  // measure 31
0010
1000
0100
1000
0001
0100
0010
1000
,  // measure 32
0100
1000
0001
1001
0000
0010
0110
0000
,  // measure 33
1010
1000
0001
0010
0100
0001
1000
0010
,  // measure 34
0001
1000
0100
0010
0001
0100
0010
1000
,  // measure 35
0001
0010
1000
0010
0001
1000
0100
0001
,  // measure 36
0100
1000
0100
1100
0000
0001
0011
0000
,  // measure 37
1010
0010
0100
0001
0010
0001
1000
0010
,  // measure 38
0100
0010
1000
0010
0100
0001
1000
0100
,  // measure 39
1000
0100
0001
0100
1000
0010
0001
0010
,  // measure 40
0100
0010
0001
0010
0100
1000
0100
0010
,  // measure 41
0110
0000
1001
0000
1010
0000
1000
0001
,  // measure 42
0000
0001
0100
0010
1000
0100
0010
0001
,  // measure 43
1001
0000
0110
0000
0011
0000
0010
1000
,  // measure 44
0000
1000
0001
0100
0010
1000
0100
0000
,  // measure 45
0110
0000
0011
0000
1010
0000
1000
0001
,  // measure 46
0000
0001
0100
0010
1000
0001
1000
0100
,  // measure 47
0010
0000
0001
0010
0000
1000
0010
0001
,  // measure 48
0010
1000
0001
0100
0010
0001
0010
1000
,  // measure 49
0010
0101
2100
0000
,  // measure 50
0010
0000
3001
0000
,  // measure 51
0101
1100
0012
0000
,  // measure 52
1000
0000
0103
0000
,  // measure 53
0110
1010
0201
0000
,  // measure 54
1000
0000
0301
0000
,  // measure 55
1001
0110
1001
0010
,  // measure 56
1000
0000
0000
0000
0000
0000
0001
0000
0010
0000
0100
0000
1000
0000
0000
0000
0000
0000
0010
0000
0000
0100
0000
0000
,  // measure 57
0000
0000
0000
0000
,  // measure 58
0002
0000
0000
1000
2003
0000
0000
0000
3020
0000
0100
0000
0130
0000
0001
0000
,  // measure 59
2000
0000
0100
0000
3010
0000
0002
0000
0100
0000
0013
1000
0000
0001
0100
0000
,  // measure 60
0010
1000
0001
0100
0010
1000
0001
0100
0010
1000
0100
0010
0001
1000
0100
0010
,  // measure 61
0001
0100
0001
0100
0010
1000
0010
1000
0001
0100
1000
0100
0001
0000
1010
0000
,  // measure 62
1100
0100
0010
0001
0100
0010
1000
0001
,  // measure 63
0010
0100
0001
0100
1000
0010
0100
0001
,  // measure 64
1000
0000
0000
1000
0010
0000
0000
0010
0100
0000
0000
0100
0001
0000
0000
0001
,  // measure 65
0010
0001
1000
0010
0100
0001
1000
0100
,  // measure 66
0010
0100
0001
1000
0010
0001
0100
1000
,  // measure 67
0100
0001
1000
0010
0001
0010
0100
1000
,  // measure 68
0100
0100
0010
0010
1000
1000
0001
0001
,  // measure 69
0010
0000
0001
0000
0100
0000
0010
0000
1000
0001
1000
0001
0100
0000
0010
0000
,  // measure 70
0100
0000
0101
0000
0000
0010
1000
0000
,  // measure 71
1100
0000
0100
0000
0010
0001
1000
0100
,  // measure 72
1000
0000
1010
0000
0000
0100
0001
0000
,  // measure 73
0010
0000
0011
0000
0001
0100
0010
1000
,  // measure 74
0010
0000
0110
0000
0101
0000
0001
0010
,  // measure 75
0000
0001
0100
0010
1000
0001
0100
1000
,  // measure 76
0100
0000
0110
0000
1001
0000
1010
1000
,  // measure 77
0001
1000
0001
1000
0001
1000
0001
1000
0010
0000
0100
0000
0001
0000
1000
0000
;
