#TITLE:glacia (STARDOM Remix);
#SUBTITLE:;
#ARTIST:lapix;
#TITLETRANSLIT:;
#SUBTITLETRANSLIT:;
#ARTISTTRANSLIT:;
#GENRE:;
#CREDIT:;
#BANNER:glacia_(STARDOM_Remix)_banner.png;
#BACKGROUND:glacia_(STARDOM_Remix).png;
#LYRICSPATH:;
#CDTITLE:;
#MUSIC:glacia (STARDOM Remix).ogg;
#OFFSET:-0.090000;
#SAMPLESTART:18.549999;
#SAMPLELENGTH:14.770000;
#LASTBEATHINT:210.000000;
#SELECTABLE:YES;
#DISPLAYBPM:130.000000;
#BPMS:0.000000=130.000000
,104.000000=260.000000
,104.500000=130.000000
,104.750000=65.000000
,105.000000=130.000000
,120.000000=260.000000
,121.000000=130.000000
;
#STOPS:120.000000=0.115000,
120.500000=0.115000
;
#BGCHANGES:;
#KEYSOUNDS:;
#ATTACKS:;

//---------------dance-single - ----------------
#NOTES:
     dance-single:
     :
     Easy:
     5:
     0.192663,0.259425,0.079919,0.189808,0.000000,135.000000,127.000000,8.000000,19.000000,0.000000,0.000000,0.192663,0.259425,0.079919,0.189808,0.000000,135.000000,127.000000,8.000000,19.000000,0.000000,0.000000:
0000
0000
0000
0000
,
0000
0000
0000
0000
,
0000
0000
0000
0000
,
0000
0000
0000
0000
,
0000
0000
0000
0000
,
0001
0000
0010
0001
,
1000
0000
0010
1000
,
0100
0000
1000
0001
,
0010
0000
0001
1001
,
0220
0000
0330
0000
,
0100
0001
0010
0000
,
0001
1000
0010
0000
,
0100
0010
1000
0000
,
0200
0000
0310
0110
,
0001
1000
0010
0000
,
0100
0001
0010
0000
,
0100
1000
0001
1000
,
0200
0000
0310
1001
,
0010
0000
0100
0010
,
1000
0000
0001
0100
,
0010
0000
1000
0001
,
0010
0000
0001
0100
,
0020
0000
1030
0100
,
2000
0000
3001
0010
,
0002
0000
0103
0010
,
0200
0000
0302
0000
,
0003
1000
0000
0100
,
1000
0000
0001
0010
,
0001
0000
0100
0010
,
0100
0000
0001
1001
,
0000
0100
0000
0010
,
1000
0010
1000
0000
,
0001
0010
0001
0000
,
0020
0000
0031
1000
,
0020
0000
0000
0030
,
0200
0000
0000
0300
,
0002
0000
0000
0003
,
2000
0000
0000
3000
,
0010
1000
0100
0000
,
0010
0001
1000
0000
,
0010
1000
0100
0000
,
0010
0001
1000
0001
,
0020
0000
0030
0000
,
0001
1000
0010
0000
,
0100
0001
1000
0000
,
0100
1000
0010
0000
,
2000
0000
3001
0110
,
1000
0001
0100
0000
,
0010
1000
0001
0000
,
0010
0001
0100
0010
,
2000
0000
3001
1001
,
0220
0000
0000
0000
0000
0000
0000
0000
0000
0000
0000
0000
0000
0000
0000
0330
;

//---------------dance-single - ----------------
#NOTES:
     dance-single:
     :
     Medium:
     12:
     0.446692,0.492908,0.109889,0.349647,0.304692,313.000000,302.000000,11.000000,35.000000,0.000000,0.000000,0.446692,0.492908,0.109889,0.349647,0.304692,313.000000,302.000000,11.000000,35.000000,0.000000,0.000000:
// measure 0
0000
0000
0000
0000
,  // measure 1
0000
0000
0000
0000
,  // measure 2
0000
0000
0000
0000
,  // measure 3
0000
0000
0000
0000
,  // measure 4
0000
0000
0000
0000
,  // measure 5
0002
0100
0000
0100
0000
0100
0000
0103
,  // measure 6
2000
0010
0000
0010
0000
0010
0000
3010
,  // measure 7
0200
0001
0000
0001
0000
0001
0000
0301
,  // measure 8
0020
0100
0000
0130
1000
0001
0100
0000
,  // measure 9
2002
0000
0000
3003
,  // measure 10
0100
0000
0010
1000
0000
0100
0000
0010
0000
0001
0000
1000
0010
0000
0000
0000
,  // measure 11
0100
0000
0001
0010
0000
0100
0000
1000
0000
0001
0000
0100
0010
0000
0000
0000
,  // measure 12
1000
0000
0100
0010
0000
0000
0100
0010
0000
0000
0100
0010
0100
0000
1000
0000
,  // measure 13
0001
0000
0100
0010
0000
0000
0100
0000
0001
0000
0010
0000
0002
0000
0000
0000
,  // measure 14
0013
0000
0001
1000
0000
0010
0000
0100
0000
0001
0000
0010
0100
0000
0000
0000
,  // measure 15
1000
0000
0010
0100
0000
0001
0000
1000
0000
0100
0000
0010
0001
0000
0000
0000
,  // measure 16
0100
0000
0001
0010
0000
0000
0001
0010
0000
0000
0001
0010
0100
0000
1000
0000
,  // measure 17
0010
0000
0100
0010
0000
0000
1000
0000
0001
0000
0010
0000
0001
0000
0000
0000
,  // measure 18
1200
0320
0032
0203
,  // measure 19
0320
0000
0000
1030
0001
0100
0010
0000
,  // measure 20
1020
0230
0302
0023
,  // measure 21
0230
0000
0000
1300
0001
1000
0010
0100
,  // measure 22
0002
2003
3020
0230
,  // measure 23
0302
0000
0000
0013
0100
1000
0100
0000
,  // measure 24
2000
0000
0000
3001
0100
0010
0100
0000
,  // measure 25
0002
0000
0013
0100
1000
0000
1001
0000
,  // measure 26
0110
0000
1000
0001
0010
0100
1000
0000
,  // measure 27
0010
0100
0010
1000
0100
0010
0100
0000
,  // measure 28
1000
0001
1000
0010
0100
0001
0010
0000
,  // measure 29
0001
0100
0001
0010
0100
1000
0010
0000
,  // measure 30
0200
0320
0130
0001
1000
0100
0010
0000
,  // measure 31
0100
1000
0001
1000
0010
0100
0001
0000
,  // measure 32
0010
0001
0100
0010
1000
0001
0100
0000
,  // measure 33
0010
1000
0010
0100
0001
0010
1001
0000
,  // measure 34
0210
0000
0000
0301
0010
0000
0001
0010
,  // measure 35
0200
0000
0000
1300
0010
0000
0100
0000
,  // measure 36
0002
0000
0000
1003
0010
1000
0100
0000
,  // measure 37
0020
0000
0000
0031
1000
0001
0200
0000
,  // measure 38
0310
1000
0100
1000
0001
0010
0001
0000
,  // measure 39
0100
0001
0010
0100
1000
0010
1000
0000
,  // measure 40
0001
0100
0010
1000
0001
0010
0100
0000
,  // measure 41
1000
0001
0100
0010
1000
0010
0010
0000
,  // measure 42
0202
0303
2020
3030
,  // measure 43
1000
0000
0001
0010
0000
0100
0000
0010
0000
0001
0000
1000
0010
0000
0000
0000
,  // measure 44
0100
0000
0010
1000
0000
0001
0000
0100
0000
0010
0000
1000
0100
0000
0000
0000
,  // measure 45
1000
0000
0001
0100
0000
0000
0001
0100
0000
0000
0001
0100
0010
0000
1000
0000
,  // measure 46
0100
0000
1000
0010
0000
0000
1000
0010
0100
0000
0010
0000
0110
0000
0000
0000
,  // measure 47
0001
0000
1000
0010
0000
0100
0000
0001
0000
1000
0000
0100
0010
0000
0001
0000
,  // measure 48
1000
0000
0010
0100
0000
0001
0000
0010
0000
0001
0000
1000
0010
0000
0000
0000
,  // measure 49
0100
0000
0010
1000
0000
0000
0010
1000
0000
0000
0010
1000
0001
0000
0010
0000
,  // measure 50
0001
0000
0100
0010
0000
0000
0100
0010
0000
0000
0100
0010
1000
0000
0001
0000
,  // measure 51
0010
0000
0000
0000
0001
0000
0000
0100
0000
0000
0010
0000
1000
0000
0000
1001
;

//---------------dance-single - ----------------
#NOTES:
     dance-single:
     :
     Hard:
     15:
     0.707857,0.700449,0.039960,0.359637,1.083905,496.000000,492.000000,4.000000,36.000000,0.000000,0.000000,0.707857,0.700449,0.039960,0.359637,1.083905,496.000000,492.000000,4.000000,36.000000,0.000000,0.000000:
// measure 0
0000
0000
0000
0000
,  // measure 1
0000
0000
0000
0000
,  // measure 2
0000
0000
0000
0000
,  // measure 3
0000
0000
0000
0000
,  // measure 4
0000
0000
0000
0000
,  // measure 5
0100
0001
0100
0010
0000
1000
0000
0001
0000
0010
0000
0100
1000
0010
0100
0000
,  // measure 6
0001
0010
0001
1000
0000
0100
0000
1000
0000
0001
0000
0010
0001
1000
0010
0000
,  // measure 7
1000
0100
1000
0010
0000
1000
0000
0001
0000
0010
0000
0100
1000
0001
0010
0000
,  // measure 8
0001
0100
0001
1000
0000
0100
1000
0100
0000
0010
0000
0100
1000
0001
1000
0000
,  // measure 9
0220
0000
0000
0330
,  // measure 10
1000
0010
0100
0001
0000
0010
0000
0100
0000
1000
0000
0010
1000
0100
0010
0000
,  // measure 11
0001
0100
0001
1000
0000
0010
0000
1000
0000
0100
0010
0100
1000
0001
1000
0000
,  // measure 12
0010
0100
0010
0100
0000
0001
0010
0001
0000
1000
0010
1000
0010
0000
0100
0000
,  // measure 13
0001
0100
0001
0100
0000
0010
1000
0100
0000
1000
0000
0010
1000
0100
1000
0000
,  // measure 14
0010
0100
1000
0100
0000
0010
0000
1000
0000
0001
0010
0001
0100
0000
0010
0000
,  // measure 15
1000
0100
0010
0100
0000
1000
0001
0010
0000
0001
0100
0010
1000
0000
0001
0000
,  // measure 16
0100
1000
0100
1000
0000
0100
0001
0100
0000
0001
0010
0001
0010
0000
0100
0000
,  // measure 17
1000
0000
0010
0100
0000
0001
0010
0001
1000
0000
0100
1000
0000
0010
0100
0010
,  // measure 18
2000
0100
3002
0100
2003
0010
3002
0010
,  // measure 19
0203
0000
0010
0000
0000
0000
0310
1000
0002
0000
0010
0000
0203
0000
0010
0000
,  // measure 20
0302
0010
2003
0010
3002
0100
2003
0100
,  // measure 21
3020
0000
0100
0000
0000
0000
0130
0001
1000
0000
0100
1000
0010
1000
0100
0000
,  // measure 22
2000
0100
3020
0001
0230
0010
2300
0001
,  // measure 23
3020
0000
0100
0000
0000
0000
0130
1000
0001
0000
0010
0000
0100
0000
1000
0010
,  // measure 24
2000
3200
0302
0203
2300
3020
0032
0023
,  // measure 25
1030
0100
0010
0000
0100
0010
0001
1000
0001
0000
0100
0010
0000
0100
0010
0100
,  // measure 26
0002
0000
0000
0000
0103
0010
1000
0001
0000
0001
0100
0001
0010
0001
1000
0000
,  // measure 27
0010
0000
1000
0100
0000
0100
0001
0100
0000
0100
0010
0100
1000
0000
0001
0000
,  // measure 28
0100
0000
0010
0100
0001
0000
0010
0100
1000
0000
0010
0100
0001
0100
0010
0000
,  // measure 29
1000
0000
0001
0010
0000
0100
1000
0001
1000
0000
0010
0100
0001
1000
0100
0010
,  // measure 30
0001
0000
0001
0000
0001
0000
1000
0010
0000
0010
0100
0010
1000
0000
0001
0000
,  // measure 31
0010
0000
0001
0100
0010
1000
0000
1000
0000
1000
0001
1000
0010
0000
0100
0001
,  // measure 32
0100
0000
0010
0000
0100
0001
0010
0000
0100
1000
0010
0000
0100
0001
1000
0000
,  // measure 33
0001
0000
1000
0100
0000
1000
0000
0010
0100
0001
0100
0001
0010
0000
0100
1000
,  // measure 34
0200
0000
0000
0000
1300
0000
0010
0100
0000
0000
0001
0000
0010
0000
1000
0000
,  // measure 35
0002
0000
0000
0000
0103
0000
1000
0020
0000
0000
0031
0000
0010
0000
1000
0000
,  // measure 36
0001
0000
1000
0000
0010
0000
1000
0100
0000
0010
0001
0010
0100
0000
1000
0000
,  // measure 37
0010
0000
1000
0001
0000
1000
0010
0000
0100
0001
0010
0100
2000
0000
3002
0000
,  // measure 38
0103
0010
0100
0010
0000
1000
0100
1000
0000
0001
0010
0001
0100
0000
0010
0000
,  // measure 39
1000
0100
1000
0100
0000
0010
0001
0010
0000
0010
0100
0010
1000
0000
0001
0000
,  // measure 40
1000
0010
0100
0010
0000
1000
0010
0100
0000
0001
1000
0100
0010
0000
0001
0000
,  // measure 41
0010
0100
1000
0100
0010
0000
0001
0000
0100
0010
1000
0010
0100
0000
0001
0000
,  // measure 42
2002
0000
0000
3003
,  // measure 43
0010
0001
0100
0001
0000
1000
0000
0010
0000
0100
0000
0001
0010
0001
0100
0000
,  // measure 44
0010
1000
0100
1000
0000
0001
0000
0010
0000
0100
0000
1000
0010
0100
0001
0000
,  // measure 45
1000
0010
1000
0010
0000
0010
0100
0010
0000
1000
0100
1000
0001
0000
0010
0000
,  // measure 46
0001
0000
1000
0100
0000
0110
0000
0100
1000
0010
0100
0001
0010
0001
1000
0000
,  // measure 47
0010
0100
0001
0010
0000
0001
0000
1000
0000
0100
1000
0100
0010
0100
1000
0000
,  // measure 48
0010
0100
0001
1000
0000
0010
0000
1000
0000
0001
0000
0010
0001
0010
0100
0000
,  // measure 49
0010
0001
0010
0001
0000
1000
0010
1000
0000
0100
1000
0100
1000
0000
0010
0000
,  // measure 50
0100
0000
0001
0010
0000
0011
0000
0001
1000
0001
0010
0100
1000
0010
0100
0000
,  // measure 51
0002
0000
0000
0000
0103
0000
1000
0100
0000
0010
1000
0001
0010
0100
1000
0010
;
