#TITLE:flee for free!!;
#SUBTITLE:;
#ARTIST:red glasses feat.眞田静;
#TITLETRANSLIT:;
#SUBTITLETRANSLIT:;
#ARTISTTRANSLIT:red glasses feat.Shizuka Sanada;
#GENRE:;
#CREDIT:;
#BANNER:flee_for_free!!_banner.png;
#BACKGROUND:flee_for_free!!.png;
#LYRICSPATH:;
#CDTITLE:;
#MUSIC:flee for free!!.ogg;
#OFFSET:-0.280000;
#SAMPLESTART:49.049999;
#SAMPLELENGTH:12.000000;
#LASTBEATHINT:410.000000;
#SELECTABLE:YES;
#BPMS:0.000000=192.000000
;
#STOPS:
;
#BGCHANGES:;
#KEYSOUNDS:;
#ATTACKS:;

//---------------dance-single - ----------------
#NOTES:
     dance-single:
     :
     Easy:
     7:
     0.252303,0.350931,0.107038,0.298177,0.000000,231.000000,217.000000,14.000000,39.000000,0.000000,0.000000,0.252303,0.350931,0.107038,0.298177,0.000000,231.000000,217.000000,14.000000,39.000000,0.000000,0.000000:
0000
0000
0000
0000
,
0000
0000
0000
0000
,
0000
0000
0000
0000
,
0010
0100
0000
0100
,
0001
0010
0000
0001
,
1000
0100
0000
0100
,
1000
0020
0000
0130
,
0010
1000
0000
0001
,
0010
0001
0000
0100
,
0010
1000
0000
0100
,
1000
0001
2002
3003
,
0000
0100
0010
0000
,
0010
0100
0000
0001
,
0010
0000
0001
0000
,
1000
0010
1000
0000
,
0001
0000
0010
0000
,
0100
0000
1000
0000
,
0010
0100
0010
0000
,
2002
0000
3003
0000
,
0010
0000
0001
0100
,
0010
0000
1000
0100
,
0010
0000
0001
0000
,
0010
0100
1000
0000
,
0010
0000
0010
0000
,
0100
0010
0100
0000
,
0001
0000
0010
0000
,
0001
0010
0100
0000
,
2000
0000
3100
0000
,
0002
0000
0013
0000
,
0200
0000
0310
0000
,
0020
0000
1030
0000
,
0002
0000
0103
0000
,
2000
0000
3100
0000
,
0010
0000
0001
0000
,
2002
0000
3003
0000
,
0220
0000
0330
0000
,
0001
0000
0010
0000
,
0002
0000
0003
0000
,
2000
0000
3000
0000
,
0000
0100
0000
0010
,
1000
0100
1000
0000
,
0001
0010
0001
0000
,
1000
0000
1001
0000
,
0010
0000
0100
0000
,
0001
0010
0001
0000
,
1000
0100
1000
0000
,
0010
0000
0100
0000
,
2020
0000
3030
0000
,
0100
0000
0001
0010
,
0001
0000
1000
0000
,
0100
1000
0010
0000
,
0100
0000
0001
0000
,
0010
0001
1000
0000
,
0010
0000
0010
0000
,
1000
0000
0100
0010
,
0200
0000
0300
0000
,
2002
0000
3003
0000
,
0010
0000
0100
0010
,
1000
0000
0001
0000
,
0010
0001
1000
0000
,
0010
0000
0100
0000
,
0001
0000
0001
0010
,
0001
0000
0001
0000
,
1000
0100
1000
0000
,
0010
0000
0110
0000
,
0001
0010
0001
1000
,
0001
0010
0001
0000
,
1000
0100
1000
0010
,
1000
0100
1000
0000
,
0020
0000
0130
0000
,
0002
0000
1003
0000
,
0100
0000
1000
0001
,
0200
0000
0310
0000
,
0202
0000
0303
0000
,
2000
0000
3000
0000
,
0002
0000
0003
0000
,
0020
0000
0030
0000
,
0220
0000
0000
0000
,
0330
0000
0000
0000
,
1000
0000
0100
0000
,
1000
0000
0001
0000
,
2002
0000
0000
3003
,
0000
0000
0000
0000
,
0100
0000
0100
0010
,
0100
0000
0001
0000
,
0010
0000
0001
1000
,
0100
0000
1000
0000
,
0010
0100
0010
0000
,
1000
0000
1001
0000
,
0020
0000
0130
0000
,
0001
0000
0010
0100
,
1000
0000
0010
0000
,
1000
0010
0100
0000
,
0001
0010
0001
0000
,
1000
0010
1000
0000
,
0001
0100
0001
0000
,
1000
0010
0100
0001
,
2002
0000
0000
0000
,
0000
0000
0000
0000
,
3003
0000
0000
0000
,
0000
0000
0000
0000
,
0000
0000
0000
0220
,
0330
0000
0000
0000
;

//---------------dance-single - ----------------
#NOTES:
     dance-single:
     :
     Medium:
     11:
     0.488223,0.584168,0.183493,0.198784,0.000000,447.000000,423.000000,24.000000,26.000000,0.000000,0.000000,0.488223,0.584168,0.183493,0.198784,0.000000,447.000000,423.000000,24.000000,26.000000,0.000000,0.000000:
// measure 0
0000
0000
0000
0000
,  // measure 1
1000
0000
0000
1010
0000
0000
0001
0000
,  // measure 2
0000
0011
0000
0000
2002
0000
3003
0000
,  // measure 3
0100
0000
0010
0100
0000
0000
0001
0000
,  // measure 4
0010
0000
0100
1000
0000
0000
0010
0000
,  // measure 5
1000
0000
0100
0010
0000
0000
0001
0000
,  // measure 6
1000
0000
0010
0001
0000
0010
1000
0000
,  // measure 7
0001
0000
1000
0100
0000
1000
0010
0000
,  // measure 8
0100
0000
0001
0010
0000
0001
1000
0000
,  // measure 9
0010
0000
0100
0001
0000
1000
0100
0000
,  // measure 10
0010
0000
0100
1000
0000
1001
0000
0000
,  // measure 11
0010
0000
0100
0000
0010
0100
0000
0000
,  // measure 12
0001
0000
0010
0100
0000
1000
0001
0000
,  // measure 13
1000
0000
0100
1000
0000
0010
1000
0000
,  // measure 14
0001
0000
0010
0001
0000
0000
1001
0000
,  // measure 15
0100
0000
0010
0000
1000
0100
0000
0000
,  // measure 16
1000
0000
0001
0010
0000
0001
1000
0000
,  // measure 17
0010
0000
0100
0010
0000
1000
0100
0000
,  // measure 18
2000
0000
0000
3001
0000
0000
0001
0000
,  // measure 19
0010
0000
0001
0100
0001
0100
0000
0000
,  // measure 20
0010
0000
1000
0100
0000
1000
0010
0000
,  // measure 21
0100
0000
0010
0100
0000
0001
0100
0000
,  // measure 22
0001
0000
0010
0100
0000
1000
0000
0000
,  // measure 23
0010
0000
1000
0000
0001
0100
0010
0000
,  // measure 24
1000
0000
0100
0010
0000
0100
1000
0000
,  // measure 25
0010
0000
0100
0001
0000
0010
0000
0000
,  // measure 26
0001
0000
1000
0020
0000
0000
0130
0000
,  // measure 27
0200
0000
0301
0010
,  // measure 28
0001
0000
0010
0100
0000
1000
0000
0000
,  // measure 29
0020
0000
0130
0001
,  // measure 30
1000
0000
0100
0010
0000
0001
0000
0000
,  // measure 31
2002
0000
3003
0000
,  // measure 32
0010
0000
0100
0000
0001
0010
0000
0220
,  // measure 33
0000
0330
0000
0000
1000
0000
0100
0000
,  // measure 34
1000
0010
0100
0000
0001
0010
0100
0000
,  // measure 35
2000
0010
3100
0000
,  // measure 36
0010
0000
0001
0100
0000
0010
0000
0000
,  // measure 37
0100
0000
0000
0101
0000
0000
0010
0000
,  // measure 38
0000
1010
0000
0000
2002
0000
3003
0000
,  // measure 39
0000
0000
0010
0100
0000
0010
0100
0000
,  // measure 40
0001
0000
0010
0100
0000
1000
0010
0000
,  // measure 41
1000
0000
0100
0010
0000
0001
0100
0000
,  // measure 42
0010
0000
1000
0010
0000
0220
0000
0330
,  // measure 43
0000
0000
0001
0010
0001
0010
0000
0000
,  // measure 44
0100
0000
1000
0010
0000
0100
0000
0000
,  // measure 45
0010
0000
1000
0100
0000
0010
0000
0000
,  // measure 46
0001
0100
0001
1000
0000
0010
0000
0000
,  // measure 47
0020
0000
1000
0000
0130
0000
0000
0001
,  // measure 48
0010
0000
0001
0100
0000
0010
0000
1000
,  // measure 49
0100
0000
0010
0000
0002
0000
0000
1003
,  // measure 50
0100
0000
1000
0010
0000
0100
0000
0220
,  // measure 51
0000
0000
0330
0000
0000
0001
0010
0000
,  // measure 52
0001
0000
1000
0010
0000
0100
0000
0000
,  // measure 53
0010
0001
0100
1000
,  // measure 54
0010
0100
0010
0000
1000
0001
1000
0000
,  // measure 55
0001
0000
0000
0011
0000
0000
1000
0000
,  // measure 56
0000
1100
0000
0000
2002
0000
3003
0000
,  // measure 57
0010
0000
0100
0010
0000
0100
0010
0000
,  // measure 58
1000
0100
1000
0000
0001
0000
0010
0001
,  // measure 59
0010
0000
0001
0000
1000
0010
1000
0000
,  // measure 60
0001
0000
0010
0100
0000
1000
0000
0000
,  // measure 61
0010
0100
0010
0000
1000
0100
1000
0000
,  // measure 62
0001
0010
0001
0000
0100
0010
0100
0000
,  // measure 63
0001
0000
0010
0000
0001
1000
0100
0000
,  // measure 64
1000
0001
0100
0010
0000
0010
0000
0000
,  // measure 65
1000
0010
1000
0010
1000
0010
1000
0000
,  // measure 66
0001
0010
0001
0010
0001
0010
0001
0000
,  // measure 67
1000
0100
1000
0010
1000
0100
1000
0000
,  // measure 68
0001
0100
0001
0010
0001
0100
0001
0000
,  // measure 69
1000
0000
0010
0000
1000
0100
0010
0000
,  // measure 70
0001
0000
0100
0000
0001
0010
0100
0000
,  // measure 71
1000
0000
0001
0000
0010
0001
1000
0001
,  // measure 72
0200
0000
0000
0010
0000
0310
0000
0000
,  // measure 73
1100
0000
0000
0010
0000
0100
0000
0000
,  // measure 74
0011
0000
0000
0010
0000
0100
0000
0000
,  // measure 75
1010
0000
0000
0001
0000
1000
0000
0000
,  // measure 76
0011
0000
0000
1000
0000
0001
0000
0000
,  // measure 77
0110
0000
0000
1000
0000
0000
0001
0000
,  // measure 78
0000
0001
0010
0000
0100
0000
1000
0000
,  // measure 79
0010
0000
0100
0010
0000
0100
0010
0000
,  // measure 80
1000
0001
0000
1000
0001
0000
0000
0000
,  // measure 81
0210
0010
0000
0310
,  // measure 82
0020
0100
0000
0130
,  // measure 83
1000
0000
0100
1000
0000
0001
1000
0000
,  // measure 84
0001
0000
0010
0001
0000
0011
0000
0000
,  // measure 85
0100
0000
0010
0100
0000
0010
0100
0000
,  // measure 86
0001
0000
0010
0001
0000
0010
0001
0000
,  // measure 87
1000
0000
0100
0000
1000
0010
1000
0000
,  // measure 88
0001
0010
0100
1000
0000
0010
0000
0000
,  // measure 89
0200
0000
0010
0000
0301
0000
0000
0001
,  // measure 90
0010
0000
0100
1000
0000
0010
0000
1000
,  // measure 91
0010
0000
0100
0000
0010
1000
0001
0000
,  // measure 92
0010
0000
0001
0000
1000
0001
0100
0000
,  // measure 93
0001
0011
1000
1100
,  // measure 94
0010
0000
0100
0000
0010
0100
0010
0000
,  // measure 95
1000
0100
1000
0000
0001
0010
0001
0000
,  // measure 96
1000
0001
0010
0000
0001
1000
0010
0100
,  // measure 97
0002
0000
0000
0000
,  // measure 98
0000
0000
0000
0000
,  // measure 99
0003
0000
0000
0000
,  // measure 100
0000
0000
0000
0000
,  // measure 101
0000
0000
0000
0000
0000
0000
0100
0100
;

//---------------dance-single - ----------------
#NOTES:
     dance-single:
     :
     Hard:
     14:
     0.692469,0.739946,0.420505,0.321113,0.061164,634.000000,579.000000,55.000000,42.000000,0.000000,0.000000,0.692469,0.739946,0.420505,0.321113,0.061164,634.000000,579.000000,55.000000,42.000000,0.000000,0.000000:
// measure 0
0000
0000
0000
0000
,  // measure 1
1001
0000
0000
0110
0000
0000
1001
0000
,  // measure 2
0000
1100
0000
0000
0022
0000
0033
0000
,  // measure 3
0100
0000
0001
0010
0100
0010
0000
0001
,  // measure 4
1000
0010
0100
0010
1000
0100
0010
0000
,  // measure 5
0100
1000
0100
0001
0100
1000
0010
0000
,  // measure 6
0100
0001
0100
1000
0000
1000
0100
0000
,  // measure 7
0101
0000
0001
0010
0100
1000
0000
0010
,  // measure 8
1000
0010
1000
0001
0000
0010
0001
1000
,  // measure 9
0010
1000
0010
0001
0010
1000
0001
0000
,  // measure 10
1000
0010
0001
0010
0000
1000
1010
0000
,  // measure 11
0001
0000
0010
0100
1000
0200
0000
1300
,  // measure 12
0001
0010
0001
2000
0000
0010
3010
0000
,  // measure 13
0101
0000
1000
0100
0010
0100
1000
0001
,  // measure 14
0100
0010
0100
0001
0000
1000
0001
0000
,  // measure 15
0110
0000
1000
0010
1000
0100
0000
0010
,  // measure 16
0001
0100
0001
0010
0000
0100
1000
0010
,  // measure 17
1000
0001
0100
0010
1000
0001
0010
0100
,  // measure 18
1000
0100
0001
0200
0000
1000
1300
0000
,  // measure 19
1001
0000
0010
0100
1000
0200
0000
0301
,  // measure 20
0010
0001
1000
0010
1000
0001
0020
0000
,  // measure 21
0130
1000
0010
0100
0001
0010
1000
0000
,  // measure 22
1000
0010
0001
0100
0000
0010
0100
0000
,  // measure 23
1001
0000
0100
0001
0010
0002
0000
1003
,  // measure 24
0010
0001
0010
0100
0010
1000
0100
0000
,  // measure 25
1000
0100
0001
0100
1000
0010
0100
0000
,  // measure 26
0010
1000
0100
0002
0000
0100
0103
0000
,  // measure 27
2100
0000
0010
0000
3010
0000
0000
0100
,  // measure 28
0001
0010
0001
1000
0000
0010
0100
0001
,  // measure 29
0020
0000
0100
0000
0130
0000
0000
1000
,  // measure 30
0010
0100
0001
0010
0000
0010
0100
0000
,  // measure 31
1002
0000
0100
0000
0103
0010
0100
0001
,  // measure 32
0010
0100
1000
0000
0010
0100
0010
1000
,  // measure 33
0000
1000
0001
0000
0010
0001
1000
0000
,  // measure 34
0100
0000
0000
0010
0000
0000
0100
0000
0000
1000
0000
0000
0001
0000
0100
0000
0001
0000
1000
0000
0010
0000
1000
0000
,  // measure 35
0002
0000
0010
0000
0103
0000
0010
1000
,  // measure 36
0100
1000
0001
0100
0000
0010
0100
0000
,  // measure 37
1010
0000
0000
0011
0000
0000
1100
0000
,  // measure 38
0000
0101
0000
0000
2002
0000
3003
0000
,  // measure 39
0110
0000
0100
1000
0100
0001
0000
0001
,  // measure 40
0010
1000
0010
0001
0010
1000
0010
0000
,  // measure 41
0100
1000
0100
0001
0100
1000
0010
0000
,  // measure 42
0100
0001
0100
2000
0000
0001
3001
0000
,  // measure 43
0110
0000
0001
0010
1000
0010
0000
0010
,  // measure 44
0001
0100
1000
0100
0001
0100
1000
0000
,  // measure 45
0100
0001
0010
0000
0100
1000
0010
0000
,  // measure 46
1000
0001
0010
0200
0000
1000
1300
0000
,  // measure 47
1002
0000
0010
0000
0013
0000
0100
1000
,  // measure 48
0001
1000
0100
0010
0000
0001
0100
0010
,  // measure 49
2000
0000
0100
0000
3100
0000
1000
0010
,  // measure 50
0100
0001
0010
0200
0000
0010
0310
0000
,  // measure 51
0012
0000
1000
0000
1003
0010
0100
0010
,  // measure 52
1000
0100
0010
0001
0000
1000
0001
0000
,  // measure 53
1010
0000
1100
0000
0010
0001
0100
0001
,  // measure 54
0010
0000
0100
2000
0000
3001
0100
0010
,  // measure 55
0100
0000
0000
0011
0000
0000
1100
0000
,  // measure 56
0000
1010
0000
0000
2002
0000
3003
0000
,  // measure 57
0010
0100
1000
0010
0000
0010
0100
0010
,  // measure 58
1000
0100
0010
0100
1000
0100
0001
0100
,  // measure 59
1000
0001
0100
0010
1000
0100
0010
0001
,  // measure 60
0100
1000
0100
0002
0000
0010
0013
0000
,  // measure 61
0001
1000
0100
0000
1000
0001
0100
0000
,  // measure 62
0010
0100
0010
1000
0001
0010
0100
1000
,  // measure 63
0010
1000
0100
1000
0001
0100
0010
0000
,  // measure 64
1000
0010
0001
0020
0000
0100
0130
0000
,  // measure 65
0101
0000
0011
0000
1000
0100
0010
0000
,  // measure 66
1100
0000
0101
0000
0010
0100
0001
0000
,  // measure 67
1010
0000
0011
0000
0100
0010
1000
0000
,  // measure 68
0001
1000
0100
1000
0010
0100
0001
0010
,  // measure 69
0001
0000
1000
0000
0100
1000
0000
0000
0001
0000
0100
0000
0010
0100
0000
0000
,  // measure 70
0001
0000
0010
0000
0100
1000
0000
0000
1000
0000
0010
0000
0100
0001
0000
0000
,  // measure 71
1001
0000
0110
0000
1000
0001
0100
0010
,  // measure 72
1000
0000
0000
0100
0000
0000
0001
0000
0000
0100
0000
0000
1000
0000
0010
0000
1000
0000
0001
0000
0010
0000
0001
0000
,  // measure 73
0200
0000
0010
0310
0000
0110
0000
1000
,  // measure 74
0002
0000
0010
0013
0000
1001
0000
0010
,  // measure 75
0200
0000
0001
0301
0000
0011
0000
1000
,  // measure 76
0200
0000
0010
0310
0000
1100
0000
0001
,  // measure 77
1001
0000
0000
1100
0000
0000
0011
0000
,  // measure 78
0000
1001
0000
0000
0220
0000
0330
0000
,  // measure 79
0001
0010
1000
0001
0100
1000
0001
1000
,  // measure 80
0100
0000
0000
0001
0000
0000
1000
0000
0000
0010
0000
0000
0001
0000
1000
0000
0010
0000
0100
0000
0001
0000
0010
0000
,  // measure 81
0200
1000
0000
0301
,  // measure 82
0021
1000
0000
0031
,  // measure 83
1001
0000
0100
0010
0000
1000
0100
1000
,  // measure 84
0001
0010
1000
0020
0000
0001
0031
0000
,  // measure 85
1001
0000
0010
1000
0100
0010
0000
0010
,  // measure 86
0100
1000
0001
0100
0000
0010
0100
0001
,  // measure 87
0010
0000
0001
1000
0000
2100
0000
3010
,  // measure 88
0100
0010
1000
0001
0000
0012
0000
0103
,  // measure 89
0020
0000
1000
0000
0130
0000
0001
0010
,  // measure 90
0001
0100
1000
0100
0000
0001
0010
0100
,  // measure 91
2000
0000
3100
0000
0001
0100
1000
0100
,  // measure 92
0020
0000
0031
0100
0000
0010
0100
0001
,  // measure 93
0010
0000
0011
0000
1000
0100
0010
0100
,  // measure 94
1000
0000
1001
0000
0010
0100
1000
0100
,  // measure 95
0010
1000
0001
0010
0001
1000
0100
0010
,  // measure 96
0001
0100
1000
0001
0010
1000
0001
0000
,  // measure 97
0220
0000
0000
0000
,  // measure 98
0000
0000
0000
0000
,  // measure 99
0000
0000
0000
0000
,  // measure 100
0000
0330
0000
0000
,  // measure 101
0000
0000
0000
0000
0000
0000
1001
1001
;
