#TITLE:Fantasia;
#SUBTITLE:;
#ARTIST:TËЯRA;
#TITLETRANSLIT:;
#SUBTITLETRANSLIT:;
#ARTISTTRANSLIT:;
#GENRE:HYPER FANTASIA;
#CREDIT:;
#BANNER:Fantasia_banner.png;
#BACKGROUND:Fantasia.png;
#LYRICSPATH:;
#CDTITLE:;
#MUSIC:Fantasia.ogg;
#OFFSET:-0.490000;
#SAMPLESTART:30.040001;
#SAMPLELENGTH:12.500000;
#SELECTABLE:YES;
#BPMS:0.000000=165.000000
;
#STOPS:
;
#BGCHANGES:;
#KEYSOUNDS:;
#ATTACKS:;

//---------------dance-single - ----------------
#NOTES:
     dance-single:
     :
     Easy:
     6:
     0.225568,0.259403,0.075189,0.197372,0.000000,168.000000,160.000000,8.000000,21.000000,0.000000,0.000000,0.225568,0.259403,0.075189,0.197372,0.000000,168.000000,160.000000,8.000000,21.000000,0.000000,0.000000:
0000
0000
0000
0000
,
0000
0000
0000
0000
,
0000
0000
0000
0000
,
0000
0000
0000
0000
,
1000
0000
0010
0000
,
0100
0000
0001
0000
,
0010
0000
0001
0000
,
0100
1000
0001
0000
,
0010
0100
0010
0000
,
0001
1000
0001
0000
,
0100
0001
0100
0000
,
0010
1000
0010
0000
,
0002
0000
0000
0003
,
2000
0000
0000
3000
,
0010
0000
0010
0000
,
0100
0000
0100
0000
,
0001
0000
1000
0010
,
1000
0000
0001
0000
,
0100
0010
0100
0000
,
0002
0000
1003
0000
,
0220
0000
0000
0000
0000
0330
0000
0000
,
1000
0000
0100
0010
,
0002
0000
0103
0000
,
0010
1000
0100
0000
,
2000
0000
3001
0000
,
0100
0010
1000
0000
,
0001
0010
0100
0000
,
2000
0000
3010
0100
,
0001
0000
1001
0000
,
0010
0000
0100
0001
,
0200
0000
0000
0300
,
0010
0000
1000
0001
,
0020
0000
0130
0000
,
1000
0010
1000
0000
,
0001
0010
0001
0000
,
0202
0000
0303
0000
,
0010
1000
0100
0010
,
0001
0100
1000
0000
,
1000
0100
0001
0000
,
0020
0000
0000
0030
,
0002
0000
0000
0003
,
2000
0000
0000
3000
,
0200
0000
0000
0300
,
1000
0000
0010
0000
,
0100
0000
0001
0000
,
0010
0001
1000
0100
,
0020
0000
0000
0000
0000
0030
0000
0000
,
0001
0000
1000
0010
,
0100
0000
0001
0000
,
0010
0001
0100
0000
,
0010
0000
1000
0000
,
0001
0001
1000
1000
,
0010
0000
0110
0000
,
0200
0000
0301
1000
,
0010
0000
0101
0000
,
0020
0000
0130
0001
,
0010
0000
0001
1000
,
0100
0000
1000
0010
,
0100
0000
0101
0000
,
0010
1000
0100
0000
,
0010
0001
0100
0000
,
2002
0000
3003
0000
,
0010
1000
0100
0001
,
0100
1000
0100
0000
,
0010
0001
0010
0000
,
0001
0100
1000
0000
,
1000
0100
0001
0000
,
1000
0010
0001
0000
,
0001
0010
1000
0000
,
0110
0000
0000
0000
;

//---------------dance-single - ----------------
#NOTES:
     dance-single:
     :
     Medium:
     10:
     0.457850,0.453956,0.244365,0.253764,0.075189,341.000000,315.000000,26.000000,27.000000,0.000000,0.000000,0.457850,0.453956,0.244365,0.253764,0.075189,341.000000,315.000000,26.000000,27.000000,0.000000,0.000000:
0000
0000
0000
0000
,
0000
0000
0000
0000
,
0000
0000
0000
0000
,
0000
0000
0000
0000
,
1000
0000
0000
0100
0000
0000
0001
0000
0100
0000
0000
0000
0010
0000
0000
0000
,
0001
0000
0000
0100
0000
0000
1000
0000
0100
0000
0000
0000
0010
0000
0000
0000
,
1000
0000
0000
0100
0000
0000
0010
0000
0001
0000
0000
0010
0000
0000
1000
0000
,
0100
0000
0000
0001
0000
0000
0010
0000
0200
0000
0000
0000
0300
0000
0000
0000
,
1000
0010
1000
0010
0100
0000
0001
0000
,
0010
0001
0010
0001
1000
0000
0100
0000
,
1000
0010
0100
0010
1000
0000
0001
0000
,
0010
0001
1000
0001
0010
0000
0100
0000
,
1000
0000
0000
0010
0000
0000
0010
0000
0100
0000
0000
0000
0001
0000
0010
0000
,
0001
0000
0000
0010
0000
0000
0100
0000
1000
0000
0000
0000
0001
0000
0000
0000
,
0100
0000
0010
0100
0010
0000
1000
0000
,
0100
1000
0100
0010
0002
0000
0103
0000
,
0010
1000
0000
1000
0010
0100
0000
0100
,
0001
0010
0100
1000
0020
0000
0130
0000
,
0001
0000
0100
0000
1000
0000
0100
0000
0010
0000
0000
0100
0000
0000
0001
0000
,
2000
0000
0010
0000
3001
0000
0010
0100
,
0020
0000
0000
0031
0000
1000
0100
1000
,
0020
0000
0130
0001
0100
0000
0110
0000
,
1002
0000
0013
1000
,
0010
0100
0010
0000
1000
0100
1000
0000
,
0010
0100
0101
0000
,
0012
1003
2010
3001
,
0100
0000
0000
0010
0000
0000
0100
0000
0002
0000
0000
0000
1003
0000
0000
0000
,
1000
0000
0010
0100
0001
0010
0100
0000
,
1000
0000
0000
0001
0000
0000
0100
0000
0010
0000
0000
0000
0110
0000
0000
0000
,
2000
0000
3010
0100
0010
0000
0101
0000
,
0012
0000
0000
0000
1003
0000
0100
0010
,
0200
0000
0000
0000
1300
0000
0000
0000
0001
0000
0000
0100
0000
0000
0010
0000
,
0100
0010
1000
0000
1001
0000
0000
0000
,
0010
0000
0000
0001
0000
0000
0100
0000
0010
0000
0000
1000
0000
0000
0100
0000
,
2000
0000
3010
0100
0010
1000
0100
0000
,
0022
0000
0033
1000
,
0100
1000
0100
1000
0001
0010
0100
0000
,
0020
0001
0001
0031
,
2000
0100
0100
3100
,
1001
0100
0010
0100
,
0002
0000
0013
0000
,
1000
0010
0100
0001
,
0010
0200
0000
1300
,
1000
0000
0001
0000
0010
0100
1000
0000
,
0001
0100
0110
0000
,
1000
0010
1000
0000
0001
0010
0001
0000
,
0220
0000
0330
0000
,
0001
0000
0001
0100
1000
0000
0010
0000
,
0210
0000
0301
1000
,
0001
0010
0100
0000
0010
0100
1000
0000
,
0010
0000
1000
0100
0010
0000
0001
0000
,
1000
0100
1000
0000
0001
0100
0001
0000
,
0010
0000
0000
0100
0000
0000
0010
0000
0100
0000
0000
0000
1001
0000
0000
0000
,
0100
0000
0010
1000
0001
0010
0100
0000
,
0010
0000
0000
0001
0000
0000
1000
0000
0100
0000
0000
0000
1000
0000
0000
0000
,
1010
0000
0100
0010
0100
0000
0001
0010
,
0002
0000
1003
1000
,
0100
0000
1000
0010
0100
0001
0010
0000
,
0001
0000
0000
1000
0000
0000
0100
0000
0020
0000
0000
0000
1030
0000
0000
0000
,
0010
0001
0010
0000
0100
1000
0100
0000
,
1000
0010
1000
0000
0001
0100
0001
0000
,
2002
0000
3003
0010
,
0100
0010
0100
0001
1000
0100
0010
0000
,
0001
0000
0000
0101
0000
0000
0001
0000
,
1000
0010
0000
0010
1000
0000
1100
0000
,
1000
0000
0000
1010
0000
0000
1001
0000
,
0100
0010
0000
0010
0100
0000
0101
0000
,
1010
0000
0000
0011
0000
0000
0110
0000
,
1000
0001
0000
1000
0001
0010
0100
0000
,
1001
0000
0000
0000
;

//---------------dance-single - ----------------
#NOTES:
     dance-single:
     :
     Hard:
     12:
     0.663278,0.745785,0.516927,0.197372,0.159777,494.000000,439.000000,55.000000,21.000000,0.000000,0.000000,0.663278,0.745785,0.516927,0.197372,0.159777,494.000000,439.000000,55.000000,21.000000,0.000000,0.000000:
// measure 0
0000
0000
0000
0000
,  // measure 1
0000
0000
0000
0000
,  // measure 2
0000
0000
0000
0000
,  // measure 3
0000
0000
0000
0000
,  // measure 4
1010
0000
0000
0001
0000
0000
0100
0000
0001
0000
0000
0000
0010
0000
0001
0100
,  // measure 5
0001
0000
0000
1000
0000
0000
0010
0000
0100
0000
0000
0000
1001
0000
1000
0000
,  // measure 6
0010
0000
0100
0010
0000
0000
1000
0000
0001
0000
0100
1000
0000
0000
0010
0000
,  // measure 7
0001
0000
0000
0100
0000
0000
1000
0000
0002
0000
0000
0000
1003
0000
0000
0000
,  // measure 8
0010
1000
0010
1000
0001
0100
0001
0100
,  // measure 9
0001
0010
0100
1000
0010
0100
0001
0000
,  // measure 10
1000
0100
1000
0100
0010
0001
0010
0001
,  // measure 11
1000
1100
0000
0001
0010
0100
1000
0010
,  // measure 12
0200
0000
0000
0010
0000
0000
0001
0000
0301
0000
0000
0000
1000
0000
0001
0000
,  // measure 13
0010
0000
0000
0000
0001
0000
1000
0010
0100
0000
0000
0000
0010
0000
1000
0000
,  // measure 14
0100
1000
0100
0010
0001
0000
1001
0000
,  // measure 15
0100
0010
1000
0001
0010
0100
1000
0001
,  // measure 16
0010
0010
0000
1001
0100
0100
0000
0010
,  // measure 17
1000
1010
0000
0001
1001
0000
0100
0010
,  // measure 18
1000
0100
0001
0100
1000
0010
0001
0010
,  // measure 19
0200
0000
0310
1000
0001
0010
0100
1000
,  // measure 20
0002
0000
0013
0010
0100
0100
1000
1000
,  // measure 21
0010
0000
0000
0000
0100
0000
0010
0100
0001
0000
1000
0000
0010
0000
0000
0000
,  // measure 22
0110
0100
0001
0001
1000
1000
0010
0000
,  // measure 23
0012
1003
2100
3010
,  // measure 24
0100
0000
0001
0000
1000
0000
0001
1000
0010
0000
0100
0000
0100
0000
0000
0000
,  // measure 25
0010
0001
0010
0000
0100
1000
0100
0000
,  // measure 26
1000
0000
0000
0100
0001
0000
0010
0000
0001
0000
0010
0000
0100
0000
0000
0000
,  // measure 27
1100
0000
1000
0010
0100
0001
0010
0100
,  // measure 28
1000
0000
0000
0010
1000
0000
0001
0000
0010
0000
1000
0000
1000
0000
0000
0000
,  // measure 29
0011
0000
0000
0000
1000
0000
0010
0100
0010
0000
1000
0000
0001
0000
0010
0000
,  // measure 30
0100
0100
1000
1000
0001
0001
0010
0000
,  // measure 31
2100
0000
3010
0100
0001
1000
0100
0010
,  // measure 32
0001
0000
0010
0001
0000
0000
1000
0000
0200
0000
0010
0000
0310
0000
0000
0000
,  // measure 33
0011
0000
0000
0100
0000
0000
1000
0000
1100
0000
0000
0010
0000
0000
0100
0000
,  // measure 34
0101
0000
0000
0000
0010
0000
0001
0000
1000
0000
0100
0000
0010
0100
0010
0000
,  // measure 35
2000
0000
0001
0000
0010
0000
3001
0001
,  // measure 36
0100
0000
0010
0000
1000
0000
0001
0000
0010
0001
0010
0000
0100
1000
0100
0000
,  // measure 37
1000
0010
1000
0010
0100
0001
0100
0001
,  // measure 38
0010
0001
1000
0100
0010
0100
1000
0001
,  // measure 39
0200
0000
0010
0000
0301
1000
0100
0010
,  // measure 40
0200
0000
1000
0000
0310
0001
0010
1000
,  // measure 41
0010
0001
0010
1000
0010
0100
0001
0100
,  // measure 42
1000
0000
1020
0000
0100
0100
0130
0000
,  // measure 43
0012
0000
1003
0000
0100
0010
0100
0001
,  // measure 44
1000
0010
1000
0010
1000
0000
0000
0000
0001
0100
0001
0100
0001
0000
0000
0000
,  // measure 45
1000
0100
0001
0100
1000
0100
0001
0100
,  // measure 46
2000
0000
3010
0010
0100
0100
0001
0000
,  // measure 47
0011
0000
0100
1000
0010
0001
0100
0000
,  // measure 48
0110
0000
1000
0001
1000
0001
1001
0000
,  // measure 49
1000
0001
1010
0000
0001
1000
0101
0000
,  // measure 50
0110
0000
0000
0000
1000
0000
0001
1000
0001
0000
0100
0000
0020
0000
0000
0000
,  // measure 51
1030
0100
1100
0000
0001
0010
0011
0000
,  // measure 52
0010
0000
0010
0100
0000
0000
1000
0000
0010
0000
0100
0000
0001
0000
0000
0000
,  // measure 53
0011
0000
1000
0100
0001
0100
0010
0100
,  // measure 54
1000
0000
0010
0100
0000
0010
1000
0000
0002
0000
0100
0000
0103
0000
0000
0000
,  // measure 55
1010
0000
0000
0000
0100
0000
0010
0100
0010
0000
1000
0000
0001
0000
0010
0000
,  // measure 56
0100
0010
0001
0001
0001
1000
0010
0100
,  // measure 57
0110
0000
0001
1000
0100
0010
0100
1000
,  // measure 58
0010
0000
0100
0010
0000
0100
0010
0000
2000
0000
0001
0000
3001
0000
0000
0000
,  // measure 59
0011
0000
0000
0100
0000
0000
1000
0000
1100
0000
0000
0010
0000
0000
0100
0000
,  // measure 60
0201
0000
0000
0000
0310
0000
1000
0000
0001
0000
0010
0001
0000
1000
0100
0000
,  // measure 61
0020
0000
0001
0001
0031
1000
0100
0000
,  // measure 62
1020
0130
1002
0013
,  // measure 63
1100
0000
0010
0100
0000
0001
0100
0000
,  // measure 64
0010
0011
0000
1000
1100
0000
1001
0000
,  // measure 65
0110
0000
0010
1010
0000
0100
0101
0000
,  // measure 66
0001
0011
0000
1000
1010
0000
0101
0000
,  // measure 67
1001
0000
0110
1001
0000
1001
0110
0000
,  // measure 68
1010
0101
0000
0011
1100
0000
1100
0001
,  // measure 69
0110
0000
0000
0000
;
