#TITLE:fallen leaves;
#SUBTITLE:;
#ARTIST:猫叉Master;
#TITLETRANSLIT:;
#SUBTITLETRANSLIT:;
#ARTISTTRANSLIT:Nekomata Master;
#GENRE:WORLD/ELECTRONICA;
#CREDIT:;
#BANNER:fallen_leaves_banner.png;
#BACKGROUND:fallen_leaves.png;
#LYRICSPATH:;
#CDTITLE:;
#MUSIC:fallen leaves.ogg;
#OFFSET:0.500000;
#SAMPLESTART:71.680000;
#SAMPLELENGTH:11.630000;
#SELECTABLE:YES;
#BPMS:0.000000=165.000000
;
#STOPS:64.000000=1.090908,
193.000000=0.727272
;
#BGCHANGES:;
#KEYSOUNDS:;
#ATTACKS:;

//---------------dance-single - ----------------
#NOTES:
     dance-single:
     :
     Easy:
     6:
     0.243432,0.326266,0.090160,0.369656,0.000000,189.000000,179.000000,10.000000,41.000000,0.000000,0.000000,0.243432,0.326266,0.090160,0.369656,0.000000,189.000000,179.000000,10.000000,41.000000,0.000000,0.000000:
0000
0000
0000
0000
,
0000
0000
0000
0000
,
0000
0000
0000
0000
,
0000
0000
0000
0000
,
0000
0000
0000
0000
,
0000
0000
0000
0000
,
0000
0000
0000
0000
,
0000
0000
0000
0000
,
0000
0000
0000
0000
,
2000
0000
3010
0100
,
0001
0000
0010
0001
,
0100
0010
1000
0000
,
2002
0000
3003
0000
,
0100
0010
0100
0010
,
1000
0100
1000
0100
,
0010
0001
1000
0010
,
0110
0001
0010
0001
,
0000
1000
0010
1000
,
0000
0001
0100
0001
,
0000
1000
0100
2000
,
0000
3010
0100
0010
,
0000
1000
0100
1000
,
0000
0001
0010
0100
,
1000
2002
0000
3003
,
0000
0010
0200
0000
,
0310
0100
0002
0000
,
0013
0001
1000
0000
,
0100
2200
0000
3300
,
0000
0001
0200
0000
,
0310
1000
0200
0000
,
0310
0001
0100
0000
,
0001
0022
0000
0033
,
0000
1000
0200
0000
,
1300
0010
0200
0000
,
0301
0010
0001
0000
,
1000
2020
0000
3030
,
0000
0001
0020
0000
,
0031
0100
0020
0000
,
1030
0100
1000
0001
,
0100
0220
0000
0330
,
0000
0001
0000
0010
,
0002
0000
0003
0000
,
1000
0010
0000
1000
,
0200
0000
0300
0000
,
1000
0001
0000
0100
,
0010
0000
1000
0100
,
0010
0002
0000
1003
,
2000
0000
3010
0100
,
0220
0330
0000
2000
,
0000
3010
1000
0002
,
0000
0013
0001
0200
,
0000
0310
1000
0200
,
0000
0310
0001
1000
,
0010
1000
0000
0001
,
0100
0001
0000
0010
,
0001
1000
0000
0010
,
1000
0001
0000
0020
,
0000
0130
1000
0020
,
0000
0130
0000
0002
,
0000
0013
0100
2000
,
0000
3001
0000
0100
,
0001
0100
0000
0010
,
1000
0010
0000
1000
,
0001
0010
0100
2002
,
0000
3003
0000
0100
,
0001
1000
0000
0100
,
1000
0001
0000
0010
,
0001
1000
0000
0010
,
1000
2002
3003
0010
,
0001
0010
0001
1000
,
0010
1000
0010
0100
,
0001
1000
0100
0010
,
0001
2000
0000
3000
0000
0000
0000
0000
;

//---------------dance-single - ----------------
#NOTES:
     dance-single:
     :
     Medium:
     11:
     0.506184,0.554653,0.351624,0.216384,0.054096,393.000000,354.000000,39.000000,24.000000,0.000000,0.000000,0.506184,0.554653,0.351624,0.216384,0.054096,393.000000,354.000000,39.000000,24.000000,0.000000,0.000000:
0000
0000
0000
0000
,
0000
0000
0000
0000
,
0000
0000
0000
0000
,
0000
0000
0000
0000
,
0000
0000
0000
0000
,
0000
0000
0000
0000
,
0000
0000
0000
0000
,
0000
0000
0000
0000
,
0000
0000
0000
0000
0000
0000
0001
0100
,
0020
0000
1000
0000
0130
0000
0001
1000
,
0200
0000
0010
0000
1300
0001
1000
0000
,
0110
0000
0001
0010
0100
0000
1000
0010
,
0100
0000
0001
0000
1001
0000
0010
1000
,
0001
0100
0010
0000
1000
0100
0010
0000
,
0001
1000
0010
0100
0010
1000
0001
0000
,
0010
0001
0100
0010
1000
0001
0010
0100
,
0110
0000
1000
0100
0010
0000
0001
0100
,
0010
1000
0001
0010
0001
0000
1000
0010
,
0100
0010
1000
0100
0010
0000
0001
0100
,
0001
0010
0100
1000
0010
1000
0100
0000
,
0101
0000
0010
1000
0100
0000
1000
0010
,
0100
0010
1000
0100
0010
0000
0001
0100
,
0010
0100
0001
0010
0100
0000
0010
0001
,
1000
0001
0100
0010
0100
0001
0022
0000
,
0033
0000
1100
0000
0001
0010
0100
0000
,
1000
0010
0100
0000
0010
1000
0001
0000
,
0010
0001
1000
0000
2001
0000
0000
0000
,
3010
0000
0010
1000
0100
0000
0010
0001
,
1000
0000
1001
0000
0010
1000
0100
0000
,
0010
0100
1000
0000
0010
1000
0001
0000
,
0010
0001
1000
0000
1200
0000
0000
0000
,
0310
0000
0001
0010
1000
0010
0002
0000
,
0003
0000
0101
0000
0010
1000
0000
0001
,
0010
0000
1001
0000
0010
1000
0000
0001
,
0010
0001
2100
0000
,
3001
0000
0100
0010
1000
0000
0001
0010
,
0100
0000
0011
0000
1000
0100
0000
0001
,
0100
0000
1001
0000
0010
1000
0001
0010
,
0100
0000
0010
0001
1000
0010
0000
0100
,
0010
0000
1000
0010
0100
0010
1000
0000
,
1001
0000
0000
0000
0010
0000
0000
0001
0000
0000
0101
0000
0000
0000
0000
0000
,
0010
0000
0000
1000
0000
0000
1100
0000
0000
0000
0001
0000
0200
0000
0000
0000
,
0310
0000
0000
0000
0010
0000
0000
1000
0000
0000
1001
0000
0000
0000
0000
0000
,
0010
0000
0000
0001
0000
0000
1001
0000
0000
0000
0100
0000
0020
0000
0000
0000
,
1030
0000
0000
0000
0001
0000
0000
1100
0000
0000
1001
0000
0000
0000
0000
0000
,
0010
0000
0000
0011
0000
0000
1001
0000
0000
0000
0100
0000
0001
0000
0000
0000
,
1000
0000
0000
0000
0010
0000
0000
0110
0000
0000
1010
0000
0000
0000
0000
0000
,
1000
0000
0000
1001
0000
0000
1010
0000
0000
0000
0100
0000
0001
0000
0010
0000
,
0001
0200
0300
0000
0000
0000
0010
1000
,
0200
0000
0310
0001
1000
0000
1002
0000
,
0010
0000
1003
0000
0010
0000
0100
0001
,
2000
0000
3001
0010
0100
0000
2001
0000
,
0010
3001
0100
0001
,
0011
1001
1000
1010
,
1001
0000
0000
0000
0220
0000
0000
0000
0330
0000
0000
0000
0001
0000
0000
0010
,
0000
0000
0100
0000
1000
0000
0000
0000
0010
0000
0000
0100
0000
0000
0001
0000
,
0010
0000
0002
0000
2003
0000
3001
0010
,
0100
0000
0010
0001
1000
0000
2010
0000
,
0001
0000
3100
0000
1001
0000
0010
0100
,
1000
0000
0010
1000
0001
0000
0012
0000
,
1000
0000
0103
0000
1001
0000
0010
1000
,
0100
0000
0010
0001
0100
0000
0010
0100
,
0001
0000
1000
0000
0010
0000
0100
0000
1000
0000
0000
0000
0100
0000
0000
0001
,
0000
0000
0010
0000
0200
0000
0000
0000
1300
0000
0000
0100
0000
0000
0001
0000
,
0100
1000
0001
0100
0020
0000
1030
0100
,
1000
0000
0001
0010
0100
0010
0001
1000
,
0001
0000
0100
0010
0100
0001
0010
0100
,
0010
0000
0001
1000
0001
0100
0010
1000
,
0100
0010
0001
0000
1001
0000
0010
0100
,
0001
0000
0010
0001
1000
0001
0010
0001
,
0100
0000
0010
1000
0100
1000
0010
1000
,
0100
0001
0100
1000
0001
0100
0010
1000
,
0001
0020
0000
0030
0000
0000
0000
0000
;

//---------------dance-single - ----------------
#NOTES:
     dance-single:
     :
     Hard:
     15:
     0.753480,0.815666,0.558992,0.549976,0.531944,585.000000,523.000000,62.000000,61.000000,0.000000,0.000000,0.753480,0.815666,0.558992,0.549976,0.531944,585.000000,523.000000,62.000000,61.000000,0.000000,0.000000:
// measure 0
0000
0000
0000
0000
,  // measure 1
0000
0000
0000
0000
,  // measure 2
0000
0000
0000
0000
,  // measure 3
0000
0000
0000
0000
,  // measure 4
0000
0000
0000
0000
0000
0000
0000
0000
0000
0000
0000
0000
0001
0010
0100
1000
,  // measure 5
0002
0000
0000
0100
0000
0013
0200
0000
,  // measure 6
2300
3010
0200
0302
,  // measure 7
0023
0000
2030
0010
0000
0010
0020
0000
,  // measure 8
0000
0000
0000
0000
0000
0000
0000
0000
3030
0000
0000
0000
0001
1000
0100
0010
,  // measure 9
0002
0000
1000
1003
0000
0010
0200
0000
,  // measure 10
0302
0000
0013
0100
2000
0010
3002
0010
,  // measure 11
0103
0010
1000
0000
1010
0000
0102
0000
,  // measure 12
0010
0000
1003
0000
0010
1000
0200
0000
,  // measure 13
1300
0010
1000
0010
0100
0001
0100
0001
,  // measure 14
0010
0001
1000
0001
0010
1000
0010
0001
,  // measure 15
1000
0000
0010
1000
0010
0000
1000
0000
0001
0010
0100
0000
1000
0001
0010
0001
,  // measure 16
2000
3000
0000
0000
0000
0000
0000
0000
0001
0000
0000
0000
0100
0000
0010
0000
0100
0000
0000
0000
0010
0000
0000
0000
0100
0000
0001
0000
0000
0000
0001
0000
,  // measure 17
0100
0000
0010
0000
1000
0100
0000
0100
0010
0001
0000
0001
1000
0000
0001
0010
,  // measure 18
0001
0000
1000
0000
0010
0000
0100
0010
0100
0000
0001
0000
0010
0001
0000
0001
,  // measure 19
0100
0000
0010
0000
1000
0001
0000
0001
0010
0100
0000
0100
2000
0000
3200
0000
,  // measure 20
0302
0000
0203
0000
1300
0000
0001
0010
0100
0000
1000
0000
0010
0100
0000
0100
,  // measure 21
0010
0000
1000
0000
0001
0000
0010
0100
0010
0000
0001
0000
1000
0010
0000
0010
,  // measure 22
1000
0000
0001
0000
0010
0000
0001
1000
0001
0000
0100
0000
0010
1000
0010
0000
,  // measure 23
0100
0000
0001
0000
0010
0100
0000
0100
1000
0000
0001
0000
2002
0000
0000
0000
,  // measure 24
3003
0000
0000
0000
0110
0000
0000
0000
0001
0000
1000
0000
0100
0000
1000
0010
,  // measure 25
0100
0000
0001
0010
0100
0000
0000
0000
1000
0000
0010
0000
0100
0000
0010
0000
,  // measure 26
1000
0100
0010
0000
0001
0000
0000
0000
0102
0000
0000
0000
0000
0000
0000
0000
,  // measure 27
0013
0000
1000
0100
0001
1000
0010
0001
,  // measure 28
0100
0000
0000
0000
1010
0000
0000
0000
0001
0000
0010
0000
0100
0000
1000
0010
,  // measure 29
0100
0000
0001
0010
0100
0000
0000
0000
0010
0000
0001
0000
1000
0000
0010
0100
,  // measure 30
0001
0000
0010
0100
1000
0000
0000
0000
1020
0000
0000
0000
0000
0000
0000
0000
,  // measure 31
0130
0000
0001
1000
0100
0000
0001
0000
1000
0000
0010
0000
0022
0000
0000
0000
,  // measure 32
0033
0000
0000
0000
1100
0000
0000
0000
0001
0000
0010
0000
0001
0000
1000
0010
,  // measure 33
0100
0000
0001
1000
0010
0000
0000
0100
0001
0000
0010
0000
0100
0000
1000
0010
,  // measure 34
0100
0000
0001
1000
0100
0000
0000
0000
2010
0000
0000
0000
0000
0000
0000
0000
,  // measure 35
3001
0000
1000
0010
0001
1000
0100
0001
,  // measure 36
0010
0000
0100
1000
0001
0000
0000
0001
0010
0000
0001
0000
1000
0000
0001
1000
,  // measure 37
0100
0000
1000
0001
0010
0000
0000
0010
0100
0000
1000
0000
0001
0000
1000
0100
,  // measure 38
0010
0000
0001
0100
0010
0000
0000
0000
0210
0000
0020
0000
0300
0000
0100
0000
,  // measure 39
0130
0001
0010
1000
0001
0100
1000
0010
,  // measure 40
0110
0000
0000
0000
1010
0000
0000
0101
0000
0000
0011
0000
2002
3003
0000
0000
,  // measure 41
1100
0000
0000
1001
0000
0000
0011
0000
1000
0000
0010
0100
0010
0000
1000
0100
,  // measure 42
1000
0000
0001
0000
0011
0000
0000
1001
0000
0000
1100
0000
2002
3003
0000
0000
,  // measure 43
0110
0000
0000
0101
0000
0000
0011
0000
0001
0000
1000
0100
1000
0000
0010
0100
,  // measure 44
0010
0000
1000
0000
1010
0000
0000
0011
0000
0000
0101
0000
2002
3003
0000
0000
,  // measure 45
0101
0000
0000
0011
0000
0000
1010
0000
1000
0000
0010
0100
0010
0000
0100
0001
,  // measure 46
0100
0000
0001
0000
0011
0000
0000
1100
0000
0000
1010
0000
2002
3003
0000
0000
,  // measure 47
0011
0000
0000
0110
0000
0000
1100
0000
0000
1000
0001
1000
0010
0000
0010
0000
,  // measure 48
0010
0000
0220
0000
0330
0000
0000
0000
0000
0000
0000
0000
1000
0100
0010
0000
,  // measure 49
0001
0010
0200
1300
0002
0013
0200
0000
,  // measure 50
0001
0000
0000
0000
1300
0000
0010
0100
0001
0000
0010
0000
0100
1000
0001
0000
,  // measure 51
0100
0010
2000
3100
0020
0031
0200
0000
,  // measure 52
0001
0000
0000
0000
1300
0000
0100
0000
0001
0010
0100
0000
1000
0000
0000
0010
,  // measure 53
1000
0000
0001
0000
1000
0100
0010
0000
0100
0000
1000
0000
0001
0000
0000
1000
,  // measure 54
0001
0000
0010
0000
0001
0100
0010
0000
0100
0000
0001
0000
0010
0000
0000
1001
,  // measure 55
0000
0000
1100
0000
2002
0000
3003
0000
0110
0000
0000
0101
0000
0000
1001
0000
,  // measure 56
2020
0000
3030
0000
0100
0000
0001
0010
0100
0000
1000
0010
0100
0010
0100
0000
,  // measure 57
0001
0010
0200
1300
0002
0013
0200
0000
,  // measure 58
1000
0000
0000
0000
0301
0000
0100
1000
0001
0000
0100
0000
0010
1000
0001
0000
,  // measure 59
0010
0001
2000
3010
0200
0301
0020
0000
,  // measure 60
1000
0000
0000
0000
0031
0000
0010
0001
1000
0000
0000
0000
1010
0000
0000
0000
,  // measure 61
1001
0000
1010
0000
0101
0001
0011
0000
,  // measure 62
1001
0000
0000
0000
0101
0000
0000
1000
0010
0000
0100
0000
0010
0000
0000
1100
,  // measure 63
0000
0000
1001
0000
0022
0033
0000
0000
0101
0000
0000
1001
0000
0000
1010
0000
,  // measure 64
2002
3003
0000
0000
0010
0100
1000
0000
0001
0100
0010
0000
1000
0000
0010
0000
,  // measure 65
1000
0000
0001
0010
0000
0010
0100
0000
1000
0000
0100
0000
0010
0000
0001
0000
,  // measure 66
1000
0010
0000
0010
0100
0000
0001
1000
0100
0000
1000
0001
0100
0000
0010
0000
,  // measure 67
1000
0001
0000
0001
0010
0001
0000
0001
1000
0000
0010
0000
0100
0000
0001
0010
,  // measure 68
0100
0000
1000
0010
0200
0000
0000
0000
0000
0000
0000
0000
0301
0000
0010
0000
,  // measure 69
0001
1000
0000
1000
0001
0010
0000
0010
0001
0000
0100
0000
0010
0000
1000
0000
,  // measure 70
0100
1000
0000
1000
0100
0010
0000
0010
0100
0000
1000
0000
0001
1000
0010
0000
,  // measure 71
0100
0001
1000
0000
0001
1000
0001
1000
0010
0100
0010
0100
0001
0000
0010
1000
,  // measure 72
0000
0010
0002
0000
0000
0000
0003
0000
0000
0000
0000
0000
0000
0000
0000
0000
;
