#TITLE:examination leave;
#SUBTITLE:;
#ARTIST:dj razzle dazzle;
#TITLETRANSLIT:;
#SUBTITLETRANSLIT:;
#ARTISTTRANSLIT:;
#GENRE:VACATION DANCE;
#CREDIT:;
#BANNER:Examination_leave_banner.png;
#BACKGROUND:Examination_leave.png;
#LYRICSPATH:;
#CDTITLE:;
#MUSIC:examination leave.ogg;
#OFFSET:-0.197000;
#SAMPLESTART:26.860001;
#SAMPLELENGTH:12.000000;
#LASTBEATHINT:321.000000;
#SELECTABLE:YES;
#BPMS:0.000000=180.000000
;
#STOPS:
;
#BGCHANGES:;
#KEYSOUNDS:;
#ATTACKS:;

//---------------dance-single - ----------------
#NOTES:
     dance-single:
     :
     Easy:
     6:
     0.310131,0.353663,0.169047,0.258019,0.000000,244.000000,225.000000,19.000000,29.000000,0.000000,0.000000,0.310131,0.353663,0.169047,0.258019,0.000000,244.000000,225.000000,19.000000,29.000000,0.000000,0.000000:
0000
0000
0000
0000
,
0000
0000
0000
0000
,
0000
0000
0000
0000
,
0000
0000
0000
0000
,
1000
0000
0010
0000
0000
0100
0000
0000
,
0001
0000
0010
0000
0000
0100
0000
0000
,
1000
0001
0010
0100
,
2000
0000
0001
3001
,
0110
0000
0001
0010
,
0110
0000
1000
0010
,
0110
0000
1001
0000
,
0000
0001
0100
0000
,
0010
0000
0010
0000
0000
1000
0000
0000
,
0001
0000
0001
0000
0000
0100
0000
0000
,
0001
0010
0100
1000
,
0001
0000
0100
0001
,
0010
0000
0010
0000
0000
0100
0000
0000
,
1000
0000
1000
0000
0000
0001
0000
0000
,
0100
0001
1000
0010
,
0220
0000
0000
0000
0000
0330
0000
0000
,
0020
0000
0030
1000
,
0002
0000
0003
0100
,
0020
0000
0030
1000
,
0001
0010
0100
1000
,
0020
0000
1030
0100
,
0020
0000
0031
1000
,
0020
0000
0130
0001
,
1000
0100
0110
0000
,
0001
0010
0100
0010
,
0001
1000
0010
0000
,
0100
0010
1000
0100
,
0010
0001
1001
0000
,
0100
0010
1000
0001
,
0010
0100
1000
0000
,
0001
0000
0101
0000
,
1000
0100
1000
0000
,
0020
0000
0130
0001
,
0020
0000
0130
1000
,
0020
0000
0130
0001
,
1000
0100
0220
0330
,
0001
0100
0001
0000
,
1000
0100
1000
0000
,
0010
0000
0010
0100
,
0001
0000
0100
0010
,
1000
0001
1000
0100
,
1000
0001
1000
0000
,
0001
0010
0001
1000
,
0001
0100
0001
0000
,
0100
0001
0100
0010
,
0100
0001
0100
0000
,
0010
1000
0100
1000
,
0010
0100
0010
0000
,
1000
0000
1000
0000
0000
0100
0000
0000
,
0010
0000
0010
0000
0000
0001
0000
0000
,
1000
0000
0001
0100
,
0020
0000
0130
0000
,
0001
0000
0001
0000
0000
0100
0000
0000
,
0010
0000
0010
0000
0000
1000
0000
0000
,
0100
1000
0001
1000
,
0200
0000
0310
0000
,
0001
0000
0101
0000
0000
0100
0000
0000
,
0010
0000
1010
0000
0000
1000
0000
0000
,
0100
0010
0100
1000
,
0200
0000
0310
0000
,
0001
0000
0101
0000
0000
0100
0000
0000
,
0010
0000
1010
0000
0000
1000
0000
0000
,
0001
0100
0010
0100
,
0002
0000
1003
0100
,
2000
0000
3010
0100
,
0020
0000
0130
0001
,
2000
0000
3100
0010
,
0100
1000
0001
0000
,
0020
0000
0031
0100
,
0020
0000
0130
0001
,
0200
0000
0320
0000
,
1030
0001
1001
0000
,
0010
0100
0110
0000
,
1010
0000
0011
0000
,
2200
0000
3300
0000
,
0202
0000
0303
0000
;

//---------------dance-single - ----------------
#NOTES:
     dance-single:
     :
     Medium:
     11:
     0.523663,0.534666,0.204635,0.266916,0.000000,412.000000,389.000000,23.000000,30.000000,0.000000,0.000000,0.523663,0.534666,0.204635,0.266916,0.000000,412.000000,389.000000,23.000000,30.000000,0.000000,0.000000:
0000
0000
0000
0000
,
0000
0000
0000
0000
,
0000
0000
0000
0000
,
0000
0000
0000
0000
,
1000
0010
1000
0000
0001
0010
0000
0000
,
0001
0100
0001
0000
1000
0100
0000
0000
,
1000
0010
1000
0000
0001
0100
0001
0100
,
0000
0010
0100
0001
,
2000
0000
3100
0010
0001
0000
0010
0000
,
0002
0000
0103
0010
1000
0000
0001
0000
,
2000
0000
3001
0100
0010
0000
0100
0000
,
0010
0000
1001
0000
1000
0001
0000
0000
,
0010
0001
0010
0000
0100
1000
0000
0000
,
1000
0010
1000
0000
0001
0100
0000
0000
,
0001
0010
0001
0000
1000
0010
1000
0010
,
0000
0100
0001
1001
,
1000
0001
0100
0000
0010
0200
0000
0000
,
0301
1000
0100
0000
0010
0200
0000
0000
,
1300
0001
1000
0000
0010
0100
0010
0100
,
0000
0001
0010
0100
,
2000
0000
3001
0000
0100
0010
1000
0010
,
0200
0000
0301
0000
0010
0100
1000
0100
,
0020
0000
0031
0000
1000
0001
0100
0001
,
1000
0000
0010
0100
0010
0000
0110
0000
,
0002
0000
0013
0000
0001
1000
0100
1000
,
0002
0000
0103
0000
0010
0100
0001
0100
,
0020
0000
1030
0000
0100
1000
0100
0010
,
0100
0000
1000
0001
1000
0000
1001
0000
,
0001
0010
0100
0000
1000
0000
0010
0100
,
0000
0001
1000
0000
0100
0000
1000
0000
,
0010
0100
0001
0000
0010
0000
0001
1000
,
0000
0100
0010
0000
0001
0000
1001
0000
,
0100
0010
1000
0000
0100
0000
1000
0010
,
0000
1000
0100
0000
0010
0000
0001
0000
,
1000
0001
1000
0000
0001
0010
0001
0000
,
0100
0010
2002
3003
,
0100
0000
0010
1000
0100
0010
0001
0000
,
1000
0000
0001
0010
0100
1000
0001
0000
,
0100
0000
0010
0100
0001
1000
0100
0000
,
1000
0100
0001
0100
,
1000
0000
0001
0100
0010
0000
1000
0000
,
0001
0000
0010
0100
1000
0000
0010
0000
,
1000
0100
1000
0000
0001
0100
0001
0000
,
0100
0010
0100
0010
0100
0000
0110
0000
,
1000
0100
1000
0000
0001
0010
0001
0000
,
1000
0001
0100
0010
1000
0100
0010
0000
,
0001
0010
0001
0000
1000
0100
1000
0000
,
0010
0100
0001
1000
0001
0000
0011
0000
,
1000
0000
0100
1000
0001
0010
0001
0000
,
0100
0000
0001
1000
0100
1000
0010
0000
,
0000
0100
0010
0100
0001
0000
0011
0000
,
0000
1000
0001
0010
0100
0000
1100
0000
,
0010
0100
0010
0000
1000
0200
0000
0000
,
1300
0001
1000
0000
0001
0010
0000
0000
,
0001
0100
0001
0000
1000
0100
1000
0010
,
0000
0100
0010
0000
0202
0000
0303
0000
,
0010
0001
1000
0000
0100
1000
0000
0000
,
0010
1000
0001
0000
0010
0100
0000
0000
,
1000
0010
1000
0000
0001
0010
0001
0100
,
0000
0010
1000
0000
2002
0000
3003
0000
,
0100
0100
0100
0000
0000
0011
0000
0000
,
0001
0001
0001
0000
0000
1100
0000
0000
,
1000
0010
1000
0000
0001
0010
0100
1000
,
0000
0001
1000
0000
0220
0000
0330
0000
,
0001
0001
0001
0000
0000
1010
0000
0000
,
0100
0100
0100
0000
0000
0011
0000
0000
,
0100
0001
0100
0000
0010
1000
0010
1000
,
0000
0001
0010
0000
0202
0000
0303
0000
,
0020
0000
1000
0000
1030
0100
0010
0100
,
2000
0000
0001
0000
3001
0100
0010
0100
,
0002
0000
0010
0000
0013
0100
1000
0100
,
0010
0000
0001
0100
0010
0000
1001
0000
,
0200
0000
0001
0000
0310
1000
0100
0010
,
0200
0000
1000
0000
0310
0001
1000
0001
,
0020
0000
0100
0000
0031
1000
0001
0100
,
0010
0000
1000
0100
1000
0000
1001
0000
,
0010
0000
0001
1000
0001
0000
0101
0000
,
1010
0000
1000
0000
0011
0000
0001
1000
,
0020
0000
0000
0000
,
0200
0000
0000
0000
,
0000
0330
0000
0000
0000
0000
0000
0000
;

//---------------dance-single - ----------------
#NOTES:
     dance-single:
     :
     Hard:
     15:
     0.777869,0.748532,0.409271,0.373682,0.275813,612.000000,566.000000,46.000000,42.000000,0.000000,0.000000,0.777869,0.748532,0.409271,0.373682,0.275813,612.000000,566.000000,46.000000,42.000000,0.000000,0.000000:
// measure 0
0000
0000
0000
0000
,  // measure 1
0000
0000
0000
0000
,  // measure 2
0000
0000
0000
0000
,  // measure 3
0000
0000
0000
0000
,  // measure 4
0100
0001
0101
0000
0010
1010
0000
1000
,  // measure 5
0001
0010
0011
0000
0100
1100
0000
1000
,  // measure 6
0010
1000
0001
0010
0100
1000
0001
1001
,  // measure 7
0000
0000
0100
0000
0001
0000
0100
0000
0001
0000
0010
0100
2000
0000
0000
0000
,  // measure 8
3100
0000
0010
0000
0100
0000
1000
0001
1000
0000
0010
0000
0100
0000
0000
0000
,  // measure 9
0001
0000
0010
0000
0100
0000
1000
0010
1000
0000
0001
0000
0010
0000
0000
0000
,  // measure 10
0001
0000
0100
0000
1000
0000
0100
0000
0001
0010
0100
0000
1000
0010
0100
0000
,  // measure 11
0001
0000
1010
0000
0001
0011
0000
0000
,  // measure 12
0100
0000
0100
0000
0110
0000
0000
0000
1000
0000
2200
0000
0000
3300
0000
0000
,  // measure 13
0001
0000
0001
0000
0011
0000
0000
0000
1000
0000
2002
0000
0000
3003
0000
0000
,  // measure 14
0010
0000
1000
0000
0010
0000
0001
0000
0010
0000
1000
0100
0010
0000
0001
0000
,  // measure 15
0000
0000
0001
0000
0100
0000
0010
0000
1000
0100
0010
0000
0100
0010
0001
0000
,  // measure 16
1000
0000
1000
0000
1010
0000
0000
0000
0001
0000
0202
0000
0000
0303
0000
0000
,  // measure 17
0010
0000
0010
0000
0110
0000
0000
0000
1000
0000
2002
0000
0000
3003
0000
0000
,  // measure 18
0100
0000
1000
0000
0100
0000
0001
0000
0100
0000
1000
0100
0010
0000
1000
0000
,  // measure 19
0000
0000
1000
0000
0100
0000
0010
0000
0001
0100
0010
0000
1000
0010
0100
0000
,  // measure 20
0002
0000
0010
0000
0010
0000
0000
0000
1003
0000
0100
0010
0001
0000
0010
0000
,  // measure 21
0200
0000
1000
0000
1000
0000
0000
0000
0310
0000
0100
1000
0001
0000
0100
0010
,  // measure 22
0200
0000
0001
0000
0001
0000
0000
0000
0310
0000
1000
0000
0001
0000
0010
0001
,  // measure 23
1000
0000
0010
1000
0001
0000
0100
0001
1000
0000
0001
0000
1001
0000
0000
0000
,  // measure 24
2000
0000
0100
0000
0100
0000
0000
0000
3001
0000
0010
0100
1000
0000
0010
0000
,  // measure 25
0200
0000
0001
0000
0001
0000
0000
0000
0310
0000
0100
0001
1000
0000
0100
0010
,  // measure 26
0200
0000
1000
0000
1000
0000
0000
0000
0310
0000
0001
0000
1000
0000
0010
0100
,  // measure 27
0001
0000
0010
0100
1000
0000
0001
1000
0010
0000
0100
0000
0110
0000
0000
0000
,  // measure 28
1000
0100
0001
0100
1000
0010
1000
0200
,  // measure 29
0000
0310
0001
0010
1000
0010
0001
0200
,  // measure 30
0000
0310
1000
0010
0001
0010
1000
0200
,  // measure 31
0000
0301
0100
1000
0001
0010
1000
0010
,  // measure 32
0001
1000
0010
0100
0001
0010
1000
0020
,  // measure 33
0000
0130
1000
0100
1000
0010
0100
0002
,  // measure 34
0000
0013
0100
1000
0010
0100
1000
0100
,  // measure 35
0001
0000
1000
0000
0100
0000
0010
0000
0001
0000
1000
0001
1000
0000
0010
0000
,  // measure 36
0200
0000
0000
0000
0301
0010
0001
0010
0001
0000
1000
0000
0100
0000
0010
0000
,  // measure 37
0200
0000
0000
0000
1300
0001
1000
0001
1000
0000
0010
0000
0100
0000
0000
0000
,  // measure 38
0001
0010
1000
0001
0100
1000
0010
0100
,  // measure 39
0001
0100
1000
0100
0001
1000
0100
0000
,  // measure 40
1000
0010
1000
0001
0010
0001
1000
0010
,  // measure 41
0100
0001
1000
0100
1000
0001
0100
0010
,  // measure 42
0000
0000
0010
0000
1000
0000
0001
0000
0010
0000
0001
1000
0001
0000
0000
0000
,  // measure 43
0110
1100
0011
1001
,  // measure 44
1000
0000
0001
0010
0001
0000
1000
0000
0010
0100
0010
0000
1000
0000
0100
1000
,  // measure 45
0100
1000
0001
0010
1000
0001
0200
0000
,  // measure 46
0310
0000
0001
1000
0001
0000
0100
0000
0001
0010
0001
0000
0010
0100
1000
0000
,  // measure 47
0001
0100
1000
0001
0010
1000
1001
0000
,  // measure 48
0200
0000
0010
0000
0310
0000
1000
0100
0010
0000
0001
0000
1000
0000
0010
0000
,  // measure 49
0100
0000
0010
1000
0010
0000
0100
0000
0001
0010
0001
0000
1000
0000
0010
0000
,  // measure 50
0000
0100
0100
0100
0001
0010
1001
0000
,  // measure 51
0000
0010
0010
0010
1000
0100
1001
0000
,  // measure 52
0100
0000
0001
0000
0101
0000
0000
0000
1000
0000
2200
0000
0000
3300
0000
0000
,  // measure 53
0010
0000
0100
0000
0110
0000
0000
0000
1000
0000
2002
0000
0000
3003
0000
0000
,  // measure 54
0010
0000
0100
0000
0010
0000
0001
0000
0010
0000
1000
0001
0100
0000
0010
0000
,  // measure 55
0000
0000
0010
0000
1000
0000
0100
0000
0010
0001
0010
0000
0100
1000
0100
0000
,  // measure 56
1000
0000
0001
0000
0011
0000
0000
0000
1000
0000
2020
0000
0000
3030
0000
0000
,  // measure 57
0100
0000
0001
0000
0101
0000
0000
0000
0010
0000
0220
0000
0000
0330
0000
0000
,  // measure 58
1000
0000
0100
0000
0001
0000
0100
0000
1000
0000
0001
0010
0100
0000
1000
0000
,  // measure 59
0000
0000
1000
0000
0010
0000
1000
0000
0001
0100
0010
0000
1000
0100
0010
0000
,  // measure 60
0001
0001
0101
0000
1000
1010
0000
0010
,  // measure 61
0100
0100
0101
0000
1000
1100
0000
0100
,  // measure 62
1000
0000
0010
0000
0001
0000
0010
0000
1000
0000
0001
0100
0010
0000
0100
0000
,  // measure 63
0000
0000
0100
0000
0001
0000
0010
0000
0001
1000
0100
0000
1000
0001
0100
0000
,  // measure 64
0010
0010
1010
0000
0100
0101
0000
0001
,  // measure 65
0010
0010
0110
0000
1000
1100
0000
0100
,  // measure 66
1000
0000
0010
0000
0001
0000
0010
0000
1000
0000
0001
1000
0100
0000
0010
0000
,  // measure 67
0000
0000
0010
0000
0001
0000
0100
0000
0001
0010
0100
0000
0010
0100
1000
0000
,  // measure 68
0020
0000
0100
0000
0100
0000
0000
0000
1030
0000
0100
0010
0001
0000
1000
0000
,  // measure 69
0002
0000
0100
0000
0100
0000
0000
0000
1003
0000
0010
0100
0001
0000
0010
0100
,  // measure 70
2000
0000
0001
0000
0001
0000
0000
0000
3100
0000
0010
0000
0100
0000
1000
0010
,  // measure 71
0100
0000
0001
1000
0010
0000
0100
0001
1000
0000
0010
0000
0110
0000
0000
0000
,  // measure 72
0002
0000
0010
0000
0010
0000
0000
0000
1003
0000
0100
1000
0010
0000
0100
0000
,  // measure 73
0020
0000
1000
0000
1000
0000
0000
0000
0130
0000
0001
1000
0010
0000
1000
0000
,  // measure 74
0200
0000
0010
0000
0010
0000
0000
0000
1300
0000
0001
0000
0100
0000
0010
1000
,  // measure 75
0100
0000
0010
0001
1000
0000
0010
0000
0110
0000
0000
0000
1001
0000
0000
0000
,  // measure 76
0010
0000
0001
1000
0010
0000
1000
0001
0010
0000
0000
0000
1001
0000
0000
0000
,  // measure 77
0100
1000
0100
0001
0010
1000
0100
0001
,  // measure 78
2002
0000
0000
3003
,  // measure 79
0220
0000
0000
0000
,  // measure 80
0000
0330
0000
0000
0000
0000
0000
0000
;
