#TITLE:cobalt;
#SUBTITLE:;
#ARTIST:Des-ROW・組スペシアル;
#TITLETRANSLIT:;
#SUBTITLETRANSLIT:Des-ROW Gumi Special;
#ARTISTTRANSLIT:;
#GENRE:HIPUNK;
#CREDIT:;
#BANNER:cobalt_banner.png;
#BACKGROUND:cobalt_bg.png;
#LYRICSPATH:;
#CDTITLE:;
#MUSIC:cobalt.ogg;
#OFFSET:-0.370000;
#SAMPLESTART:5.850000;
#SAMPLELENGTH:10.960000;
#LASTBEATHINT:326.000000;
#SELECTABLE:YES;
#BPMS:0.000000=175.000000
,280.000000=145.000000
;
#STOPS:
;
#BGCHANGES:;
#KEYSOUNDS:;
#ATTACKS:;

//---------------dance-single - ----------------
#NOTES:
     dance-single:
     :
     Easy:
     5:
     0.207060,0.296194,0.041891,0.108916,0.004189,173.000000,168.000000,5.000000,13.000000,0.000000,0.000000,0.207060,0.296194,0.041891,0.108916,0.004189,173.000000,168.000000,5.000000,13.000000,0.000000,0.000000:
0000
0000
0000
0000
,
0000
0000
0000
0000
,
0000
0000
0000
0000
,
0000
0000
0000
0000
,
0001
0000
0010
0000
,
0001
1000
0100
0000
,
1000
0000
0010
0000
,
1000
0001
0100
0000
,
0010
0000
0100
0000
,
0001
0010
0001
0000
,
1000
0000
0100
0000
,
1000
0010
1000
0000
,
0001
0000
0010
0000
,
0100
1000
0100
0000
,
1000
0000
0010
0000
,
0100
0001
0100
0000
,
0010
0000
1000
0000
,
0100
0000
0010
0000
,
0001
0000
1000
0000
,
0010
0000
0000
0000
0220
0000
0000
0330
,
0000
0000
0000
0000
,
0000
0000
0000
0000
,
1000
0000
1000
0000
,
0100
0010
0001
0000
,
0100
0000
0100
0000
,
0010
0000
0010
0000
,
0100
0000
0001
0000
,
0010
0100
1000
0000
,
0010
0000
0100
0000
,
0001
1000
0000
1000
,
0001
0000
0010
0000
,
0001
0100
0010
0000
,
1000
0000
0010
0000
,
0100
0010
1000
0000
,
0100
0000
1000
0000
,
0010
0000
0100
0000
,
0001
0000
0010
0000
,
0001
0000
2002
3003
,
0100
0000
0010
0000
,
0100
0001
0100
0000
,
0001
0000
0010
0000
,
0001
1000
0001
0000
,
1000
0000
0010
0000
,
1000
0100
1000
0000
,
0001
0000
0100
0000
,
0001
0010
0100
0000
,
2000
0000
0010
0000
,
3002
0000
0010
0000
,
2003
0000
0100
0000
,
3002
0000
0103
0000
,
2000
0000
3100
0000
,
0020
0000
0031
0000
,
0002
0000
0103
0000
,
0020
0000
1030
0000
,
0100
0000
1000
0000
,
0100
0010
0001
0000
,
0100
0000
0001
0000
,
0010
0100
1000
0000
,
0010
0000
1000
0000
,
0001
0100
0010
0000
,
1000
0000
0100
0000
,
0010
0100
1000
0000
,
0001
0100
0001
0100
,
0001
0000
1001
0000
,
1000
0010
1000
0010
,
1000
0000
1001
0000
,
0200
0000
0310
0100
,
0001
0000
0010
0000
,
0100
1000
0100
0000
,
0010
0001
0010
0000
,
1001
0000
0000
0000
,
0100
0000
0001
0000
,
1000
0000
0000
0000
,
0001
0000
0010
0000
,
0100
0000
0000
0000
,
1000
0000
0010
0000
,
0100
0000
0000
0000
,
0001
0000
1000
0000
,
0100
0000
0000
0000
0000
0000
0000
0000
0000
0010
0000
0000
0000
0000
0000
0000
;

//---------------dance-single - ----------------
#NOTES:
     dance-single:
     :
     Medium:
     10:
     0.397364,0.476508,0.159185,0.167563,0.004189,332.000000,313.000000,19.000000,20.000000,0.000000,0.000000,0.397364,0.476508,0.159185,0.167563,0.004189,332.000000,313.000000,19.000000,20.000000,0.000000,0.000000:
// measure 0
0000
0000
0000
0000
,  // measure 1
0000
0000
0000
0000
,  // measure 2
0000
0000
0000
0000
,  // measure 3
0000
0000
0000
0000
,  // measure 4
0110
0000
1000
0000
0100
0000
1000
0010
,  // measure 5
0000
0100
0001
0010
,  // measure 6
0001
0000
0100
0000
0010
0000
1000
0100
,  // measure 7
0000
0010
0001
1000
,  // measure 8
0010
0000
1000
0000
0100
0000
0010
0001
,  // measure 9
0000
0100
0010
0100
,  // measure 10
0001
0000
0010
0000
0100
0000
1000
0001
,  // measure 11
0000
0100
0220
0330
,  // measure 12
0001
0000
0100
0000
0010
0000
0100
0001
,  // measure 13
0000
0010
0100
1000
,  // measure 14
0010
0000
1000
0000
0100
0000
1000
0001
,  // measure 15
0000
0100
0010
0100
,  // measure 16
0001
0000
0010
0000
0100
1000
0100
1000
,  // measure 17
0000
0010
0100
0001
,  // measure 18
0010
0000
0001
0000
0100
0010
0100
0010
,  // measure 19
0000
1000
2002
3003
,  // measure 20
0110
0000
0000
0000
,  // measure 21
0000
0000
0000
0000
,  // measure 22
0001
0100
0001
0000
1000
0010
1000
0000
,  // measure 23
0001
0000
0010
0000
0001
0100
0001
0000
,  // measure 24
1000
0010
1000
0000
0001
0100
0001
0000
,  // measure 25
1000
0010
0100
0000
0220
0000
0330
0000
,  // measure 26
1000
0000
0100
0000
0010
0100
1000
0000
,  // measure 27
0010
0000
0100
0000
0001
0010
0100
0000
,  // measure 28
0010
0001
1000
0000
0010
1000
0001
0000
,  // measure 29
0100
0010
0100
0000
0010
0000
1001
0000
,  // measure 30
0100
0000
0001
0000
0010
0001
0100
0000
,  // measure 31
0010
1000
0100
0000
1000
0001
0100
0000
,  // measure 32
0020
0000
0130
0000
0001
0010
0100
0000
,  // measure 33
1000
0000
0010
0100
0010
0000
0000
0000
,  // measure 34
1000
0000
0100
0000
1000
0010
0100
0000
,  // measure 35
0001
0000
0010
0000
0001
0100
0010
0000
,  // measure 36
1000
0100
0010
0000
0100
1000
0010
0000
,  // measure 37
0100
0001
0010
0001
0100
0000
0000
0000
,  // measure 38
0011
0000
0000
1000
0000
0000
0010
0000
,  // measure 39
1000
0100
0010
0000
0100
0010
0001
0000
,  // measure 40
1100
0000
0000
0010
0000
0000
0100
0000
,  // measure 41
0001
0010
0100
0000
0010
0100
1000
0000
,  // measure 42
1001
0000
0000
0010
0000
0000
0100
0000
,  // measure 43
0001
1000
0100
0000
1000
0001
0100
0000
,  // measure 44
0011
0000
0000
0100
0000
0000
1000
0000
,  // measure 45
0010
0100
0010
0000
1000
0001
0100
0000
,  // measure 46
0020
0100
1030
0000
,  // measure 47
2000
0100
3001
0000
,  // measure 48
0002
0100
1003
0000
,  // measure 49
0020
0100
1030
0000
,  // measure 50
0001
0000
0100
0000
0010
0100
0010
0100
,  // measure 51
0000
0001
0000
0010
0000
0100
0000
0000
,  // measure 52
1000
0000
0010
0000
1000
0100
1000
0100
,  // measure 53
0000
0010
0000
0001
0000
0100
0100
0000
,  // measure 54
0110
0000
0001
0000
0010
0000
0100
1000
,  // measure 55
0000
0001
1000
0000
0010
0000
0100
0000
,  // measure 56
0001
0000
0010
0000
0100
0000
1000
0010
,  // measure 57
0000
0100
0010
0000
1000
0000
0001
0000
,  // measure 58
0100
0000
0010
0000
1000
0000
0100
0010
,  // measure 59
0000
0001
0100
0000
0010
0000
1000
0000
,  // measure 60
0100
0000
1000
0000
0010
0000
0100
0001
,  // measure 61
0000
1000
0010
0000
0220
0000
0330
0000
,  // measure 62
1000
0000
0100
0000
1000
0100
0010
0001
,  // measure 63
0000
0100
0010
0000
1000
0000
0001
0000
,  // measure 64
0010
0000
0001
0000
0100
0010
1000
0001
,  // measure 65
0000
0010
0001
0000
2200
0000
3300
0000
,  // measure 66
0010
0100
0010
0000
1000
0100
1000
0000
,  // measure 67
0001
0010
0001
0000
1000
0010
1000
0000
,  // measure 68
0001
0000
0100
0000
0010
1000
0100
0010
,  // measure 69
0000
0001
1000
0000
0220
0000
0000
0330
,  // measure 70
0000
0000
0000
0000
,  // measure 71
0011
0000
1000
0000
0010
0000
1000
0100
,  // measure 72
0000
0010
0001
0000
,  // measure 73
2001
0000
0000
0000
3100
0000
0000
0010
,  // measure 74
0000
0100
1100
0000
,  // measure 75
1001
0000
0000
0000
0010
0000
0000
0100
,  // measure 76
0000
0001
0010
0100
,  // measure 77
1002
0000
0000
0000
0013
0000
0000
0001
,  // measure 78
0000
0000
0000
0000
1000
0000
0000
0000
0000
0020
0000
0000
0000
0000
0000
0000
,  // measure 79
0000
0000
0000
0000
,  // measure 80
0000
0000
0000
0000
,  // measure 81
0000
0030
0000
0000
;

//---------------dance-single - ----------------
#NOTES:
     dance-single:
     :
     Hard:
     14:
     0.691796,0.714761,0.159185,0.192698,0.435664,578.000000,559.000000,19.000000,23.000000,0.000000,0.000000,0.691796,0.714761,0.159185,0.192698,0.435664,578.000000,559.000000,19.000000,23.000000,0.000000,0.000000:
// measure 0
0000
0000
0000
0000
,  // measure 1
0000
0000
0000
0000
,  // measure 2
0000
0000
0000
0000
,  // measure 3
0000
0000
0000
0000
,  // measure 4
0001
0100
0010
0100
0001
0010
0100
1000
,  // measure 5
0000
0000
1000
0000
0010
0000
0100
0000
0010
0000
1000
0001
0100
0000
0000
0000
,  // measure 6
0010
0100
0001
0100
0010
1000
0100
0010
,  // measure 7
0000
0000
0010
0000
0100
0000
1000
0000
0001
0100
0010
0000
0100
0000
0000
0000
,  // measure 8
0010
1000
0100
0010
0001
0100
0010
1000
,  // measure 9
0000
0000
1000
0000
0001
0000
0100
0000
0010
1000
0100
0000
0010
0000
0000
0000
,  // measure 10
0001
1000
0010
1000
0100
0010
0001
0100
,  // measure 11
0000
0100
0010
0100
0001
0000
1010
0000
,  // measure 12
0001
0000
0100
0000
0010
0100
0001
0000
0010
0000
0100
0000
1000
0000
0010
0000
,  // measure 13
0000
0000
0010
0000
1000
0000
0010
0000
0100
0000
0001
0010
0001
0000
0000
0000
,  // measure 14
0100
0000
0010
0000
1000
0001
0100
0000
0010
0000
1000
0000
0100
0000
0010
0000
,  // measure 15
0000
0000
0010
0000
0001
0000
1000
0000
0010
0000
0100
0010
1000
0000
0000
0000
,  // measure 16
0100
0000
0010
0000
0100
1000
0100
0000
0010
0000
0001
0000
1000
0000
0010
0000
,  // measure 17
0000
0000
0010
0000
0100
0000
0001
0000
0010
0000
0001
1000
0001
0000
0000
0000
,  // measure 18
0100
0000
0010
0000
0100
0010
1000
0000
0100
0000
0010
0000
0001
1000
0010
0000
,  // measure 19
0000
0000
0010
0000
1000
0000
0001
0000
0010
0100
0010
0100
0010
0000
0000
0000
,  // measure 20
2002
0000
3003
0000
,  // measure 21
0000
0000
0000
0000
,  // measure 22
1000
0000
0010
0100
0010
0100
0001
0010
0100
1000
0000
0000
,  // measure 23
0010
1000
0100
0010
0000
0000
0001
0100
0010
0100
0000
0000
,  // measure 24
0001
0010
0100
1000
0000
0010
1000
0100
0010
0001
0000
0100
,  // measure 25
0010
1000
0100
0010
0001
0100
0010
0000
0000
1001
0000
0000
,  // measure 26
0010
0000
0100
0000
0010
1000
0100
0000
1000
0000
0010
0100
0010
0000
0000
0000
,  // measure 27
1000
0100
0010
0000
0001
0000
1000
0000
0010
0000
0100
0010
0100
0000
0000
0000
,  // measure 28
0002
0000
0000
0013
0100
0000
0000
0000
1000
0000
0010
0100
0010
0000
1000
0000
,  // measure 29
0001
0000
0010
0001
1000
0000
0010
0000
0100
0000
0000
0000
1001
0000
0000
0000
,  // measure 30
0010
0000
0000
1000
0000
0000
0100
0000
0000
1000
0000
0000
0001
0000
0100
0000
0010
0000
0100
0000
0000
0000
0001
0000
,  // measure 31
0010
0100
1000
0010
0000
0000
1000
0100
0010
0001
0000
0000
,  // measure 32
0100
0010
1000
0100
0000
0010
0001
1000
0010
1000
0000
0001
,  // measure 33
1000
0100
0010
0002
0000
0000
1003
0100
0010
0002
0000
0000
,  // measure 34
0103
0000
0010
0000
0100
0000
0001
0010
0100
0000
1000
0000
0010
0000
0100
0000
,  // measure 35
0001
0000
1000
0000
0100
0000
1000
0010
0100
0000
0001
0000
0011
0000
0000
0000
,  // measure 36
1000
0010
0100
0010
0000
1000
0001
0100
0010
0100
0000
0001
,  // measure 37
0010
0000
0100
0000
0010
0000
0100
0000
1000
0000
0001
1000
0001
1000
0001
0000
,  // measure 38
0100
0010
1000
0100
0010
0100
1000
0001
,  // measure 39
0100
0010
1000
0000
0100
0000
0010
0000
0001
1000
0100
0000
0010
0000
0000
0000
,  // measure 40
0101
0000
0000
0000
0010
0000
1000
0000
0100
0000
1000
0010
0100
0000
0001
0000
,  // measure 41
0010
0100
1000
0000
0001
0000
1000
0000
0001
0010
0100
0000
1000
0000
0000
0000
,  // measure 42
1010
0000
0000
0000
0100
0000
0010
0000
1000
0000
0001
0010
0100
0000
0010
0000
,  // measure 43
0001
1000
0100
0000
1000
0000
0001
0000
1000
0001
0100
0000
0010
0000
1000
0000
,  // measure 44
0002
0000
0000
0000
1003
0000
0010
0000
1000
0000
0010
0100
0001
0000
0010
0000
,  // measure 45
0001
0000
0100
0000
1000
0000
0100
0000
0001
0000
0010
0100
1000
0000
0000
0000
,  // measure 46
1020
0000
0130
0010
0100
0001
0010
0001
,  // measure 47
0000
1200
0000
0010
0000
1300
0001
0000
,  // measure 48
0201
0000
0310
0100
0010
1000
0000
1020
,  // measure 49
0000
0001
0000
1030
0001
0010
0010
0000
,  // measure 50
1001
0000
0010
0100
0010
1000
0100
0020
,  // measure 51
0000
0001
0000
0100
0000
0031
1000
0010
,  // measure 52
0100
0010
1000
0001
0010
0100
1000
0001
,  // measure 53
0100
0000
0010
0000
0100
0000
0010
0000
1000
0001
1000
0001
1000
0000
0000
0000
,  // measure 54
0001
0000
0010
0000
0001
0000
1000
0000
0100
0000
1000
0000
0010
0100
0001
0000
,  // measure 55
0000
0000
0001
0000
1000
0000
0010
0000
0100
0000
0001
0010
0100
0000
0000
0000
,  // measure 56
2100
0000
0000
0000
3010
0000
0100
0000
0010
0000
1000
0100
0010
0000
0001
0000
,  // measure 57
0000
0000
0001
0000
0100
0000
0010
0000
0100
0000
0001
0010
0100
0000
0000
0000
,  // measure 58
0012
0000
0000
0000
1003
0000
0010
0000
0100
0000
0010
1000
0100
0000
0010
0000
,  // measure 59
0000
0000
0010
0000
0001
0000
0100
0000
0010
0100
0010
0100
0010
0000
0000
0000
,  // measure 60
2010
0000
0000
0000
3100
0000
0010
0000
0001
0000
0100
0010
1000
0000
0001
0000
,  // measure 61
0000
0000
0001
0000
1000
0000
0010
0000
1000
0100
1000
0100
1000
0000
0000
0000
,  // measure 62
0001
0000
0100
0000
0010
0100
0001
0000
0010
0000
0100
0000
1000
0010
0100
0000
,  // measure 63
0001
0000
1000
0000
0100
0010
0001
0000
1000
0000
0010
0100
0001
0000
0000
0000
,  // measure 64
1000
0000
0010
0000
1000
0100
0010
0000
0100
0000
1000
0000
0010
0100
0001
0000
,  // measure 65
0010
0000
0001
0000
0100
0010
1000
0000
0001
0100
0001
0100
0001
0000
0000
0000
,  // measure 66
1000
1000
0010
0010
0100
0100
0001
0001
,  // measure 67
0010
0000
0001
0000
0100
0000
0010
0000
1000
0001
1000
0001
1000
0000
0010
0000
,  // measure 68
0100
0100
0001
0001
0010
0010
1000
1000
,  // measure 69
0100
0000
0001
0000
0010
0000
1000
0000
0010
0100
0010
0100
0010
0100
0010
0100
,  // measure 70
0010
0000
0000
0000
,  // measure 71
2001
0000
0010
0000
3001
0000
0010
0002
,  // measure 72
0000
0100
1000
0103
,  // measure 73
0120
0000
1000
0000
0130
0000
0001
0020
,  // measure 74
0000
0100
0002
0033
,  // measure 75
2100
0000
3010
0000
0100
0001
1000
0020
,  // measure 76
0000
0000
0100
0000
1000
0000
0130
0001
,  // measure 77
1000
0000
0100
0000
0010
0001
1000
0010
,  // measure 78
0000
0000
0100
0000
0010
0000
0000
0000
0000
2002
0000
0000
0000
0000
0000
0000
,  // measure 79
0000
0000
0000
0000
,  // measure 80
0000
0000
0000
0000
,  // measure 81
0000
3003
0000
0000
;
