#TITLE:cloche;
#SUBTITLE:;
#ARTIST:Qrispy Joybox;
#TITLETRANSLIT:;
#SUBTITLETRANSLIT:;
#ARTISTTRANSLIT:;
#GENRE:;
#CREDIT:;
#BANNER:cloche_banner.png;
#BACKGROUND:cloche.png;
#LYRICSPATH:;
#CDTITLE:;
#MUSIC:cloche.ogg;
#OFFSET:-0.210000;
#SAMPLESTART:64.820000;
#SAMPLELENGTH:12.000000;
#SELECTABLE:YES;
#BPMS:0.000000=182.000000
;
#STOPS:
;
#BGCHANGES:;
#KEYSOUNDS:;
#ATTACKS:;

//---------------dance-single - ----------------
#NOTES:
     dance-single:
     :
     Easy:
     6:
     0.257154,0.321898,0.053734,0.205979,0.000000,201.000000,195.000000,6.000000,23.000000,0.000000,0.000000,0.257154,0.321898,0.053734,0.205979,0.000000,201.000000,195.000000,6.000000,23.000000,0.000000,0.000000:
0000
0000
0000
0000
,
0000
0000
0000
0000
,
0000
0000
0000
0000
,
0000
0000
0000
0000
,
1000
0000
1000
0000
,
0001
0000
0001
0000
,
0010
0000
0010
0100
,
0020
0000
0030
0000
,
0001
0000
0001
0100
,
0001
0000
1000
0000
,
0010
0000
0010
1000
,
0020
0000
0030
0000
,
0100
0000
0100
0010
,
1000
0000
1000
0000
,
0001
0010
0100
1000
,
2002
0000
3003
0000
,
0010
0100
0000
0100
,
0010
1000
0000
1000
,
0001
0010
0001
0000
,
2200
0000
3300
0000
,
0001
0010
0000
0010
,
0001
1000
0000
1000
,
0010
0100
0010
0000
,
0202
0000
0303
0000
,
0010
1000
1000
0000
,
0001
0010
0010
0000
,
0001
0100
0100
0000
,
1000
0100
0100
0000
,
0001
1000
0010
0000
,
1000
0001
0100
0000
,
1000
0010
0100
0001
,
0020
0000
0030
0000
,
0001
0100
0000
0100
,
0010
1000
0000
1000
,
0010
1000
0100
0010
,
0002
0000
0003
0000
,
0010
0100
0000
0100
,
1000
0001
0000
0001
,
0100
0010
1000
0001
,
2002
0000
3003
0000
,
0010
0000
0010
0100
,
0010
0000
0010
0000
,
1000
0000
1000
0100
,
1000
0000
1000
0000
,
0001
0000
0001
0010
,
0001
0000
0001
0000
,
0100
0010
0100
0010
,
2002
0000
0000
0000
,
3003
0000
0000
0000
,
0010
0100
0000
0100
,
0010
1000
0000
1000
,
0001
0010
0100
1000
,
2000
0000
3000
0000
,
0010
0100
0000
0100
,
0001
0010
0000
0010
,
0001
1000
0100
0010
,
0002
0000
0003
0000
,
1000
0100
1000
0100
,
1000
0000
0010
0000
,
0001
0100
0001
0100
,
0020
0000
0030
0000
,
1000
0001
0100
0001
,
1000
0000
0010
0000
,
1000
0000
0001
0000
0010
0000
0000
0001
,
0000
0000
0000
0000
,
0002
0000
0103
0000
,
2000
0000
3100
0000
,
0002
0000
0013
0000
,
2000
0000
3010
0000
,
0100
0010
0100
0000
,
0001
0010
0001
0000
,
1000
0100
1000
0000
,
0220
0000
0330
0000
,
0001
0010
0100
0010
,
0001
0000
1000
0000
,
0010
1000
0100
1000
,
0010
0000
0100
0000
,
0010
1000
0001
1000
,
0010
0000
0100
0000
,
0001
0000
0100
0000
1000
0000
0000
1000
;

//---------------dance-single - ----------------
#NOTES:
     dance-single:
     :
     Medium:
     9:
     0.452897,0.514051,0.188068,0.197023,0.000000,354.000000,333.000000,21.000000,22.000000,0.000000,0.000000,0.452897,0.514051,0.188068,0.197023,0.000000,354.000000,333.000000,21.000000,22.000000,0.000000,0.000000:
0000
0000
0000
0000
,
0000
0000
0000
0000
,
0000
0000
0000
0000
,
0000
0000
0000
0000
,
0010
0000
0100
0001
0000
1000
0000
0010
,
0000
1000
0000
0001
0000
0010
0100
0000
,
1100
0000
0000
0001
0000
0010
0000
0202
,
0000
0000
0303
0000
,
0010
0000
1000
0000
0100
1000
0000
0001
,
0000
0100
0000
0010
0000
1000
0000
0001
,
0000
0010
0001
0000
1000
0010
0100
0020
,
0000
0000
0000
0030
,
0101
0000
0010
0000
1000
0100
0000
1000
,
0000
0010
0000
0100
0000
0001
0000
0010
,
0000
0100
1000
0000
0001
0010
0100
2000
,
0000
0000
0000
3000
,
0000
0001
0010
0001
0000
1000
0010
1000
,
0000
0001
0100
0001
0000
0010
0100
0010
,
0000
0100
1000
0100
0000
0001
0100
0002
,
0000
1000
0000
1003
,
0000
0010
1000
0010
0000
0100
0001
0100
,
0000
0001
0010
0001
0000
1000
0100
1000
,
0000
0010
0100
0000
0010
1000
0100
0020
,
0000
0000
0000
0030
,
0001
0000
0101
0000
0010
1000
0000
0100
,
0000
1000
0000
0010
0000
1000
0100
0000
,
1000
0000
1010
0000
0100
0001
0000
0020
,
0000
0000
0130
0000
1000
0100
0010
0001
,
1000
0000
1001
0000
0100
0010
0000
1000
,
0000
0010
0000
0110
0000
0001
0010
0000
,
0001
0000
0011
0000
1000
0100
0010
0200
,
0000
0000
0000
1300
,
0000
0001
0010
0100
0010
0001
0000
1000
,
0010
0000
1000
0100
0000
0010
0001
0100
,
0000
0010
1000
0000
0001
0010
0100
2000
,
0000
0000
0000
3001
,
0000
0010
0100
0000
0001
0010
0000
0001
,
1000
0100
0010
0100
0000
1000
0001
0000
,
0000
0100
0010
0000
0010
1000
0001
0020
,
0000
0000
0000
0130
,
0200
0000
1300
0000
1000
0001
1000
0010
,
0000
0010
0100
0000
0001
0010
0001
0000
,
1000
0000
1100
0000
0010
0100
0001
1000
,
0000
0001
0000
2002
0000
0000
3003
0000
,
0010
0000
0110
0000
0001
0010
0001
1000
,
0000
1000
0010
0000
0100
0001
0100
0000
,
0010
1000
0001
0000
1000
0100
0010
0002
,
0000
0000
0000
0000
,
0000
0000
0000
0003
,
0000
1000
0100
0010
0000
0010
0100
1000
,
0000
0001
0100
0010
0000
0010
0100
0001
,
0000
1000
0001
0010
0000
0010
0001
2000
,
0000
0000
0000
3010
,
0000
0010
0100
0001
0000
0001
0010
0100
,
0000
0010
0001
1000
0000
1000
0001
0010
,
0000
0100
1000
0000
0001
1000
0010
0200
,
0000
0000
0000
0300
,
0000
0010
0100
0010
0100
0000
0110
0000
,
0001
0010
0001
1000
0000
0001
0000
1010
,
0000
0100
0001
0000
1000
0100
0010
0002
,
0000
0000
0000
0013
,
0010
0100
1000
0000
0010
0100
0010
0000
,
1000
0001
0010
0100
0000
1000
0000
1001
,
0000
0001
0010
0000
0001
1000
0010
0200
,
0000
0000
0000
0300
,
0001
0000
0010
0001
0000
1000
0000
0010
,
0000
0100
0000
0010
0000
1000
1000
0000
,
0011
0000
0010
0001
0000
1000
0000
0202
,
0000
0000
0000
0303
,
0010
0000
1000
0001
0000
1000
0000
0100
,
0000
1000
0000
0110
0000
0001
0001
0000
,
1000
0000
0011
0000
0010
0100
1000
0002
,
0000
0000
0000
0003
,
0000
1000
0100
1000
0010
1000
0010
0000
,
0100
0001
0100
0001
0000
0010
0000
1100
,
0000
0001
0010
0001
1000
0001
1000
0000
,
0001
0010
0100
1000
0000
0000
1001
0000
,
0010
0100
0001
0000
1000
0010
1000
0000
,
0001
0010
0001
1000
0000
0010
0000
0101
,
0000
0001
0010
0000
0100
1000
0010
0002
,
0000
0000
0000
0000
,
0000
0000
0000
0000
,
0003
0000
0000
0000
;

//---------------dance-single - ----------------
#NOTES:
     dance-single:
     :
     Hard:
     12:
     0.635847,0.660923,0.420913,0.205979,0.013433,497.000000,450.000000,47.000000,23.000000,0.000000,0.000000,0.635847,0.660923,0.420913,0.205979,0.013433,497.000000,450.000000,47.000000,23.000000,0.000000,0.000000:
0000
0000
0000
0000
,
0000
0000
0000
0000
,
0000
0000
0000
0000
,
0000
0000
0000
0000
,
1010
0000
0100
0001
0000
0011
0000
1000
,
0010
0100
0001
0010
0000
0010
0100
1000
,
0010
0100
1000
0100
0000
0011
0000
2200
,
0000
0000
0000
3300
,
0001
0010
0100
0010
0001
1000
0100
0001
,
0000
1100
0000
1010
0000
0011
0000
0101
,
0000
0001
0010
0100
0010
0001
1000
0010
,
0000
0100
0010
1000
0001
0100
0110
0000
,
1000
0100
0010
0100
1000
0001
0010
1000
,
0000
0011
0000
0101
0000
1100
0000
1010
,
0000
0100
0001
0010
0100
1000
0010
0200
,
0000
0000
0000
0000
0010
0000
0000
0010
0000
0000
0301
0000
0101
0000
0000
0000
,
0001
1000
0100
0001
0000
0001
0100
1000
,
0000
1000
0100
0001
0000
1000
0010
0001
,
0010
0100
1000
0010
0100
0001
0010
0012
,
0000
0000
1000
0000
0100
0103
0000
1000
,
0001
1000
0010
0001
0000
0001
0010
1000
,
0000
1000
0010
0001
0000
0001
0100
1000
,
0001
0010
0001
1000
0010
1000
0100
2200
,
0000
0000
0000
3300
,
0101
0000
0010
0001
1000
0010
0100
0110
,
0000
1000
0001
0010
0001
1000
0100
0000
,
0101
0000
0011
0001
0100
0010
1000
1100
,
0000
0001
0100
0010
1000
0100
0001
0100
,
1000
0001
1000
0010
0010
0100
0001
0011
,
0000
1100
1000
0010
1000
0100
0020
0000
,
0031
0100
0010
0100
0001
1000
0100
0220
,
0000
0000
0000
0330
,
0001
1000
0100
1000
0001
0010
0000
0001
,
1000
0000
0100
0000
0001
0000
0100
0000
0000
0000
1000
0010
0100
0000
0001
0000
,
0010
0100
1000
0001
1000
0010
0100
0002
,
0000
0010
0010
0000
1000
1000
1003
0000
,
0010
0100
0001
1000
0100
0001
0000
0001
,
0100
0000
1000
0000
0010
0000
0100
0000
0000
0000
0001
0010
0100
0000
1000
0000
,
0010
0100
0001
1000
0100
0010
0001
0200
,
0000
0000
0000
0310
,
1010
0000
1100
0000
0001
0010
0100
0110
,
0000
0001
1000
0010
0100
0001
0010
0100
,
1000
0010
0100
0000
0001
1000
0100
0110
,
0000
0100
1000
0001
1000
0010
0200
0000
,
0310
1000
0010
0100
0001
0010
0100
1100
,
0000
1000
0001
0010
0001
1000
0100
0010
,
0100
1000
0001
0000
0010
1000
0010
0002
,
0000
1000
0000
0100
,
0000
1000
0000
0103
,
0010
1000
0100
0001
0000
0001
0100
1000
,
0000
1000
0100
0001
0000
1000
0010
0001
,
0000
0001
0010
1000
0000
1000
0010
0011
,
0000
0000
0010
0000
0010
0001
0100
0010
,
0100
0001
0010
1000
0000
1000
0010
0001
,
0000
0001
0010
1000
0000
0001
0100
1000
,
0000
1000
0100
0001
1000
0010
0001
2002
,
0000
0000
0000
3003
0000
0000
1001
0000
,
0100
0010
0100
0001
1000
0100
0001
0100
,
1000
0100
0001
0100
0000
0101
0000
1010
,
0000
0001
0010
0100
1000
0010
0100
0002
,
0000
0010
1000
0013
,
1000
0100
0010
0100
1000
0010
0001
0010
,
1000
0010
0001
0010
0000
0101
0000
1010
,
0000
0100
1000
0001
0010
0100
0010
0220
,
0000
0000
0000
0330
,
1100
0000
0001
0010
0000
0101
0000
0010
,
1000
0100
1000
0001
0000
0100
0110
0000
,
0001
1000
0010
1000
0000
0101
0000
0011
,
0000
1000
0100
0001
0100
1000
0002
0000
,
0103
0010
1000
0100
0000
1010
0000
0100
,
0010
0100
0001
0010
0000
0010
0001
1000
,
0100
0010
0001
0100
0000
0100
0010
2020
,
0000
0000
0000
3030
0000
0001
0000
0001
,
0100
1000
0001
0010
1000
0100
0001
1000
,
0001
0100
1000
0010
0000
0110
0000
0001
,
0010
0001
1000
0100
0001
0010
1000
0001
,
1000
0010
0001
0100
0000
0010
0110
0000
,
0001
0100
1000
0100
0001
0010
1000
0010
,
0001
1000
0100
0010
0000
1100
0000
0001
,
0100
0010
0100
0001
0010
0100
0002
2000
,
0000
0000
0000
0000
,
0000
0000
0000
0000
,
3003
0000
0000
0000
;

//---------------dance-single - CrossOver Special----------------
#NOTES:
     dance-single:
     :
     Challenge:
     11:
     0.501513,0.624205,0.188068,0.223890,0.000000,392.000000,371.000000,21.000000,25.000000,0.000000,0.000000,0.501513,0.624205,0.188068,0.223890,0.000000,392.000000,371.000000,21.000000,25.000000,0.000000,0.000000:
// measure 0
0000
0000
0000
0000
,  // measure 1
0000
0000
0000
0000
,  // measure 2
0000
0000
0000
0000
,  // measure 3
0000
0000
0000
0000
,  // measure 4
2001
0000
3100
0001
0000
0100
1000
0001
,  // measure 5
0100
1000
0100
0001
0000
0001
1000
0001
,  // measure 6
1000
0010
0001
0010
0000
1000
0000
2002
,  // measure 7
0000
0000
0000
3003
,  // measure 8
0001
0100
1000
0100
0001
1000
0100
0001
,  // measure 9
0000
1100
0000
0010
0000
0101
0000
0010
,  // measure 10
1000
0010
0001
0010
1000
0100
0001
0100
,  // measure 11
0000
1000
0100
0001
0100
1000
0001
1000
,  // measure 12
0010
1000
0010
0001
0010
1000
0010
0001
,  // measure 13
0000
1010
0000
0100
0000
1100
0000
0001
,  // measure 14
1000
0100
0001
0100
1000
0001
1000
0020
,  // measure 15
0000
0000
0000
0030
,  // measure 16
0000
1000
0100
0001
0000
0001
0100
1000
,  // measure 17
0000
1000
0010
0001
0000
0001
0010
1000
,  // measure 18
0000
0001
0100
1000
0000
0001
0010
2000
,  // measure 19
0000
0000
3001
0000
0001
0100
0000
1000
,  // measure 20
0100
0001
0100
1000
0000
1000
0100
0001
,  // measure 21
0000
0001
0010
1000
0000
1000
0010
0001
,  // measure 22
0000
1000
0010
0001
1000
0100
0001
2000
,  // measure 23
0000
0000
0000
3000
,  // measure 24
0001
0000
0101
0000
0010
0010
0000
1000
,  // measure 25
0000
1100
0000
1001
0000
0100
0100
0000
,  // measure 26
0010
0000
0110
0000
1000
1000
0000
0202
,  // measure 27
0000
0000
0303
0000
0001
0010
1000
0010
,  // measure 28
0001
0000
1001
0000
0100
0100
0000
0010
,  // measure 29
0000
1010
0000
1100
0000
0001
0001
0000
,  // measure 30
0100
0000
0110
0000
1000
0010
0001
0020
,  // measure 31
0000
0000
0000
0030
,  // measure 32
0000
1000
0100
0001
0100
1000
0000
0001
,  // measure 33
0100
1000
0100
0001
0000
0010
0010
0000
,  // measure 34
0000
0001
0010
1000
0020
0000
0031
0200
,  // measure 35
0000
0000
0010
0310
,  // measure 36
0000
1000
0010
0001
0010
1000
0000
0001
,  // measure 37
0010
1000
0010
0001
0000
0100
0100
0000
,  // measure 38
0000
0001
0010
1000
0020
0000
0031
0200
,  // measure 39
0000
0000
0000
0300
,  // measure 40
0010
0000
0101
0000
1000
0100
0000
0010
,  // measure 41
0000
0100
1000
0000
0001
0100
0010
0000
,  // measure 42
1000
0001
1000
0000
0010
0100
0001
0010
,  // measure 43
0000
0010
0001
2000
0000
0100
3100
0000
,  // measure 44
1000
0000
1010
0000
0100
0001
0010
0001
,  // measure 45
0000
1000
0010
0000
0100
0001
0100
0000
,  // measure 46
0001
0010
1000
0000
1000
0010
0001
0200
,  // measure 47
0000
0000
0000
0000
,  // measure 48
0000
0000
0300
0000
,  // measure 49
0000
0001
0010
1000
0000
1000
0010
0001
,  // measure 50
0000
1000
0100
0001
0000
0001
0100
1000
,  // measure 51
0000
0001
0100
1000
0000
1000
0100
0002
,  // measure 52
0000
1000
1000
1003
,  // measure 53
0000
1000
0010
0001
0000
0001
0010
1000
,  // measure 54
0000
1000
0100
0001
0000
0001
0100
1000
,  // measure 55
0000
0001
0010
0100
1000
0100
0010
0002
,  // measure 56
0000
0000
0000
0000
0000
0003
0000
0000
,  // measure 57
0000
0100
0001
0010
0001
0100
0001
0000
,  // measure 58
1000
0010
1000
0100
0000
1000
0000
1010
,  // measure 59
0000
1000
0100
0001
0100
1000
0010
0002
,  // measure 60
0000
0000
0000
0003
,  // measure 61
0000
1000
0100
1000
0010
1000
0100
0000
,  // measure 62
0010
0001
0100
0001
0000
0011
0000
0100
,  // measure 63
0000
0001
0100
1000
0100
0001
0100
0020
,  // measure 64
0000
0000
0000
0030
,  // measure 65
1000
0000
0010
1000
0000
0001
0000
0011
,  // measure 66
0000
0100
0001
0100
0000
0010
1000
0010
,  // measure 67
0200
0000
0000
0010
0000
0010
0000
0020
,  // measure 68
0000
0000
0000
0330
,  // measure 69
0001
0000
0100
0001
0000
1000
0000
1100
,  // measure 70
0000
0010
1000
0010
0000
0100
0001
0100
,  // measure 71
0020
0000
0000
0100
0000
0100
0000
0200
,  // measure 72
0000
0000
0000
0330
,  // measure 73
0000
0001
0100
1000
0100
0001
0100
1000
,  // measure 74
0100
0001
0100
1000
0000
0100
0000
0001
,  // measure 75
0000
1000
0100
0001
0100
1000
0100
0001
,  // measure 76
0100
1000
0010
0200
0000
0000
0300
0000
,  // measure 77
0000
0001
0010
1000
0010
0001
0010
1000
,  // measure 78
0010
0001
0010
1000
0000
0010
0000
0001
,  // measure 79
0000
1000
0010
0001
0010
1000
0010
0200
,  // measure 80
0000
0000
0000
0000
,  // measure 81
0000
0000
0000
0000
,  // measure 82
0300
0000
0000
0000
;
