#TITLE:break through the clouds;
#SUBTITLE:;
#ARTIST:Tomoyuki Uchida;
#TITLETRANSLIT:;
#SUBTITLETRANSLIT:;
#ARTISTTRANSLIT:;
#GENRE:;
#CREDIT:;
#BANNER:Break_through_the_clouds_banner.png;
#BACKGROUND:Break_through_the_clouds.png;
#LYRICSPATH:;
#CDTITLE:;
#MUSIC:break through the clouds.ogg;
#OFFSET:-0.970000;
#SAMPLESTART:72.349998;
#SAMPLELENGTH:12.810000;
#SELECTABLE:YES;
#BPMS:0.000000=150.000000
;
#STOPS:176.000000=0.800000
;
#BGCHANGES:;
#KEYSOUNDS:;
#ATTACKS:;

//---------------dance-single - ----------------
#NOTES:
     dance-single:
     :
     Easy:
     6:
     0.228622,0.271445,0.090276,0.123104,0.000000,195.000000,184.000000,11.000000,15.000000,0.000000,0.000000,0.228622,0.271445,0.090276,0.123104,0.000000,195.000000,184.000000,11.000000,15.000000,0.000000,0.000000:
// measure 0
0000
0000
0000
0000
,  // measure 1
0000
0000
0000
0000
,  // measure 2
0000
0000
0000
0000
,  // measure 3
0000
0000
0000
0000
,  // measure 4
0000
0000
0000
0000
,  // measure 5
0000
0000
0000
0000
,  // measure 6
0000
0000
0000
0000
,  // measure 7
0000
0000
0000
0000
,  // measure 8
0001
1000
1000
0000
,  // measure 9
0100
0010
0010
0000
,  // measure 10
1000
0100
0100
0000
,  // measure 11
0001
0010
0010
0000
,  // measure 12
0100
1000
0100
0000
,  // measure 13
0010
0001
0010
0000
,  // measure 14
1001
0000
0110
0000
,  // measure 15
1000
0001
0010
0100
,  // measure 16
2000
0000
3010
0000
,  // measure 17
0002
0000
0103
0000
,  // measure 18
0010
0010
0010
0000
,  // measure 19
0100
0001
0100
0000
,  // measure 20
1000
1000
1000
0000
,  // measure 21
0001
0010
0001
0000
,  // measure 22
0100
0100
0100
0000
,  // measure 23
0010
0010
0010
0000
,  // measure 24
1000
0001
0010
0001
,  // measure 25
1000
0000
0110
0000
,  // measure 26
1000
1000
1000
0000
,  // measure 27
0010
0100
0010
0000
,  // measure 28
0001
0001
0001
0000
,  // measure 29
0010
0000
1001
0000
,  // measure 30
0100
0010
1000
0010
,  // measure 31
0100
0000
0001
0000
,  // measure 32
0010
0001
1000
0001
,  // measure 33
0020
0000
0031
0000
,  // measure 34
1100
0000
1000
0010
,  // measure 35
0100
0100
0100
0000
,  // measure 36
0001
0001
0001
0000
,  // measure 37
0010
0100
0010
0001
,  // measure 38
1000
0100
1000
0000
,  // measure 39
0020
0000
0130
0000
,  // measure 40
2000
0000
3001
0000
,  // measure 41
0020
0000
0031
0001
,  // measure 42
1000
0100
0100
0000
,  // measure 43
1000
0010
0010
0000
,  // measure 44
0000
0000
0100
0010
,  // measure 45
0100
0000
0001
1000
,  // measure 46
0001
0000
1000
0010
,  // measure 47
0100
0001
0010
0000
,  // measure 48
0110
0000
0001
0010
,  // measure 49
0100
1000
0001
0100
,  // measure 50
0100
0000
1000
0010
,  // measure 51
0100
0001
0010
0100
,  // measure 52
0100
0000
1000
0010
,  // measure 53
0010
0000
0001
0010
,  // measure 54
0010
0000
0100
0001
,  // measure 55
0100
0010
1000
0000
,  // measure 56
1001
0000
0010
0100
,  // measure 57
0001
0100
0010
1000
,  // measure 58
0100
0000
0010
0001
,  // measure 59
0011
0000
1000
0100
,  // measure 60
0010
0001
2000
0000
,  // measure 61
3010
0000
0002
0000
,  // measure 62
0013
0000
2000
0000
,  // measure 63
3100
0000
0002
0000
,  // measure 64
0103
0000
0110
0000
,  // measure 65
1000
0000
0110
0000
,  // measure 66
0001
0000
1000
0001
,  // measure 67
1000
0000
0001
0010
,  // measure 68
0100
1000
0002
0000
,  // measure 69
0103
0100
0200
0000
,  // measure 70
0310
0010
0020
0000
,  // measure 71
0130
0000
2002
0000
,  // measure 72
0000
0000
0000
0000
,  // measure 73
0000
0000
3003
0000
;

//---------------dance-single - ----------------
#NOTES:
     dance-single:
     :
     Medium:
     10:
     0.429106,0.452408,0.311864,0.196967,0.168242,366.000000,328.000000,38.000000,24.000000,0.000000,0.000000,0.429106,0.452408,0.311864,0.196967,0.168242,366.000000,328.000000,38.000000,24.000000,0.000000,0.000000:
// measure 0
0000
0000
0000
0000
,  // measure 1
0000
0000
0000
0000
,  // measure 2
0000
0000
0000
0000
,  // measure 3
0000
0000
0000
0000
,  // measure 4
0100
0000
0010
0000
,  // measure 5
1000
0100
0010
0000
,  // measure 6
0001
0000
0100
0000
,  // measure 7
0001
0000
1000
0000
0100
1000
0100
0000
,  // measure 8
1000
0000
0000
0010
0000
0000
0020
0000
0000
0000
0100
0000
0130
0000
0000
0000
,  // measure 9
0001
0000
0000
0010
0000
0000
0200
0000
0000
0000
0010
0000
0310
0000
0000
0000
,  // measure 10
0001
0000
0000
1000
0000
0000
0010
0000
0000
0000
0100
0000
0010
0000
0000
0000
,  // measure 11
1000
1100
0202
0303
,  // measure 12
0010
0000
0000
1000
0000
0000
1000
0000
0000
0000
0001
0000
0010
0000
0100
0000
,  // measure 13
0000
0000
0000
1000
0000
0000
0010
0000
0000
0000
1000
0000
0100
0000
0000
0000
,  // measure 14
0010
0000
0000
0001
0000
0000
0200
0000
0000
0000
0010
0000
0310
0000
0000
0000
,  // measure 15
1001
0010
1001
0100
,  // measure 16
0120
0000
1000
0000
1000
0000
1030
0001
,  // measure 17
0200
0010
0010
0310
,  // measure 18
1000
0000
0001
0000
0010
0000
0001
0000
0010
0000
0000
0100
0000
0000
0010
0000
,  // measure 19
0001
0000
0000
1000
0000
0000
0001
0000
0000
0000
1000
0000
0010
0000
0000
0000
,  // measure 20
0100
0000
0010
0000
0100
0000
0010
0000
1000
0000
0000
0100
0000
0000
1000
0000
,  // measure 21
0001
0000
0000
0010
0000
0000
0001
0000
0000
0000
1000
0000
0001
0000
0000
0000
,  // measure 22
0100
0000
0001
0000
1000
0000
0010
0000
1000
0000
0000
0001
0000
0000
0010
0000
,  // measure 23
0001
0000
0000
0010
0000
0000
0100
0000
0000
0000
1000
0000
0100
0000
0000
0000
,  // measure 24
1000
0010
1000
0000
0001
0100
0001
0000
,  // measure 25
0010
0000
0000
0001
0000
0000
1000
0000
0200
0000
0000
0000
0310
0000
0000
0000
,  // measure 26
0100
0000
1000
0000
0100
0000
1000
0000
0001
0000
0000
0010
0000
0000
0001
0000
,  // measure 27
1000
0000
0000
0010
0000
0000
0100
0000
0000
0000
0001
0000
0010
0000
0000
0000
,  // measure 28
0001
0000
1000
0000
0001
0000
1000
0000
0010
0000
0000
0100
0000
0000
0010
0000
,  // measure 29
2000
0000
0000
0000
3000
0000
0001
0000
0100
0000
0000
0010
0000
0000
1000
0000
,  // measure 30
0010
0000
0000
0100
0000
0000
0001
0000
1000
0000
0000
0100
0000
0000
0010
0000
,  // measure 31
0001
0000
0000
1000
0000
0000
0010
0000
0200
0000
0000
0000
0310
0000
0000
0000
,  // measure 32
1000
0000
0000
0100
0000
0000
0010
0000
0001
0000
0000
0010
0000
0000
1000
0000
,  // measure 33
0010
0000
0001
1000
0100
0000
1000
0000
,  // measure 34
0010
0100
0010
0000
0110
0000
1001
0000
,  // measure 35
0020
0000
0000
0100
0000
0000
0130
0000
0000
0000
0001
0000
1000
0000
0000
0000
,  // measure 36
0200
0000
0000
0010
0000
0000
0310
0000
0000
0000
0001
0000
0010
0000
0000
0000
,  // measure 37
0100
0000
0000
1000
0000
0000
0100
0000
0010
0000
0000
0001
0000
0000
0010
0000
,  // measure 38
0001
0000
0000
1000
0000
0000
0100
0000
0010
0000
0000
0000
0110
0000
0000
0000
,  // measure 39
1000
0000
0000
0001
0000
0000
0100
0000
0010
0000
0000
1000
0000
0000
0001
0000
,  // measure 40
1000
0000
0000
0100
0000
0000
0010
0000
0002
0000
0000
0000
1003
0000
0000
0000
,  // measure 41
1010
0000
0000
0000
0000
0000
0100
0000
0010
0000
0000
0100
0000
0000
0001
0000
,  // measure 42
1000
0000
0000
0010
0000
0000
0100
0000
0001
0000
0000
0000
0011
0000
0000
0000
,  // measure 43
0001
0000
0000
1000
0000
0000
0100
0000
0010
0000
0000
0000
0110
0000
0000
0000
,  // measure 44
0000
0000
0000
0000
0000
0000
0000
0000
1000
0000
0000
0010
0000
0000
0120
0000
,  // measure 45
0000
0000
0100
0000
0130
0000
0000
0000
0001
0000
0000
0010
0000
0000
0120
0000
,  // measure 46
0000
0000
0100
0000
0130
0000
0000
0000
1000
0000
0000
0001
0000
0000
1000
0000
,  // measure 47
0000
0010
0100
0000
0101
0000
0010
0000
,  // measure 48
1100
0000
0000
0000
0010
0000
0000
0000
1000
0000
0000
0001
0000
0000
1001
0000
,  // measure 49
0000
0010
0100
0010
0000
1000
0001
0010
,  // measure 50
0000
0001
0100
0010
0000
1000
0100
0010
,  // measure 51
0000
0100
1000
0001
0000
0100
0010
0100
,  // measure 52
0000
0000
0001
0000
0001
0000
0000
0000
0010
0000
0000
0100
0000
0000
2100
0000
,  // measure 53
0000
0000
0100
0000
3100
0000
0000
0000
1000
0000
0000
0010
0000
0000
0102
0000
,  // measure 54
0000
0000
0100
0000
0103
0000
0000
0000
0010
0000
0000
0100
0000
0000
0010
0000
,  // measure 55
0000
1000
0001
0000
0101
0000
0010
0000
,  // measure 56
1100
0000
0000
0000
0010
0000
0000
0000
1001
0000
0000
0100
0000
0000
0010
0000
,  // measure 57
0000
1000
0001
0010
0000
0001
1000
0100
,  // measure 58
0000
1000
0010
0100
0000
0001
0010
1000
,  // measure 59
0000
1000
0010
0000
0011
0000
1100
0000
,  // measure 60
0110
1001
0210
0000
,  // measure 61
0301
0010
2100
0000
,  // measure 62
3001
0010
0102
0000
,  // measure 63
0013
1000
1020
0000
,  // measure 64
0130
0001
1010
0000
,  // measure 65
0011
0000
1100
0000
,  // measure 66
0101
0000
0000
0000
0010
0000
0100
0010
,  // measure 67
0100
0000
0001
1000
0001
0000
1010
0000
,  // measure 68
0101
0011
2100
0001
,  // measure 69
0010
3001
0102
0010
,  // measure 70
1000
0000
0103
0000
0010
1000
0100
0001
,  // measure 71
0100
0010
1000
0001
0200
0000
0000
0000
,  // measure 72
0000
0000
0000
0000
,  // measure 73
0000
0000
0300
0000
;

//---------------dance-single - ----------------
#NOTES:
     dance-single:
     :
     Hard:
     13:
     0.590900,0.603211,0.287243,0.114897,0.361106,504.000000,469.000000,35.000000,14.000000,0.000000,0.000000,0.590900,0.603211,0.287243,0.114897,0.361106,504.000000,469.000000,35.000000,14.000000,0.000000,0.000000:
// measure 0
0000
0000
0000
0000
,  // measure 1
0000
0000
0000
0000
,  // measure 2
0000
0000
0000
0000
,  // measure 3
0000
0000
0000
0000
,  // measure 4
0100
0000
0010
0100
0000
0010
0100
0000
0000
0000
0001
0000
0010
0000
0100
0000
,  // measure 5
0000
0010
0001
1000
0000
0010
0100
0010
,  // measure 6
1000
0000
0100
1000
0000
0100
1000
0000
0010
0000
0100
0000
0010
0000
1000
0000
,  // measure 7
0000
0000
0001
0000
0010
0100
0010
0000
0000
0000
0001
0000
0010
0000
0001
0000
,  // measure 8
1000
0000
0010
0100
0000
0010
0100
0000
0000
0000
0001
0000
1000
0000
0001
0000
,  // measure 9
0010
0000
0100
0010
0000
0100
0010
0000
0000
0000
0001
0000
1000
0000
0010
0000
,  // measure 10
0000
0000
0100
0010
0000
0100
0010
0000
0000
0000
1000
0000
0001
0000
0010
0000
,  // measure 11
0100
1100
0001
0011
,  // measure 12
1000
0000
0010
0100
0000
0001
0100
0000
0000
0000
0001
0000
0010
0000
0100
0000
,  // measure 13
1000
0000
0010
1000
0000
0010
0100
0000
0000
0000
0001
0000
0010
0000
1000
0000
,  // measure 14
0010
0000
0100
0010
0000
0100
1000
0000
0000
0000
0001
0000
0100
0000
0010
0100
,  // measure 15
0010
1100
0101
0011
,  // measure 16
2010
0000
0000
0000
0001
0000
0000
0000
3100
0000
0000
0000
0001
0000
1000
0010
,  // measure 17
0200
0010
1000
0301
,  // measure 18
1000
0000
0010
0000
0010
0000
0010
0000
0100
0000
0001
1000
0000
0001
1000
0000
,  // measure 19
0001
0000
0010
0001
0000
1000
0100
0000
0000
0000
1000
0000
0010
0000
0100
0000
,  // measure 20
0001
0000
0100
0000
0100
0000
0100
0000
0010
0000
1000
0001
0000
0100
0010
0000
,  // measure 21
1000
0000
0000
0001
0000
0000
0010
0000
0000
0000
0001
0000
0100
0000
0010
0000
,  // measure 22
1000
0000
0100
0000
0100
0000
0100
0000
0010
0000
0001
1000
0000
0000
0010
0000
,  // measure 23
0100
0000
0001
0010
0000
0000
0001
0000
0000
0000
1000
0000
0100
0000
0010
0000
,  // measure 24
0000
0000
0010
0000
0100
0000
1000
0000
0000
0000
0001
0000
0100
0000
0010
0100
,  // measure 25
0010
0000
0000
1000
0000
0000
0001
1000
0001
0000
0000
0000
1001
0000
0000
0000
,  // measure 26
0100
0000
0010
0000
0010
0000
0010
0000
1000
0000
0001
0010
0000
0001
1000
0000
,  // measure 27
0100
0000
1000
0010
0000
1000
0001
0000
0000
0000
0100
0000
0010
0000
0100
0000
,  // measure 28
0001
0000
0010
0000
0010
0000
0010
0000
0001
0000
1000
0100
0000
0000
1000
0000
,  // measure 29
2020
0000
0000
0000
3030
0000
0100
0001
0100
0000
0000
0001
0000
0000
0010
0000
,  // measure 30
0001
0000
0000
1000
0000
0000
0100
0000
0010
0000
0000
0001
0000
0000
1000
0000
,  // measure 31
0010
0000
0100
0010
0000
0000
1000
0000
0001
0000
0000
0000
0100
0000
0010
0100
,  // measure 32
0001
0000
0000
1000
0000
0000
0100
0000
1000
0000
0000
0001
0000
0000
0010
0000
,  // measure 33
0002
0000
0000
0000
1003
0000
0100
0010
0100
0000
0000
0000
1000
0000
0000
0000
,  // measure 34
0101
0000
0010
0100
0010
0000
1000
0100
,  // measure 35
1000
0000
0001
0010
0000
0001
1000
0000
0000
0000
0010
0000
0100
0000
0010
0000
,  // measure 36
1000
0000
0100
1000
0000
0001
0010
0000
0000
0000
0001
0000
1000
0000
0100
0000
,  // measure 37
0010
0000
0000
0110
0000
0000
0100
0000
1000
0000
0010
0000
0100
0000
0001
0000
,  // measure 38
1000
0000
0100
0010
0000
0100
2000
0000
0000
0000
0000
0000
3001
0000
0010
0000
,  // measure 39
0100
0000
0010
0001
0000
0000
1000
0000
0010
0000
0100
0001
0000
0000
0100
0000
,  // measure 40
0010
0000
1000
0010
0000
0100
0000
0000
0110
0000
0000
0000
0001
0000
1000
0000
,  // measure 41
0020
0000
0000
0000
0130
0000
0001
1000
0001
0000
0000
0010
0000
0000
0100
0000
,  // measure 42
1000
0000
0000
1100
0000
0000
0001
0010
0001
0000
0000
0000
0011
0000
0000
0000
,  // measure 43
1001
0000
0000
1001
0000
0000
0100
0010
0100
0000
0000
0000
1001
0000
0000
0000
,  // measure 44
0000
0000
0100
0000
0100
0000
0010
0000
1000
0000
0001
0010
0000
0100
1000
0000
,  // measure 45
0000
0000
0100
0000
1000
0000
0001
0000
1000
0000
0010
0100
0000
0001
0010
0000
,  // measure 46
0000
0000
0001
0000
1000
0000
0010
0000
1000
0000
0001
0100
0000
0000
0010
0000
,  // measure 47
0000
0010
0100
0001
0010
0000
0011
0000
,  // measure 48
1000
0000
0000
0000
1010
0000
0000
0000
1001
0000
0000
0010
0000
0000
0110
0000
,  // measure 49
0000
0000
1000
0000
0001
0000
0010
0000
0000
0000
0001
1000
0000
0000
0100
0000
,  // measure 50
0000
0000
1000
0000
0010
0000
0001
0000
0000
0000
0001
0010
0000
0000
1000
0000
,  // measure 51
0000
0000
0001
0000
0100
0000
1000
0000
0100
0000
0010
0000
1000
0001
1000
0000
,  // measure 52
0000
0000
0010
0000
0010
0000
0100
0000
0001
0000
0010
0001
0000
1000
0100
0000
,  // measure 53
0000
0000
1000
0000
0010
0000
0100
0000
1000
0000
0100
0010
0000
1000
0001
0000
,  // measure 54
0000
0000
0010
0000
0001
0000
1000
0000
0010
0000
0100
0010
0000
0000
1000
0000
,  // measure 55
0000
0001
0010
0100
1100
0000
0101
0000
,  // measure 56
0011
0000
0000
0000
1010
0000
0000
0000
0100
0000
0001
0100
0000
0010
1000
0000
,  // measure 57
0001
0000
0010
0000
0100
0000
1000
0000
0010
0000
1000
0010
0000
1000
0001
0000
,  // measure 58
0100
0000
0001
0000
0010
0000
0100
0000
1000
0000
0100
0001
0000
0100
0010
0000
,  // measure 59
0001
0000
0010
0000
0100
0000
1000
0001
1000
0000
0000
0000
1010
0000
0000
0000
,  // measure 60
0101
0011
2100
0001
,  // measure 61
0010
0000
0000
0000
3001
0000
0010
0001
0200
0000
0000
0000
0010
0000
0000
0000
,  // measure 62
1000
0000
0301
0000
1000
0010
0001
0010
,  // measure 63
0100
0010
0001
0000
0010
1000
0100
1000
,  // measure 64
0001
0000
0010
0000
0100
0000
0000
0000
2200
0000
0000
0000
3300
0000
0010
0100
,  // measure 65
0001
0000
0000
0000
1000
0000
0000
0000
0220
0000
0000
0000
0330
0000
0100
0010
,  // measure 66
1000
0000
0101
0000
0011
0000
0010
0001
,  // measure 67
1000
0000
0000
0000
0100
0000
1000
0010
0100
0000
0000
0000
0101
0000
0000
0000
,  // measure 68
0011
0000
1010
0000
0100
0001
0100
0010
,  // measure 69
1000
0100
0010
0001
0100
1000
0100
0010
,  // measure 70
0100
0001
0010
0100
1000
0010
0001
0010
,  // measure 71
0100
0000
1000
0000
0001
0000
0010
0100
0020
0000
0000
0000
0000
0000
0000
0000
,  // measure 72
0000
0000
0000
0000
,  // measure 73
0000
0000
0030
0000
;
