#TITLE:begin;
#SUBTITLE:;
#ARTIST:小坂りゆ;
#TITLETRANSLIT:;
#SUBTITLETRANSLIT:;
#ARTISTTRANSLIT:Riyu Kosaka;
#GENRE:;
#CREDIT:;
#BANNER:begin_banner.png;
#BACKGROUND:begin.png;
#LYRICSPATH:;
#CDTITLE:;
#MUSIC:begin.ogg;
#OFFSET:-0.550000;
#SAMPLESTART:53.840000;
#SAMPLELENGTH:12.980000;
#SELECTABLE:YES;
#BPMS:0.000000=148.000000
;
#STOPS:
;
#BGCHANGES:;
#KEYSOUNDS:;
#ATTACKS:;

//---------------dance-single - ----------------
#NOTES:
     dance-single:
     :
     Easy:
     5:
     0.214163,0.289119,0.149914,0.160622,0.000000,140.000000,126.000000,14.000000,15.000000,0.000000,0.000000,0.214163,0.289119,0.149914,0.160622,0.000000,140.000000,126.000000,14.000000,15.000000,0.000000,0.000000:
0000
0000
0000
0000
,
0000
0000
0000
0000
,
0000
0000
0000
0000
,
0000
0000
0000
0000
,
0001
0000
0001
0000
,
1000
0000
1000
0000
,
0010
0000
0100
0000
,
2002
0000
0000
0000
0000
3003
0000
0000
,
0100
0001
0100
0000
,
0010
1000
0010
0000
,
1000
0100
1000
0000
,
0010
0000
0110
0000
,
0001
0100
0001
0000
,
1000
0010
1000
0000
,
0001
0000
0101
0000
,
1000
0000
1010
0000
,
0100
0001
0010
0000
,
0100
1000
0010
0000
,
0100
0001
1000
0000
,
0010
1000
0001
0000
,
1000
0100
1100
0000
,
0001
0100
0101
0000
,
0010
1000
0001
0100
,
0220
0000
0330
0000
,
0001
0000
0001
0000
,
1000
0000
1000
0000
,
0010
0000
0010
0000
,
0100
0000
0100
0000
,
0002
0000
0013
0000
,
2000
0000
3010
0000
,
0002
0000
0103
0000
,
2000
0000
3100
0000
,
0220
0000
0330
0000
,
0000
1000
0000
1000
,
0000
1000
0000
1000
,
0000
0001
0000
0001
,
0000
0001
0000
0001
,
0100
0010
1000
0000
,
0100
0010
0001
0000
,
1000
0001
1001
0000
,
0220
0000
0330
0000
,
1000
0001
0010
0000
,
0001
0100
0010
0000
,
0100
0001
1000
0000
,
0100
1000
0010
0000
,
0100
0001
0101
0000
,
1000
0010
1010
0000
,
0001
0010
0100
1000
,
2002
0000
0000
0000
0000
3003
0000
0000
,
1000
0010
0100
0000
,
0010
1000
0100
0000
,
0010
0001
0100
0010
,
0100
0001
0010
0100
,
2000
0000
3001
0000
,
0110
0000
0000
0000
;

//---------------dance-single - ----------------
#NOTES:
     dance-single:
     :
     Medium:
     9:
     0.382433,0.404767,0.235579,0.160622,0.000000,250.000000,228.000000,22.000000,15.000000,0.000000,0.000000,0.382433,0.404767,0.235579,0.160622,0.000000,250.000000,228.000000,22.000000,15.000000,0.000000,0.000000:
0000
0000
0000
0000
,
0000
0000
0000
0000
,
0000
0000
0000
0000
,
0000
0000
0000
0000
,
0001
0000
1001
0000
1000
0100
1000
0000
,
0010
0000
0110
0000
0100
0001
0100
0000
,
0010
0000
1000
0000
0001
1000
0001
0000
,
0100
0010
1000
1001
,
0001
0000
0010
0000
0001
1000
0010
0000
,
0100
0000
0001
0000
1000
0100
0010
0000
,
0001
0000
1000
0000
0010
0100
0001
0000
,
1000
0100
1000
0000
0001
0100
0001
0000
,
0100
0000
0110
0000
0010
1000
0010
0000
,
0100
0000
0110
0000
0100
0001
0100
0000
,
0001
0000
0011
0000
0010
0100
0010
0000
,
0100
1000
0100
0000
2002
0000
3003
0000
,
0001
0000
0100
0001
0100
0000
0010
0000
,
1000
0000
0010
1000
0010
0000
0100
0000
,
0001
0010
0001
0000
1000
0100
1000
0000
,
0010
0100
0220
0330
,
0001
0000
1000
0100
1000
0000
1100
0000
,
0001
0000
0100
0001
0100
0000
0101
0000
,
0001
0000
0010
0100
0010
0000
0110
0000
,
1000
0000
0001
0000
1000
0001
1000
0001
,
0200
0000
0310
0010
,
2000
0000
3010
0100
,
0002
0000
2003
0000
,
3020
0000
0000
0000
0000
0030
0000
0000
,
0110
0000
0001
0000
,
1000
1000
0010
0000
,
0100
0000
0101
0000
,
0001
0010
0100
1000
,
0010
0000
0100
0000
0010
0100
0000
0000
,
0002
0010
0000
0013
,
2000
0100
0000
3100
,
0020
0001
0000
0031
,
0200
1000
0000
1300
,
1000
0000
0010
0100
0010
0000
1000
0000
,
0001
0000
0010
0100
0010
0000
0001
0000
,
1001
0000
0100
0010
0100
0000
0110
0000
,
0001
0100
0001
0000
1000
0010
1000
0000
,
0010
0100
0010
0000
1000
0000
1001
0000
,
0001
0010
0001
0000
0100
0000
0110
0000
,
0010
1000
0001
0000
0100
0001
1000
0000
,
0010
1010
0202
0303
,
0001
0000
0010
0100
1000
0000
1100
0000
,
1000
0000
0100
0010
0001
0000
0011
0000
,
0010
0001
0010
0000
0100
1000
0100
0000
,
1000
0010
0100
0000
0001
0010
0100
0000
,
0010
0001
0010
0001
0010
0000
0001
0000
,
1000
0100
1000
0100
1000
0000
0100
0000
,
1000
0010
1000
0000
0001
0010
0001
0000
,
1000
0001
1000
0001
0100
0000
0110
0000
,
0010
0100
0000
0001
1000
0000
0010
0100
,
0010
0000
0000
0000
;

//---------------dance-single - ----------------
#NOTES:
     dance-single:
     :
     Hard:
     12:
     0.543055,0.549327,0.246287,0.042833,0.182038,355.000000,332.000000,23.000000,4.000000,0.000000,0.000000,0.543055,0.549327,0.246287,0.042833,0.182038,355.000000,332.000000,23.000000,4.000000,0.000000,0.000000:
// measure 0
0000
0000
0000
0000
,  // measure 1
0000
0000
0000
0000
,  // measure 2
0000
0000
0000
0000
,  // measure 3
0000
0000
0000
0000
,  // measure 4
0100
0010
1000
0010
0100
0001
0010
0001
,  // measure 5
1000
0010
0100
0010
1000
0001
0100
0001
,  // measure 6
1000
0000
1001
0000
0001
0010
0100
0010
,  // measure 7
0001
1000
0010
0100
0010
1000
1001
0000
,  // measure 8
0010
0100
0001
0010
0001
1000
0100
0001
,  // measure 9
0000
0001
0100
1000
0010
0100
0001
0010
,  // measure 10
0000
0011
0000
0001
1000
0010
1000
0100
,  // measure 11
0001
0100
1000
0001
0100
0010
0100
0000
,  // measure 12
0001
1000
0010
1000
0001
0100
0001
0010
,  // measure 13
0000
0010
0001
1000
0010
0001
0010
1000
,  // measure 14
0000
1100
0000
1000
0010
0100
0001
0010
,  // measure 15
0001
0000
0000
1000
0000
0000
0001
0000
0100
0000
0000
0000
0110
0000
0000
0000
,  // measure 16
1000
0000
0010
1000
0000
0000
0010
0000
0100
0000
0010
0000
0100
0000
0000
0000
,  // measure 17
0001
0000
0010
0001
0000
0000
0010
0000
0100
0000
0010
0000
0100
0000
0000
0000
,  // measure 18
1000
0000
0001
1000
0000
0000
0100
0000
0010
0000
0001
1000
0000
0000
0010
0000
,  // measure 19
0100
0000
0000
0001
0000
0000
1000
0000
0010
0000
0000
0000
1001
0000
0000
0000
,  // measure 20
1000
0000
0100
1000
0000
0000
0100
0000
1000
0000
0000
0000
1100
0000
0000
0000
,  // measure 21
0001
0000
0010
0001
0000
0000
0010
0000
0001
0000
0000
0000
0011
0000
0000
0000
,  // measure 22
0110
0000
0100
0010
0100
0000
1001
0000
,  // measure 23
1000
0010
0100
0001
0010
0100
1000
0100
,  // measure 24
2000
0010
3001
0100
,  // measure 25
0002
0010
1003
0100
,  // measure 26
0020
0100
1000
0100
,  // measure 27
0230
0001
0010
0301
,  // measure 28
1000
0100
1000
0010
0100
0010
1000
0000
,  // measure 29
0001
0100
0010
0100
0001
0010
0001
0000
,  // measure 30
0010
0100
1000
0001
0100
0010
1000
0100
,  // measure 31
1000
0010
0100
0001
0010
0001
1000
0001
,  // measure 32
0100
0000
0010
0000
0100
0000
0001
1000
0000
1000
0001
0000
0000
0000
0100
0000
,  // measure 33
0010
0000
1000
0010
0000
0000
0010
0000
0100
0000
0001
0100
0000
0000
0100
0000
,  // measure 34
0001
0000
0000
0010
0000
0000
0100
0000
1000
0000
0000
0000
1010
0000
0000
0000
,  // measure 35
0100
0000
0001
0100
0000
0000
0100
0000
0010
0000
1000
0010
0000
0000
0010
0000
,  // measure 36
1000
0000
0000
0100
0000
0000
0010
0000
0001
0000
0000
0000
0101
0000
0000
0000
,  // measure 37
1000
0000
0010
1000
0000
0000
0010
0000
1000
0000
0000
0000
1010
0000
0000
0000
,  // measure 38
0100
0000
0001
0100
0000
0000
0001
0000
0100
0000
0000
0000
0101
0000
0000
0000
,  // measure 39
0011
0000
1000
0010
0100
0000
0110
0000
,  // measure 40
0001
0100
0000
0100
0010
0000
1000
0001
0000
0001
0100
0000
0010
0000
1000
0000
,  // measure 41
0100
0000
1000
0001
0000
0000
0100
0000
0010
0000
1000
0001
0000
0000
0100
0000
,  // measure 42
0001
0000
0000
1000
0000
0000
0010
0000
0100
0000
0000
0000
0110
0000
0000
0000
,  // measure 43
1000
0000
0010
0100
0000
0000
0001
0000
0100
0000
0001
1000
0000
0000
0010
0000
,  // measure 44
1000
0000
0000
0001
0000
0000
0010
0000
0100
0000
0000
0000
0110
0000
0000
0000
,  // measure 45
0010
0000
0000
0001
0000
0000
0010
0000
0001
0000
0000
0000
0011
0000
0000
0000
,  // measure 46
1000
0000
0000
0100
0000
0000
1000
0000
0100
0000
0000
0000
1100
0000
0000
0000
,  // measure 47
1001
0000
0010
0001
1000
0000
1001
0000
,  // measure 48
0100
0001
0010
0001
1000
0100
0010
0001
,  // measure 49
1000
0000
0010
1000
0000
0010
1000
0000
0001
0000
0001
0000
0001
0000
0000
0000
,  // measure 50
0100
0000
0001
0100
0000
0001
0100
0000
0010
0000
0010
0000
0010
0000
0000
0000
,  // measure 51
1000
0001
0100
0010
1000
0100
0001
0100
,  // measure 52
1000
0010
0001
0010
1000
0001
0010
1000
,  // measure 53
0010
0001
0001
1000
0100
0100
0010
0100
,  // measure 54
1001
0000
0000
0000
;
