#TITLE:apo\:llioth;
#SUBTITLE:;
#ARTIST:Juggernaut.;
#TITLETRANSLIT:apollioth;
#SUBTITLETRANSLIT:;
#ARTISTTRANSLIT:;
#GENRE:HARDCORE;
#CREDIT:;
#BANNER:Apo-llioth_banner.png;
#BACKGROUND:Apo-llioth.png;
#LYRICSPATH:;
#CDTITLE:;
#MUSIC:apo_llioth.ogg;
#OFFSET:-0.410000;
#SAMPLESTART:79.599998;
#SAMPLELENGTH:15.000000;
#SELECTABLE:YES;
#BPMS:0.000000=200.000000
;
#STOPS:232.000000=0.300003,
232.500000=0.449997,
233.500000=0.299995,
234.000000=0.449997,
235.000000=0.299995,
235.500000=0.449997,
236.500000=0.299995,
237.000000=0.449997
;
#BGCHANGES:;
#KEYSOUNDS:;
#ATTACKS:;

//---------------dance-single - ----------------
#NOTES:
     dance-single:
     :
     Easy:
     9:
     0.369165,0.428872,0.105476,0.128078,0.000000,343.000000,329.000000,14.000000,17.000000,0.000000,0.000000,0.369165,0.428872,0.105476,0.128078,0.000000,343.000000,329.000000,14.000000,17.000000,0.000000,0.000000:
0000
0000
0000
0000
,
0000
0000
0000
0000
,
0000
0000
0000
0000
,
0000
0000
0000
0000
,
0010
1000
0000
1000
,
0001
0100
0000
0100
,
0001
0010
0100
1000
,
0020
0000
0030
0000
,
1000
0010
1000
0100
,
1000
0001
0001
0000
,
0001
0010
0001
1000
,
0001
0100
0100
0000
,
0010
1000
0100
0010
,
0001
1000
0001
0000
,
1000
0001
0010
0100
,
1000
1000
1000
0000
,
0020
0000
0030
0000
,
0100
0100
0100
0110
,
0001
0010
0001
1000
,
0100
0010
0100
1000
,
0001
1000
0010
0100
,
0010
1000
0001
0000
,
0010
0001
0100
0010
,
1000
0001
1000
0100
,
0010
0001
1000
0001
,
0200
0000
0000
0300
,
0010
1000
0001
0010
,
0001
1000
0100
0010
,
0001
0100
0010
1000
,
0100
1000
0001
0010
,
0100
0010
0001
1000
,
0010
0100
0010
0000
,
1000
0001
1000
0001
,
0020
0000
0100
0130
,
1100
0000
0001
0000
,
1000
0010
1000
0000
,
0001
0010
0001
1000
,
0010
0000
0110
0000
,
1000
0000
0100
1000
,
0001
0100
0010
0000
,
2000
0000
3001
0010
,
0001
0100
0010
0001
,
0020
0000
0000
0030
,
2000
0000
0000
3000
,
0200
0000
0000
0300
,
0020
0000
0000
0030
,
0001
0100
0000
0100
,
0001
1000
0000
1000
,
0010
0100
0001
1000
,
0220
0000
0000
0000
0000
0330
0000
0000
,
0001
0000
0000
0001
0000
0000
0001
0000
,
1000
0000
0000
1000
0000
0000
1000
0000
,
0020
0000
0000
0130
,
0001
1000
0001
0000
,
0010
0100
0000
1000
,
0010
0100
0001
0000
,
0010
0001
1000
0010
,
0100
0100
0101
0000
,
1000
1000
0000
0001
0001
0000
0010
0010
,
0000
0100
0100
0000
0001
0000
1000
0000
,
0001
1000
0010
0100
,
0010
0100
0001
0010
,
0100
1000
2002
0000
,
0000
3003
0000
0000
0010
0000
0100
0000
,
0010
1000
0100
0010
,
0001
0000
1000
0001
,
0010
0100
0010
0001
,
1000
0000
0010
0100
,
0010
1000
0001
1000
,
0100
0000
0010
0100
,
1000
0001
0100
0010
,
0110
0000
0001
0100
,
0001
0010
0001
1000
,
0010
0000
0100
0001
,
0100
0010
1000
0100
,
0010
0000
0001
0100
,
0010
0100
0001
1000
,
0010
1000
0100
1000
,
0001
0010
0001
1000
,
1001
0000
0010
0010
,
0010
0000
0000
1000
0000
0001
0000
1000
,
0000
0000
0100
0100
,
0100
0000
0000
1000
0000
0001
0000
1000
,
0000
0010
0101
1000
,
0100
0010
0001
1000
,
0001
0010
0100
0010
,
0001
1000
0020
0100
,
0130
0000
1000
0010
,
0100
0010
1000
0100
,
0010
0100
1000
0001
,
0010
0001
0100
0010
,
0100
0001
1002
0000
,
0013
0001
0100
1000
,
0100
0001
1000
0100
,
0001
0100
1000
0010
,
0100
0010
2010
0000
,
3001
0000
0001
0010
,
0100
0010
0001
1000
,
0010
1000
0001
0010
,
0100
0000
1100
0000
,
0001
1000
0010
0100
,
0001
0000
0010
0001
,
0100
0010
1000
0001
,
1001
0000
0110
0000
;

//---------------dance-single - ----------------
#NOTES:
     dance-single:
     :
     Medium:
     13:
     0.642541,0.779767,0.293825,0.120544,0.000000,597.000000,558.000000,39.000000,16.000000,0.000000,0.000000,0.642541,0.779767,0.293825,0.120544,0.000000,597.000000,558.000000,39.000000,16.000000,0.000000,0.000000:
0000
0000
0000
0000
,
0000
0000
0000
0000
,
0000
0000
0000
0000
,
0000
0000
0000
0000
,
0001
0000
1000
0000
1000
0001
0010
0001
,
0000
1010
0000
0100
0000
0011
0000
0001
,
1000
0100
0010
0000
0001
0100
0010
0100
,
0000
0100
0001
1000
0010
0100
0010
0000
,
1000
0000
0100
0000
1100
0000
1000
0001
,
0000
0001
0010
0001
0000
0101
0000
0100
,
0010
0000
1000
0000
1001
0000
0100
0010
,
0000
0010
1000
0001
0000
0010
0001
0100
,
0001
0000
1000
0000
1010
0000
0001
0010
,
0000
0001
0100
0010
0000
0010
1000
0100
,
1000
0001
1000
0000
0001
0010
0001
0100
,
0010
0100
0000
0101
0000
1001
0000
0000
,
1200
0010
0010
0310
,
0001
1000
0001
1000
0010
0100
0110
0000
,
2000
0000
3001
0010
0001
1000
0001
0000
,
0100
0010
0100
0001
1000
0100
0010
0000
,
0001
1000
0001
0000
0100
0010
1000
0000
,
0001
0010
0100
1000
0010
0100
0001
0000
,
1000
0010
0100
0000
0010
1000
0100
0000
,
0010
0001
0100
0000
0010
0100
0001
0000
,
1000
0010
1000
0001
0100
0010
1000
0000
,
0001
0010
0000
0010
0001
1000
0001
0000
,
0100
0010
0100
0010
1000
0100
1000
0000
,
0001
0010
0001
0010
0100
1000
0100
0000
,
1000
0010
0100
0010
1000
0001
1000
0000
,
0001
0010
0100
0010
0001
1000
0001
0000
,
0200
0000
0310
1000
0001
0010
0001
0000
,
1000
0001
0100
0010
1000
0100
0010
0000
,
0001
0100
0001
0000
1000
0010
1000
0000
,
0001
0000
0100
0010
1000
0000
1001
0000
,
0210
0000
0301
0010
,
0001
1000
0100
0000
1010
0000
0100
0000
,
0010
0000
1000
0001
0100
0010
1000
0000
,
0001
0010
0000
0010
0001
1000
0100
0000
,
2000
0000
3001
0010
0001
0000
0100
0000
,
0010
1000
0000
1000
0001
0010
0100
0000
,
1000
0000
0010
0100
0010
1000
0001
0000
,
0100
0010
0100
0010
1000
0001
0010
0000
,
0002
0000
2003
0000
,
3010
0100
0001
1000
,
0200
0000
0320
0000
,
0031
1000
0010
0100
,
0001
0000
0010
0001
0000
1000
0001
0010
,
0000
0000
0001
1000
0010
0000
0011
0000
,
1000
0010
0100
0010
0000
1000
0100
1000
,
0001
1000
0010
1100
,
0012
0000
0000
1000
0000
0000
1003
0010
,
0000
0010
0000
0100
0000
0100
0000
0001
,
0020
0000
0000
0100
0000
0000
0130
1000
,
0000
0001
0000
1000
0000
1001
0000
0010
,
0100
0000
0001
0000
1000
0000
0100
0010
,
0000
0001
0000
0100
0000
0001
0000
0010
,
0001
0000
1000
0000
0010
0000
1000
0001
,
0100
0010
0000
0010
1000
0001
0010
0000
,
1001
0101
0000
1001
1100
0000
1010
1001
,
0000
0011
1001
0000
0100
0000
0010
0000
,
0100
0010
0100
0000
0001
0010
0001
0000
,
1000
0100
1000
0000
0001
0100
0001
0010
,
0100
1000
0001
0000
0210
0000
0001
0000
,
0010
0000
0301
0000
1000
0010
0100
0000
,
0010
1000
0100
0010
0000
0001
0010
0000
,
0001
0100
0010
0000
1000
0001
0010
0000
,
0001
0100
0010
1000
0010
0000
1000
0000
,
0001
0000
0010
0000
0001
0100
0010
0000
,
1000
0010
0100
0001
0000
0010
0001
0000
,
1000
0000
0010
0000
1000
0100
1000
0010
,
0100
0001
0010
0000
0001
0100
0001
0100
,
0010
1000
0010
0000
1000
0001
0010
0001
,
0100
0010
1000
0100
0000
1000
0001
0000
,
0011
0000
1100
0000
0001
0100
0010
0100
,
0001
1000
0100
0000
0010
0000
0011
0000
,
1000
0000
1010
0000
0100
0001
0100
0001
,
1000
0010
0100
0010
0000
1000
0001
0000
,
1000
0100
0010
0000
0001
0100
0010
0000
,
0010
1000
0001
0100
0001
0000
0010
0000
,
0100
1000
1002
0100
,
0103
0000
0010
0100
0000
0001
0000
1000
,
0000
1100
0000
0001
0010
0000
0001
0000
,
1001
0000
0100
0010
0000
1000
0000
0001
,
0010
0100
1000
0000
0010
0100
0001
0000
,
0010
0001
1000
0001
0000
0100
0001
0010
,
0000
0010
0001
1000
0010
0100
0010
0000
,
1000
0100
1000
0010
0000
0110
0000
1000
,
0001
1000
0100
0000
1000
0001
0100
0001
,
1000
0001
0010
0001
0000
0001
0010
0100
,
0000
1001
0000
0100
0010
0100
0001
0100
,
0010
1000
0001
0100
0000
0100
0001
0010
,
0001
1000
0020
0000
1030
0000
0001
0000
,
0011
0000
1000
0100
0010
0001
0100
0010
,
0000
0010
1000
0001
1000
0000
0001
0000
,
0101
0000
0010
1000
0001
1000
0000
0001
,
1000
0100
0010
0000
0002
0000
0000
0000
,
0103
0000
0010
0100
0000
0001
0010
0001
,
1000
0010
0100
0000
0010
1000
0000
1000
,
0001
0010
0100
0000
1000
0100
0000
0100
,
1000
0010
0100
0000
0002
0000
0013
0000
,
0101
0000
0010
1000
0000
0001
1000
0000
,
0010
0100
0010
0000
1000
0001
0000
1000
,
0010
0100
0001
0000
0010
0001
0100
0010
,
1000
0100
0010
0000
1001
0000
0000
0000
;

//---------------dance-single - ----------------
#NOTES:
     dance-single:
     :
     Hard:
     17:
     0.914840,1.052685,0.459573,0.316427,0.470874,850.000000,789.000000,61.000000,42.000000,0.000000,0.000000,0.914840,1.052685,0.459573,0.316427,0.470874,850.000000,789.000000,61.000000,42.000000,0.000000,0.000000:
// measure 0
0000
0000
0000
0000
,  // measure 1
0000
0000
0000
0000
,  // measure 2
0000
0000
0000
0000
,  // measure 3
0000
0000
0000
0000
,  // measure 4
0100
0001
1000
0000
0010
1000
0001
0100
,  // measure 5
0000
0100
0010
1000
0001
0010
0100
1000
,  // measure 6
0001
0010
1000
0001
0100
1000
0010
1000
,  // measure 7
0001
1000
0100
0001
1000
0010
0001
0000
,  // measure 8
2001
0000
0010
0000
3010
0000
0001
0100
,  // measure 9
0000
0100
0010
0100
0000
0101
0000
0010
,  // measure 10
1000
0100
1000
0010
1000
0000
0001
0100
,  // measure 11
0010
0000
0100
0000
0001
0000
0010
0000
0100
0000
1000
0001
1000
0000
0010
0000
,  // measure 12
0100
0000
0001
0000
1000
0000
0100
0000
1000
0000
0010
0000
1000
0000
0001
0010
,  // measure 13
0100
0000
1000
0000
0100
0000
0010
0000
0001
0000
0010
0000
0100
1000
0001
0000
,  // measure 14
0100
0010
0100
0010
0100
0000
0001
0000
0100
0001
0010
0000
0100
1000
0010
0000
,  // measure 15
0100
0001
0010
1001
0000
0110
0001
1000
,  // measure 16
0002
0010
0000
1000
0000
0010
0000
1003
,  // measure 17
2000
0010
0000
3001
0100
0010
0110
0000
,  // measure 18
1010
0000
0000
0000
1000
0000
0100
0000
1000
0000
0001
0010
0100
0000
0010
0000
,  // measure 19
0001
0000
1000
0000
0010
0000
0100
0010
1000
0000
0100
0000
0110
0000
0000
0000
,  // measure 20
0001
0000
0100
0000
0010
0000
0100
0000
0001
0000
0010
0100
1000
0000
0001
0000
,  // measure 21
0100
0000
0010
0000
1000
0010
0100
0010
1000
0000
0001
0010
0100
0000
0000
0000
,  // measure 22
1100
0000
0000
0000
0010
0000
1000
0000
0001
0000
0100
0010
1000
0000
0001
0000
,  // measure 23
0010
0000
0100
0000
0010
0000
0001
1000
0010
0000
0100
0000
0110
0000
0000
0000
,  // measure 24
0001
0010
1000
0010
0001
1000
0100
0001
,  // measure 25
0200
1000
0000
0001
0000
1300
1100
0000
,  // measure 26
0011
0000
0000
0000
1000
0000
0010
0000
0100
0000
0001
1000
0010
0000
0100
0000
,  // measure 27
0001
0000
1000
0000
0100
0000
1000
0010
0100
0000
0001
0000
1000
0000
0010
0000
,  // measure 28
0100
0000
0001
0000
0100
0000
0010
0000
1000
0000
0100
0010
0100
0000
1000
0000
,  // measure 29
0001
0000
1000
0000
0001
0010
0100
1000
0010
0000
0100
0000
0101
0000
0000
0000
,  // measure 30
1010
0000
0000
0000
0100
0000
1000
0000
0001
0000
0010
0001
1000
0000
0010
0000
,  // measure 31
1000
0000
0100
0000
1000
0000
0001
0000
0100
0010
1000
0000
0001
0000
0010
0000
,  // measure 32
0001
0000
1000
0000
0100
0000
0010
0000
0001
1000
0100
0000
0010
0001
1000
0000
,  // measure 33
0001
0010
0100
0000
1000
0000
0010
0000
0100
0000
0001
1000
0001
0000
0000
0000
,  // measure 34
0220
0000
0000
0000
0330
0000
0000
0000
0011
0000
0000
0000
1000
0000
0100
0010
,  // measure 35
0001
1000
0010
0100
0001
1000
1010
0000
,  // measure 36
0001
0010
0001
0000
1000
0000
0100
0000
0001
0000
0100
0000
1000
0001
1000
0001
,  // measure 37
0100
0010
1000
0001
0010
1000
1010
0000
,  // measure 38
0012
0000
1003
0000
1001
0000
0100
0010
,  // measure 39
0000
0000
0010
0100
0001
0000
1000
0000
0001
0000
1000
0000
0100
0000
0010
0000
,  // measure 40
0001
0000
0010
0000
0011
0000
0000
0000
1000
0000
0010
0000
0100
0000
0001
1000
,  // measure 41
0100
0000
0000
0000
0000
0000
1000
0000
0000
0000
0000
0000
0010
0000
0000
0000
0000
0000
0100
0000
0000
0000
0000
0000
0001
0000
0000
0010
0000
0000
0100
0000
0000
1000
0000
0000
0010
0000
0000
0000
0100
0000
0000
0000
0010
0000
0000
0000
,  // measure 42
2000
0100
0000
0100
0000
0100
3100
0020
,  // measure 43
0000
0001
0031
0000
1001
0000
1100
0000
,  // measure 44
0001
0010
0001
1000
0010
0100
0001
1000
,  // measure 45
0100
0001
1000
0010
0001
0100
1001
0000
,  // measure 46
0100
0010
1000
0100
1000
0001
0010
0100
,  // measure 47
0000
0100
0010
0001
1000
0010
0200
0000
,  // measure 48
0310
0000
1000
0001
1000
0000
0010
0000
1000
0000
0100
0010
0100
0000
1000
0000
,  // measure 49
0001
0000
0010
0000
0001
0000
0100
0010
1000
0100
0010
0001
0100
0000
0000
0000
,  // measure 50
0012
0000
0000
1000
0000
1003
0010
0100
,  // measure 51
0000
0101
0000
1100
0000
1010
0000
0100
,  // measure 52
0201
0000
0000
0010
0000
0000
0301
1000
,  // measure 53
0100
1000
0000
0010
0100
0010
0000
1000
,  // measure 54
2001
0000
0000
0000
3010
0000
0100
0010
,  // measure 55
0000
1001
0000
0100
0001
0101
0000
0100
,  // measure 56
0010
0000
1000
0010
1000
0000
0001
0010
,  // measure 57
0001
1000
0010
0001
0010
1000
1001
0000
,  // measure 58
2020
3030
0022
0033
0000
0000
2200
3300
0202
0303
0000
0000
0022
0033
2200
3300
,  // measure 59
0000
0000
2020
3030
2002
3003
0000
0000
0100
0000
0010
0000
0100
0000
0010
0000
,  // measure 60
1000
0000
0100
0000
1000
0000
0100
0010
0001
0000
0100
0000
0001
0000
0100
0010
,  // measure 61
1000
0000
0001
0000
1000
0001
1000
0000
0010
0100
0010
0100
0010
0100
0010
0100
,  // measure 62
0001
1000
0001
1000
0001
1000
0010
0000
0110
0000
0000
0000
1100
0000
0000
0000
,  // measure 63
0101
0000
0000
0000
0011
0000
0000
0000
0100
0000
0010
0100
1000
0000
0010
0000
,  // measure 64
0100
0000
0001
0010
0100
0000
0020
0000
0000
0000
0031
0000
1000
0010
0100
0000
,  // measure 65
0001
0010
0100
0000
2000
0000
0000
0000
3010
0000
0100
0001
1000
0000
0100
0000
,  // measure 66
1000
0000
0001
0010
0100
0000
1000
0000
0010
0100
0000
0000
0001
0010
0000
0000
,  // measure 67
0100
1000
0001
0000
0011
0000
0000
0000
1000
0000
0010
0100
0001
0000
0010
0000
,  // measure 68
0100
0000
1000
0001
0100
0000
0020
0000
0000
0000
0130
0000
0001
1000
0100
0000
,  // measure 69
1000
0001
0100
0000
0020
0000
0000
0000
0130
0000
0010
1000
0100
0000
1000
0000
,  // measure 70
0001
0000
0100
0010
0100
0001
0100
0000
0010
1000
0000
0000
0001
0100
0000
0010
,  // measure 71
0100
0000
0001
0000
1001
0000
0000
0000
0010
0000
0001
0010
0100
0000
0010
0000
,  // measure 72
0001
0000
1000
0010
0100
0000
0020
0000
0000
0000
0130
0000
0001
1000
0100
0000
,  // measure 73
1000
0001
0010
0000
0002
0000
0000
0000
0103
0000
0010
1000
0100
0000
1000
0000
,  // measure 74
0010
0000
0100
0001
1000
0000
0010
0000
1000
0100
0000
0000
0001
0100
0000
1000
,  // measure 75
0001
0000
1000
0000
1001
0000
0000
0000
0100
0000
1000
0010
0100
0000
0010
0000
,  // measure 76
1000
0000
0100
0010
0001
0000
2000
0000
0000
0000
3001
0000
0100
0010
1000
0000
,  // measure 77
0100
0010
0001
0000
0020
0000
0000
0000
0130
0000
1000
0100
1000
0000
0010
0000
,  // measure 78
1000
0000
0000
0000
0000
0000
0001
0000
0000
0100
0000
0000
0010
0000
0000
0100
0000
0000
0001
0000
0000
0000
0000
0000
1000
0000
0000
0000
0100
0000
0000
0000
1000
0000
0000
0000
0001
0000
0000
0000
0010
0000
0000
0000
0001
0000
0000
0000
,  // measure 79
1000
0001
1000
1001
0000
0000
0210
0000
0000
0001
0000
0000
,  // measure 80
0310
0000
1000
0010
0000
0010
1000
1100
,  // measure 81
0000
0011
0000
0001
0020
0000
0100
0000
,  // measure 82
0031
0000
1000
0100
0000
0100
0010
0100
,  // measure 83
1000
0001
1001
0000
0010
0100
0001
1000
,  // measure 84
0010
0000
0100
0001
1000
0000
0010
0000
0000
0000
0010
0000
1000
0000
0100
0000
,  // measure 85
0010
0000
0001
1000
0001
0000
0100
0000
0010
0000
1000
0000
0010
0000
0100
0000
,  // measure 86
0001
0000
0010
0100
1000
0000
0010
0000
0100
0000
0100
0000
0000
0000
0011
0000
,  // measure 87
0000
0000
0001
0000
1000
0000
0100
0000
1000
0000
0100
0010
0100
0000
1000
0000
,  // measure 88
0001
0000
0100
0010
0100
0000
0001
0000
1000
0000
0001
0010
0100
0000
1000
0000
,  // measure 89
0000
0000
1010
0000
0010
0000
0100
0000
0001
0000
1000
0100
0010
0000
0100
0000
,  // measure 90
1000
0000
0010
0100
0001
0000
0100
0000
0010
0000
1000
0001
1000
0000
0010
0000
,  // measure 91
0000
0000
0010
0100
0010
0000
1000
0000
0100
0000
0010
0000
0100
0000
1000
0100
,  // measure 92
2000
0000
0000
0000
3001
0000
0010
0001
0100
0000
0010
0000
0000
0000
0110
0000
,  // measure 93
0000
0000
1000
0000
0001
1000
0100
0010
0001
0000
0100
0000
0010
0000
1000
0000
,  // measure 94
0001
0000
0010
0000
0100
0000
1000
0000
0010
1000
0010
1000
0001
0100
0001
0100
,  // measure 95
0001
0010
0100
1000
0010
0100
0010
0000
2000
0000
0000
0000
3000
0000
0000
0000
,  // measure 96
0011
0000
0000
0000
0000
0000
0000
0000
0000
0000
0000
0000
1000
0000
0000
0000
0000
0000
0100
0000
0000
1000
0000
0000
0001
0000
0000
0000
0100
0000
0000
0000
0010
0000
0000
0000
1000
0000
0000
0000
0001
0000
0000
0000
0010
0000
0000
0000
,  // measure 97
0100
0000
1000
0000
1001
0000
0000
0000
0100
0010
0100
0000
0001
0000
1000
0000
,  // measure 98
0001
0000
0010
0000
0100
0010
0100
0000
1000
0000
0010
0000
0100
0000
0001
0000
,  // measure 99
1000
0001
1001
0000
0120
0000
1030
0100
,  // measure 100
1000
0000
0000
0000
0101
0000
0000
0000
0010
0000
0100
0010
1000
0000
0001
0000
,  // measure 101
0100
0000
0001
0010
0100
0000
1000
0000
0001
0000
0100
0000
0001
0000
1000
0000
,  // measure 102
0100
0010
0001
1000
0010
0100
0110
0010
,  // measure 103
1000
0000
0000
0000
0000
0000
0001
0000
0000
0010
0000
0000
0100
0000
0000
0000
1000
0000
0000
0000
0100
0000
0000
0000
0001
0000
0000
0000
0000
0000
0000
0000
0000
0000
0000
0000
0000
0000
0000
0000
0000
0000
0000
0000
0000
0000
0000
0000
;
