#TITLE:Zirkfied;
#SUBTITLE:;
#ARTIST:iconoclasm;
#TITLETRANSLIT:;
#SUBTITLETRANSLIT:;
#ARTISTTRANSLIT:;
#GENRE:SPACE REQUIEM;
#CREDIT:;
#BANNER:Zirkfied_banner.png;
#BACKGROUND:Zirkfied.png;
#LYRICSPATH:;
#CDTITLE:;
#MUSIC:Zirkfied.ogg;
#OFFSET:-0.470000;
#SAMPLESTART:83.879997;
#SAMPLELENGTH:11.500000;
#LASTBEATHINT:399.894989;
#SELECTABLE:YES;
#BPMS:0.000000=210.000000
,212.000000=105.000000
,244.000000=210.000000
;
#STOPS:68.000000=0.857000,
177.000000=0.143000,
177.500000=0.143000,
256.000000=0.095000,
256.333344=0.095000,
256.666656=0.095000,
257.000000=0.095000,
257.333344=0.095000,
257.666656=1.238000
;
#BGCHANGES:;
#KEYSOUNDS:;
#ATTACKS:;

//---------------dance-single - ----------------
#NOTES:
     dance-single:
     :
     Easy:
     8:
     0.323475,0.401037,0.134960,0.164951,0.003749,302.000000,284.000000,18.000000,22.000000,0.000000,0.000000,0.323475,0.401037,0.134960,0.164951,0.003749,302.000000,284.000000,18.000000,22.000000,0.000000,0.000000:
0000
0000
0000
0000
,
0000
0000
0000
0000
,
0000
0000
0000
0000
,
0000
0000
0000
0000
,
0001
0000
0010
0000
,
0001
0000
1000
0000
,
0100
0000
1000
0000
,
0001
0000
0010
0000
,
0110
0000
0000
0010
,
0010
0000
0000
0100
,
0100
0000
1000
0000
,
0001
0000
1001
0000
,
0110
0000
0000
0001
,
1000
0000
0000
1000
,
0001
0000
0100
0000
,
0010
0000
1000
0000
,
2002
0000
0000
0000
,
3003
0001
0000
0100
,
1000
0100
0000
0010
,
0000
1000
0001
1000
,
0000
0010
0100
0010
,
0000
1000
0001
0010
,
0000
0001
1000
0100
,
0000
1000
0010
0100
,
0001
1000
0000
1001
,
0000
0010
0100
0010
,
0000
1000
0100
1000
,
0000
0001
0010
0100
,
1000
0002
0000
0103
,
0000
0010
1000
0010
,
0000
0100
0001
0100
,
0000
0001
1000
0100
,
0010
0001
0000
0110
,
0000
2000
0000
0000
,
0000
3000
0000
0000
,
0001
0002
0000
0000
,
0003
0100
0000
0010
,
0000
1000
0100
1000
,
0010
1000
0100
1000
,
0000
0001
0010
0001
,
0100
0001
0010
0001
,
0000
1000
0010
0001
,
0010
1000
0000
0001
,
0000
1000
0100
0001
,
0100
0000
2000
3000
0001
0000
0010
0000
,
0001
1000
0010
0100
,
0010
1000
0001
0000
,
0100
0010
1000
0100
,
0010
0001
1000
0000
,
0010
1000
0001
0100
,
0001
0010
0100
0000
,
1000
0010
0001
0010
,
1000
0100
0001
0000
,
2000
0000
3002
0000
,
0013
0100
0010
0000
,
0001
0010
0100
1000
,
0010
0100
0001
0010
,
0001
1000
0100
1001
,
0010
0100
0010
0101
,
1000
0010
0100
0001
,
0010
0100
1000
0100
,
2000
0000
0000
0000
,
3020
0000
0230
0000
,
0302
0000
0000
0000
,
2003
0000
0000
0000
0000
3010
0100
0000
0000
0001
0000
0000
,
0010
0100
1000
0100
,
0010
1000
0010
0001
,
0010
1000
0010
0100
,
0001
0000
0100
0000
1000
0000
0010
2000
,
0000
0000
3010
0000
0100
0000
0001
0020
,
0000
0031
1000
0001
,
0010
0100
2000
0010
,
0010
3010
1000
0001
,
0010
0100
0010
0001
,
1000
0010
0100
0010
,
1000
0001
0010
0100
,
2200
3300
0001
0100
,
0010
0100
0001
1000
,
0100
0010
0001
1000
,
0010
0100
0001
0010
,
0100
1000
0022
0000
,
0033
0000
1000
0010
,
0100
0010
2000
0000
,
3002
0000
0103
0010
,
0100
0010
1010
0000
,
0000
0001
0101
0000
,
0000
1000
1001
0000
,
0010
0100
0110
0000
,
1001
0000
1000
0010
,
0100
0001
0010
0100
,
1000
0100
0001
0100
,
0010
1000
0010
0001
,
0100
0010
1000
0010
,
0100
0001
0010
0001
,
0100
0010
1001
0000
,
0110
0000
1000
0100
,
0010
0001
0100
0010
,
0100
1001
0000
0000
;

//---------------dance-single - ----------------
#NOTES:
     dance-single:
     :
     Medium:
     13:
     0.535555,0.708727,0.307409,0.187444,0.168700,500.000000,459.000000,41.000000,25.000000,0.000000,0.000000,0.535555,0.708727,0.307409,0.187444,0.168700,500.000000,459.000000,41.000000,25.000000,0.000000,0.000000:
0000
0000
0000
0000
,
0000
0000
0000
0000
,
0000
0000
0000
0000
,
0000
0000
0000
0000
,
0012
0000
1003
0000
,
2010
0000
3001
0000
,
0100
0000
0010
0000
1000
0001
1000
0000
,
0001
0000
0000
0010
0000
0000
0100
0000
0000
0000
0000
1000
,
0100
0000
0000
1000
,
1001
0000
0000
0001
,
1001
1000
0010
0100
,
0110
0000
0000
0000
0000
0000
1001
0000
0000
0000
0000
0001
,
0010
0000
0000
0100
,
0110
0000
0000
0010
,
0011
0001
1000
0100
,
1100
0000
0101
0000
,
0010
0100
0010
0100
0010
0100
0010
0100
0010
0100
0010
0100
,
0010
0000
1000
0100
0010
0100
0000
1000
,
0001
0010
0001
1000
,
0100
0000
1000
0010
0100
0000
0001
0000
,
0010
0000
0001
1000
0001
0000
0100
0010
,
0100
0000
0001
0010
0001
1000
0000
1000
,
0010
0000
1000
0100
1000
0001
0000
0001
,
0010
0000
0001
0000
1001
0000
0100
0010
,
0100
0000
0010
1000
0100
0010
0001
0000
,
1000
0000
0010
0100
0001
0100
0000
0010
,
1000
0000
0100
1000
0001
0000
0100
0010
,
1000
0000
0001
0000
1001
0000
0100
0010
,
1000
0000
0001
0000
0011
0000
1000
0100
,
0010
0000
0001
0100
1000
0100
0000
0001
,
0100
0000
0010
1000
0001
1000
0000
0100
,
0010
0001
1001
0100
,
0110
0000
0001
1000
0100
0010
0100
0000
,
1000
0002
0100
0100
,
0103
0010
1000
0100
,
0010
0011
0001
1000
,
1100
0000
0100
0010
0001
0000
1000
0010
,
0100
1002
0103
0020
,
0130
0200
0301
0002
,
1003
2000
3100
0200
,
0310
0020
0031
2002
,
3003
0100
0010
1000
,
0001
0010
0100
1000
,
0001
0000
0000
1000
0000
1000
0100
0000
0100
0010
0000
0000
,
0001
0000
1001
1001
0020
0000
0130
0000
,
0100
0001
1000
0100
,
1000
0010
0100
0001
,
1000
0100
0001
0100
,
1000
0010
0001
0010
,
0100
0000
0001
0100
0000
0000
0010
0000
1000
0010
0000
0000
,
1000
0000
0001
0100
0000
0000
0010
0000
1000
0100
0000
0000
,
1000
0000
0001
0010
0000
0000
0001
0000
1000
0100
0000
0000
,
0010
0001
1000
0100
,
2000
0010
3010
0002
,
0010
0013
0100
0110
,
1000
0000
0001
0000
1000
0000
0010
0100
,
0010
0000
1000
0000
0001
0010
0100
0000
,
0020
0000
0031
1000
0001
0000
0100
0000
,
0020
0000
1030
0001
1000
0000
0100
0000
,
0010
0000
0001
0000
1000
0010
0100
0000
,
0001
1000
0001
1000
0010
0000
0100
0000
,
0001
0000
1001
0000
,
0011
0000
1100
0000
,
0100
0010
1000
0001
0010
0000
0010
0000
,
0001
0000
0010
0000
0100
0000
1000
0000
0100
0000
0020
0000
0031
0000
0000
0100
0000
0000
0002
0000
0000
0000
0000
0000
,
0000
1003
0010
0000
1000
0100
0010
0000
,
0001
1000
0010
0000
0100
0000
0101
0000
,
0010
1010
1000
1001
,
0001
0000
0110
0000
1000
0010
0001
0010
,
0000
0000
1100
0000
1000
0100
0001
0100
,
0000
0000
0011
0000
0001
0010
0001
0000
,
1000
0010
0100
0010
1000
0000
0001
0100
,
0010
1000
0200
0000
1300
0001
0020
0000
,
0000
0031
0100
0000
0010
1000
0100
1000
,
0001
0010
0100
0000
1000
0000
1100
0000
,
0001
0101
0010
0011
,
1000
0000
1010
0000
0001
0100
0001
0010
,
0000
0001
1000
0000
0100
0010
0001
0100
,
0010
0001
0010
0000
1000
0100
1000
0000
,
0010
0100
0010
0000
1000
0100
0001
0100
,
0010
0100
1000
0000
1002
0000
0100
0000
,
0100
0103
2000
0010
,
0010
0000
0000
3010
0000
0000
0001
0000
0001
0010
0000
0000
,
0100
0000
0000
0000
0100
0000
1000
0000
0000
0000
0000
0000
0001
0000
0000
0100
0000
0000
1000
0000
0000
0100
0000
0000
,
0001
0010
0001
0000
1001
0000
0000
0000
,
0100
0010
0110
0000
,
1000
0001
0011
0001
,
1000
0000
0000
1100
0000
0000
1000
0000
0010
0100
0000
0000
,
0001
0000
0010
0001
0000
0000
1000
0000
0010
0100
0000
0000
,
0001
0000
0010
0100
0000
0000
1000
0000
0100
0010
0000
0000
,
0001
0000
0100
0010
0000
0000
1000
0000
1000
0001
0000
0000
,
0010
0000
0010
0001
0000
0000
0100
0000
0010
0100
0000
0000
,
0010
0000
1000
0100
0000
0000
1000
0000
0100
0010
0000
0000
,
0001
0000
1000
0001
0000
0000
0100
0000
0010
0100
0000
0000
,
0001
0000
0010
0100
0000
0000
1000
0000
0100
0010
0000
0000
,
0001
0000
0100
0001
0000
0000
1000
0000
0010
1000
0000
0000
,
0100
0000
1000
0001
0000
0010
0001
0000
0000
1000
0001
1000
,
0001
0220
0000
0000
,
0000
0000
0000
0000
,
0000
0000
0330
0000
;

//---------------dance-single - ----------------
#NOTES:
     dance-single:
     :
     Hard:
     17:
     0.830110,1.047064,0.487355,0.352395,0.809759,775.000000,710.000000,65.000000,47.000000,0.000000,0.000000,0.830110,1.047064,0.487355,0.352395,0.809759,775.000000,710.000000,65.000000,47.000000,0.000000,0.000000:
// measure 0
0000
0000
0000
0000
,  // measure 1
0000
0000
0000
0000
,  // measure 2
0000
0000
0000
0000
,  // measure 3
0000
0000
0000
0000
,  // measure 4
0001
1000
0011
0000
1000
0010
1001
0000
,  // measure 5
0001
0100
1001
0000
0100
0010
1100
0000
,  // measure 6
1001
0000
0011
0000
1000
0010
0100
0001
,  // measure 7
0020
0000
0001
0000
1030
0000
0000
0001
,  // measure 8
2002
0000
3003
0110
,  // measure 9
2020
0000
3030
0011
,  // measure 10
0101
0000
0001
1000
0000
1000
0010
0100
0001
0010
0100
1000
,  // measure 11
0001
0010
0001
1000
0100
1000
0010
0100
0001
1000
0100
0010
,  // measure 12
0002
0100
0103
1010
,  // measure 13
2001
0100
3001
0101
,  // measure 14
0110
0000
0010
1000
0000
1000
0001
0000
0001
0010
0000
0010
,  // measure 15
0001
1000
0100
0010
0100
1000
0001
0100
0010
0100
0001
1000
,  // measure 16
0001
0100
0010
1000
0001
0010
0100
1000
0100
0010
0001
1000
,  // measure 17
0002
0000
0003
0000
0000
0000
1000
0000
0000
0100
0000
0000
0001
0000
0000
0100
0000
0000
0000
0000
0000
0010
0000
0000
,  // measure 18
0001
0010
0001
0100
1000
0100
0010
0100
,  // measure 19
0001
1000
0010
0100
0001
0100
0010
1000
,  // measure 20
0100
0001
0100
1000
0010
1000
0001
0100
,  // measure 21
0002
0000
1003
0010
0100
0020
0000
0100
,  // measure 22
0130
0000
0001
0010
0100
0020
0000
0001
,  // measure 23
0031
1000
0010
0000
0110
0000
1000
0100
,  // measure 24
0001
0000
0001
0100
1000
0010
0100
0001
,  // measure 25
1000
0000
0010
0100
1000
0002
0000
0013
,  // measure 26
0100
1000
0100
0001
0010
0100
1000
0001
,  // measure 27
1000
0100
0010
0001
0011
0000
1000
0100
,  // measure 28
1100
0000
0001
1000
1001
0000
0100
0010
,  // measure 29
0110
0000
0001
0010
1000
0020
0000
0130
,  // measure 30
0001
0100
1000
0010
0001
0020
0000
0130
,  // measure 31
0001
0100
0010
0100
1001
0000
0100
0010
,  // measure 32
1001
0000
0000
0000
0001
0000
0100
0000
0010
0000
1000
0000
0001
0000
1000
0100
,  // measure 33
1000
0010
0200
0000
0001
0000
0010
0000
,  // measure 34
0301
0002
0010
1000
,  // measure 35
0013
0000
0000
0001
0000
0000
1001
0000
0000
0000
1000
0000
0100
0000
0000
0000
0100
0000
0010
0000
0000
0000
0010
0000
,  // measure 36
0001
0000
0000
0000
0001
0000
1000
0000
0000
0100
0000
0000
0001
0000
0000
0100
0000
0000
0010
0000
0000
0001
0000
0000
,  // measure 37
1000
0001
0201
0000
0310
0000
0120
0000
,  // measure 38
1030
0021
1030
0201
,  // measure 39
1300
1020
0130
0102
,  // measure 40
0013
2100
3001
0012
,  // measure 41
1003
0000
1000
0010
0100
0010
1000
0001
,  // measure 42
0010
0100
1000
0100
0001
0100
1000
0010
,  // measure 43
0001
0000
0000
0010
0000
0000
0100
0000
0000
0000
0100
0000
0010
0000
1000
0000
0001
0000
0010
0000
0100
0000
1000
0000
,  // measure 44
0100
0000
0000
0000
0010
0000
0000
0000
0001
0000
0000
0000
0022
0000
0000
0033
0000
0000
2200
0000
0000
3300
0000
0000
0001
0000
0000
0000
0100
0000
0000
0000
0001
0000
0000
0000
1000
0000
0000
0000
0010
0000
0000
0000
1000
0000
0000
0000
,  // measure 45
0001
0000
0001
0010
0000
0010
0001
0000
0001
1000
0000
1000
,  // measure 46
0010
0000
0010
0001
0000
0001
0100
0000
0100
1000
0001
1000
,  // measure 47
0010
0000
0010
0100
0000
0100
0001
0000
0001
1000
0000
1000
,  // measure 48
0001
0010
0001
0100
0001
0010
0001
1000
0100
0010
0100
1000
,  // measure 49
0010
0000
0010
0100
0000
0100
0001
0000
0001
1000
0100
1000
,  // measure 50
0010
0000
0010
1000
0000
1000
0001
0000
0001
0010
0001
1000
,  // measure 51
0010
0100
0010
1000
0001
1000
0001
0100
0010
0100
0001
1000
,  // measure 52
0100
0000
0010
0100
0000
1000
0100
0000
0001
0100
0000
0010
,  // measure 53
0001
0011
1000
1010
,  // measure 54
0001
0100
0010
0100
0001
0000
1001
0000
,  // measure 55
0110
0000
1000
0010
0001
0010
0100
0001
,  // measure 56
1000
0010
0100
0001
1000
0100
0010
0001
,  // measure 57
0201
0000
0010
0010
0310
0000
1001
0000
,  // measure 58
1200
0000
0010
0010
0310
0000
1001
0000
,  // measure 59
1100
0000
0101
0001
1000
0010
0100
0001
,  // measure 60
0010
0100
0001
1000
0001
0100
0010
0100
,  // measure 61
1000
0010
1000
0010
1000
0010
1000
0010
1000
0000
0000
0000
0000
0000
0000
0000
,  // measure 62
0001
0100
0001
0100
0001
0000
0000
0000
1000
0001
1000
0001
1000
0000
0000
0000
,  // measure 63
0010
0100
0010
0100
0010
0000
0000
0000
1000
0001
1000
0001
1000
0000
0000
0000
,  // measure 64
0011
0000
0000
0000
0101
0000
0000
0000
1010
0000
0000
0000
1100
0000
0000
0000
0101
0000
0000
0000
0220
0000
0330
0000
1000
0000
0000
0010
0000
0000
0100
0000
0000
0010
0000
0000
2000
0000
0000
0000
0000
0000
0000
0000
0000
0000
0000
0000
,  // measure 65
3001
0010
0001
0100
0010
0100
0001
1000
,  // measure 66
0100
1000
0100
1000
0100
0000
0010
0000
0001
0010
0000
0000
1001
0000
0000
0000
,  // measure 67
1000
0100
0000
0000
1001
0000
0000
0000
0010
0100
0000
0000
0011
0000
0000
0000
,  // measure 68
0010
1000
0000
0000
1100
0000
0000
0000
1000
0010
1000
0010
1000
0000
0020
0000
,  // measure 69
0000
0000
0130
0000
0110
0000
0000
0000
0001
0010
0001
0010
0001
0000
0020
0000
,  // measure 70
0000
0130
0110
0000
0001
0010
1000
0010
,  // measure 71
0001
0000
0100
0000
0001
0000
0010
0000
0001
0000
1000
0001
1000
0000
0100
1000
,  // measure 72
0001
0000
0100
0001
0100
0001
0100
0000
0010
1000
0100
1000
0020
0000
0000
0000
,  // measure 73
0000
0000
0130
0000
0001
0000
1000
0000
0001
0000
0010
0001
0010
0000
0001
0000
,  // measure 74
1000
0100
1000
0000
0010
0000
0001
0000
0010
1000
0000
0000
0110
0000
0000
0000
,  // measure 75
0010
0001
0000
0000
0110
0000
0000
0000
1000
0100
0000
0000
0101
0000
0000
0000
,  // measure 76
0100
1000
0000
0000
1010
0000
0000
0000
0100
0000
0001
0100
0002
0000
0000
0000
,  // measure 77
0000
0000
0013
0000
0100
0000
1000
0000
0010
0000
0100
0010
0100
0000
0001
0000
,  // measure 78
1000
0000
0001
0010
0001
0000
0100
0000
0010
1000
0010
0000
0100
0001
0100
0000
,  // measure 79
0001
0000
0000
0010
0000
0000
0001
0000
0000
0000
0000
0000
1000
0000
0000
0100
0000
0000
1000
0000
0000
0000
0000
0000
0001
0000
0000
0000
0010
0000
0000
0000
0100
0000
0000
0000
1000
0000
0000
0000
0100
0000
0000
0000
0010
0000
0000
0000
,  // measure 80
0100
1000
0010
0100
0001
0010
0002
0000
0000
0010
0000
0000
,  // measure 81
1000
0013
2001
0010
,  // measure 82
0001
3010
0120
1000
,  // measure 83
0001
0000
0000
0130
0000
0000
0001
0010
0100
1000
0100
0010
,  // measure 84
0001
0100
0010
0100
0001
0010
0200
0000
0000
1000
0000
0000
,  // measure 85
0310
1100
0102
0010
,  // measure 86
1003
0000
0000
0110
0000
0000
0001
0000
0001
1000
0000
1000
,  // measure 87
0100
0000
0100
0010
0000
0010
0001
0010
0001
1000
0100
1000
,  // measure 88
0010
0000
0100
0010
0100
0010
1000
0000
0100
1000
0000
0001
,  // measure 89
1000
0000
0001
0100
1000
0100
0010
0000
1000
0010
0000
0100
,  // measure 90
0001
0000
0010
0001
1000
0100
1000
0000
1000
0100
1000
0010
,  // measure 91
0100
0000
0100
0001
0010
0001
1000
0010
0100
0010
1000
0001
,  // measure 92
0010
0100
0010
0002
0000
0000
0103
0000
0010
1000
0000
0001
,  // measure 93
0100
0000
0001
0010
0001
0100
0010
0000
1000
0010
0000
0100
,  // measure 94
0010
1000
0100
0001
0100
1000
0010
0100
0010
2000
0000
0000
,  // measure 95
3001
0100
0010
0200
0000
0000
0301
0010
0100
1000
0100
0010
,  // measure 96
0001
1000
0100
0010
0001
0010
0100
1000
0010
0100
0001
0010
,  // measure 97
0100
2002
0000
0000
,  // measure 98
0000
0000
0000
0000
,  // measure 99
0000
0000
0000
3003
;
