#TITLE:ZZ;
#SUBTITLE:;
#ARTIST:D.J.Amuro;
#TITLETRANSLIT:;
#SUBTITLETRANSLIT:;
#ARTISTTRANSLIT:;
#GENRE:INTELLIGENCE;
#CREDIT:;
#BANNER:ZZ_banner.png;
#BACKGROUND:ZZ_bg.png;
#LYRICSPATH:;
#CDTITLE:;
#MUSIC:ZZ.ogg;
#OFFSET:-0.850000;
#SAMPLESTART:64.739998;
#SAMPLELENGTH:12.400000;
#LASTBEATHINT:268.000000;
#SELECTABLE:YES;
#BPMS:0.000000=154.000000
;
#STOPS:
;
#BGCHANGES:;
#KEYSOUNDS:;
#ATTACKS:;

//---------------dance-single - ----------------
#NOTES:
     dance-single:
     :
     Easy:
     7:
     0.297390,0.293989,0.115159,0.062009,0.000000,235.000000,222.000000,13.000000,7.000000,0.000000,0.000000,0.297390,0.293989,0.115159,0.062009,0.000000,235.000000,222.000000,13.000000,7.000000,0.000000,0.000000:
0000
0000
0000
0000
,
0000
0000
0000
0000
,
0000
0000
0000
0000
,
0000
0000
0000
0000
,
1000
0000
0010
1000
,
0100
0000
0010
0001
,
0200
0000
0310
0000
,
1000
0001
0100
0001
,
1000
0010
0100
0001
,
0010
0100
1000
0100
,
0010
0001
0100
0010
,
1000
0010
0001
0010
,
0100
0001
1000
0010
,
0100
0001
0010
1000
,
0010
0001
0100
0010
,
2002
3003
0010
0100
,
0001
1000
0010
1000
,
0001
0010
0100
1000
,
0010
0100
0001
0100
,
0110
0000
0010
1000
,
0100
1000
0001
0100
,
0010
0001
1000
0010
,
0100
0001
0010
0100
,
1000
0010
1000
0100
,
0010
0000
0000
0010
0000
0000
0010
0000
,
0001
0100
1000
0100
,
0001
0100
1000
0000
,
0010
1000
0010
0001
,
0010
1000
0010
0000
,
1000
0010
0100
0001
,
0010
0100
1000
0001
,
1001
0000
0110
0000
,
0010
1000
0001
0100
,
0010
1000
0100
1000
,
0001
0010
0001
0100
,
0010
1000
0010
0100
,
0001
1000
0100
0010
,
0001
0100
0001
0010
,
0100
1000
0001
1000
,
0110
0000
0010
1000
,
0200
0000
0000
0310
,
0001
0100
0010
0100
,
0010
1000
0100
1000
,
0001
0010
0001
1000
,
1001
0000
0110
0000
,
0001
0100
0010
1000
,
0100
1000
0001
0010
,
0100
1000
0010
0100
,
1001
0000
0110
0000
,
0010
1000
0100
0010
,
0001
0100
1000
0100
,
0001
0010
1000
0010
,
0011
0000
1100
0000
,
0010
1000
0100
1000
,
0001
0100
0010
0100
,
0001
0010
0100
1000
,
0010
0100
0001
1000
,
0200
0000
0310
0000
,
0002
0000
1003
0000
,
0020
0000
0130
0000
,
0001
1000
0100
0010
,
0011
1000
0010
0100
,
0001
1000
0100
0001
,
0100
1000
0010
0001
,
0010
0100
0110
0000
,
1000
0000
0000
0001
0000
0000
1000
0000
,
0010
0000
0000
0100
0000
0000
0000
0000
;

//---------------dance-single - ----------------
#NOTES:
     dance-single:
     :
     Medium:
     11:
     0.466965,0.470382,0.088584,0.079726,0.141735,369.000000,359.000000,10.000000,9.000000,0.000000,0.000000,0.466965,0.470382,0.088584,0.079726,0.141735,369.000000,359.000000,10.000000,9.000000,0.000000,0.000000:
0000
0000
0000
0000
,
0000
0000
0000
0000
,
0000
0000
0000
0000
,
0000
0000
0000
0000
,
0001
0000
0000
0100
0000
0000
0001
0000
1000
0000
0100
0000
1000
0000
0000
0000
,
0010
0000
0000
0100
0000
0000
0010
0000
1000
0000
0001
0000
1000
0000
0000
0000
,
0001
0000
0000
0010
0000
0000
0001
0000
2000
0000
0000
0000
3010
0000
0000
0000
,
0100
0001
0010
0001
1000
0100
0010
0000
,
0001
0000
0000
0100
0000
0000
0010
0000
1000
0000
0000
0000
0100
0000
0000
0000
,
1000
0000
0000
0010
0000
0000
0100
0000
0001
0000
0000
0000
0010
0000
0000
0000
,
0100
0000
0000
1000
0000
0000
0001
0000
0100
0000
0000
0000
0010
0000
0000
0000
,
1000
0100
0010
0001
1000
0000
1001
0000
,
0010
0000
0000
0100
0000
0000
0001
0000
1000
0000
0000
0000
0100
0000
0000
0000
,
1000
0000
0000
0010
0000
0000
0100
0000
0001
0000
0000
0000
0010
0000
0000
0000
,
0100
0000
0000
0010
0000
0000
0001
0000
1000
0000
0000
0000
0010
0000
0000
0000
,
0100
0001
1000
0001
0020
0000
0130
0000
,
1000
0000
0000
0010
0000
0000
1000
0000
0001
0000
0010
0000
0100
0000
0000
0000
,
1000
0000
0000
0010
0000
0000
1000
0000
0001
0000
0100
0000
0010
0000
0000
0000
,
0100
0000
0000
0001
0000
0000
0010
0000
0001
0000
1000
0000
0100
0000
0000
0000
,
0010
0001
1000
0010
0100
0000
0110
0000
,
0001
0000
0000
1000
0000
0000
0010
0000
0100
0000
0010
0000
1000
0000
0000
0000
,
0100
0000
0000
0010
0000
0000
0001
0000
0100
0000
0010
0000
1000
0000
0000
0000
,
0001
0000
0000
0010
0000
0000
0001
0000
1000
0000
0010
0000
0100
0000
0000
0000
,
0001
0100
1000
0100
0001
0100
0010
0000
,
1000
0001
1000
0010
0100
0010
2000
0000
,
3100
0010
0100
0000
1000
0000
0001
0010
,
0001
1000
0100
0000
1000
0010
0100
0000
,
0001
0010
0001
1000
0001
1000
0010
0000
,
1000
0100
1000
0001
1000
0100
0010
0000
,
0001
0100
0010
0100
0001
0000
1000
0000
,
0010
1000
0100
1000
0010
0000
0100
0000
,
0010
1000
0100
1000
0010
1000
0100
0000
,
1000
1001
0001
1001
,
0100
0001
1000
0001
0100
0010
0100
0000
,
0010
1000
0100
0010
0001
1000
0010
0000
,
0100
0001
0100
0000
0010
1000
0010
0000
,
0100
0001
1000
0010
0100
0000
0110
0000
,
1000
0100
0010
0000
0001
0100
0010
0000
,
1000
0010
0100
0000
0001
0010
0100
0000
,
1000
1010
0001
0101
,
0010
0000
0000
0100
0000
0000
0010
0000
0000
0100
0000
0000
0020
0000
0000
0000
,
1030
0000
0000
0100
0000
0000
1000
0000
0001
0000
0000
0000
0010
0000
0000
0000
,
0001
0000
0000
0100
0000
0000
0010
0000
0100
0000
0000
0000
0001
0000
0000
0000
,
1000
0000
0000
0010
0000
0000
0100
0000
0001
0000
0000
0000
0100
0000
0000
0000
,
0010
1000
0100
0000
1000
0001
0010
0000
,
0100
0000
0000
0010
0000
0000
0100
0000
1000
0000
0000
0000
0100
0000
0000
0000
,
1000
0000
0000
0001
0000
0000
0010
0000
0001
0000
0000
0000
1000
0000
0000
0000
,
0010
0000
0000
0100
0000
0000
0001
0000
0100
0000
0000
0000
0010
0000
0000
0000
,
1000
0100
0010
0001
0100
0010
1000
0000
,
0001
0000
0000
0010
0000
0000
0001
0000
1000
0000
0100
0000
1000
0000
0000
0000
,
0010
0000
0000
0100
0000
0000
0010
0000
1000
0000
0001
0000
1000
0000
0000
0000
,
0001
0000
0000
0010
0000
0000
0100
0000
1000
0000
0010
0000
1000
0000
0000
0000
,
0001
0100
0010
1000
0100
1000
0010
0000
,
0100
0000
0000
0001
0000
0000
0010
0000
0001
0000
1000
0000
0100
0000
0000
0000
,
1000
0000
0000
0010
0000
0000
0100
0000
0001
0000
0010
0000
0100
0000
0000
0000
,
0010
0000
0000
0001
0000
0000
1000
0000
0010
0000
0100
0000
0010
0000
0000
0000
,
1000
0001
0010
0100
1000
0010
0100
0000
,
0002
0000
0000
0013
0000
0000
0001
0000
,
2000
0010
3020
0100
,
0230
0000
0000
0301
0000
0000
1000
0000
,
0010
0110
1000
1001
,
0010
0000
0000
0100
0000
0000
0001
0000
1000
0000
0100
0000
0010
0000
0000
0000
,
0001
0000
0000
0100
0000
0000
0010
0000
1000
0000
0010
0000
0100
0000
0000
0000
,
0010
0000
0000
1000
0000
0000
0001
0000
0100
0000
0001
0000
0010
0000
0000
0000
,
0100
1000
0100
0010
0001
0100
0010
0000
,
1000
0010
1000
0001
0100
0001
0020
0000
,
0031
0000
0000
1100
0000
0000
0000
0000
;

//---------------dance-single - ----------------
#NOTES:
     dance-single:
     :
     Hard:
     15:
     0.742841,0.734972,0.115159,0.115159,0.615660,587.000000,574.000000,13.000000,13.000000,0.000000,0.000000,0.742841,0.734972,0.115159,0.115159,0.615660,587.000000,574.000000,13.000000,13.000000,0.000000,0.000000:
0000
0000
0000
0000
,
0000
0000
0000
0000
,
0000
0000
0000
0000
,
0000
0000
0000
0000
,
1000
0000
0000
0001
0000
0000
0010
0000
0001
0000
0100
0000
0010
0000
1000
0000
,
0100
0000
0000
1000
0000
0000
0010
0000
0100
0000
0001
0000
0010
0000
0001
0000
,
1000
0000
0000
1010
0000
0000
0010
0000
0100
0000
0001
0000
0010
0000
0001
0000
,
1000
0010
1000
0000
0010
0000
0100
0000
0001
0100
0001
0000
0200
0000
0000
0000
,
0310
0000
1000
0010
0000
1000
0010
0000
0100
0000
0001
0000
0100
0000
1000
0000
,
0100
0000
0001
0100
0000
0001
0100
0000
0010
0000
1000
0000
0010
0000
0001
0000
,
0010
0000
1000
0001
0000
1000
0010
0000
0100
0000
0001
0000
1000
0000
0100
0000
,
1000
0001
1000
0001
1000
0000
0010
0000
0100
0010
0100
0010
0100
0000
0001
0000
,
0010
0000
0001
1000
0000
0001
0010
0000
0001
0000
1000
0000
0100
0000
0001
0000
,
0100
0000
1000
0001
0000
1000
0100
0000
1000
0000
0010
0000
0001
0000
0010
0000
,
1000
0000
0001
0100
0000
0001
1000
0000
0010
0000
1000
0000
0010
0000
0001
0000
,
0010
0100
0010
0100
0010
0000
1000
0000
0001
1000
0001
1000
0001
0000
0010
0000
,
0001
0000
0001
0010
0000
0010
0001
0000
1000
0100
1000
0000
0010
0000
0100
0000
,
0010
0000
0010
1000
0000
1000
0100
0000
1000
0001
1000
0000
0010
0000
0100
0000
,
0001
0000
0001
1000
0000
1000
0010
0000
0100
0010
0100
0000
0001
0000
0010
0000
,
0100
0000
1000
0000
0001
1000
0001
1000
0001
0000
0100
0000
0110
0000
0000
0000
,
0010
0000
1000
0001
0000
1000
0001
0000
0100
0010
0100
0000
0001
0000
0010
0000
,
0001
0000
1000
0010
0000
1000
0010
0000
0100
0001
0100
0000
0010
0000
1000
0000
,
0001
0000
1000
0010
0000
1000
0010
0000
0100
0010
0100
0000
0010
0000
1000
0000
,
0001
0000
0100
0000
0001
0010
0001
0010
0001
0000
0010
0000
0100
0000
1000
0000
,
0010
0100
0010
0100
0010
0000
1000
0100
1000
0100
1000
0000
0001
0010
0001
0010
,
0001
0000
1000
0000
0010
1000
0010
1000
0020
0000
0000
0000
0130
0000
0001
0000
,
0010
0000
0001
0000
1000
0100
1000
0100
0010
0000
0001
0000
0100
0000
0010
0000
,
1000
0000
0010
0100
0010
0000
1000
0000
0001
0010
0001
0000
1000
0000
0100
0000
,
0010
0000
0001
0100
0001
0000
1000
0000
0010
0000
1000
0000
0100
0000
0001
0000
,
0100
0000
0010
0000
0001
0100
0010
0000
2000
0000
0000
0000
3010
0000
0100
0000
,
0001
1000
0100
0110
0000
0010
0002
0000
,
1003
0010
0100
0010
1000
0010
0100
0010
1000
0000
0001
0000
0010
0000
0001
0000
,
0100
0010
0000
0010
1000
0000
0000
0000
0001
0010
0000
0010
0100
0000
0000
0000
,
1000
0100
0010
0000
0001
0000
0100
0000
0001
0000
1000
0000
0010
0000
0100
0000
,
0001
1000
0010
0000
0100
0000
0001
0000
0010
0000
0100
0000
1000
0000
0100
0000
,
0010
0001
0010
0000
0100
0000
1000
0000
0010
0100
0010
0000
0100
0000
0001
0000
,
1000
0100
0010
0001
1000
0100
0010
0001
,
0100
0000
0010
0000
1000
0010
1000
0000
0001
0000
0100
0000
0010
0000
0100
0000
,
0001
0000
0010
0000
0001
0100
0001
0000
0010
0000
0100
0000
1000
0000
0001
0000
,
0101
0000
0110
0000
1000
0010
0100
0001
,
0010
0001
0000
1000
0100
0000
1000
0010
0000
0100
0001
0000
2001
0000
0000
0000
,
3010
0000
0100
0001
0000
0100
0010
0000
1000
0000
0100
0000
0001
0000
0100
0000
,
1000
0000
0010
0100
0000
0001
0010
0000
0001
0000
0100
0000
1000
0000
0100
0000
,
0001
0000
0010
0001
0000
1000
0100
0000
1000
0000
0010
0000
0001
0000
0010
0000
,
1000
0000
0100
0000
0010
0001
0010
0001
0100
0000
0010
0000
0110
0000
0000
0000
,
1000
0000
0001
0100
0000
0010
1000
0000
0001
0000
0010
0000
1000
0000
0010
0000
,
0001
0000
1000
0100
0000
0010
0001
0000
0100
0000
0010
0000
1000
0000
0100
0000
,
0010
0000
0001
1000
0000
0010
0100
0000
0010
0000
1000
0000
0100
0000
0001
0000
,
0100
0000
1000
0000
0001
0010
0100
1000
0001
0000
1000
0000
1001
0000
0000
0000
,
0010
0100
0010
1000
0010
0100
0010
0000
0100
0000
0001
0000
0010
0000
0001
0000
,
0100
0010
0100
0001
0100
0010
0100
0000
0001
0000
1000
0000
0100
0000
0010
0000
,
0001
0000
0100
0010
0000
1000
0100
0000
1000
0000
0100
0000
0001
0000
0100
0000
,
1000
0000
0010
0000
0100
0010
0001
0010
0100
0000
0010
0000
0110
0000
0000
0000
,
1000
0001
1000
0010
1000
0001
1000
0000
0001
0000
0010
0000
0100
0000
1000
0000
,
0001
1000
0001
0100
0001
1000
0001
0000
0100
0000
0010
0000
1000
0000
0100
0000
,
0010
0001
0100
0010
1000
0100
1000
0000
0001
0000
0100
0000
0010
0000
1000
0000
,
0100
0000
1000
0000
0001
0100
0010
1000
0010
0000
0100
0000
0110
0000
0000
0000
,
1002
0000
0000
0023
0000
0000
0230
0000
,
2300
0010
3020
0100
,
0230
0000
0000
0302
0000
0000
0013
0000
,
0001
0000
0000
0001
1000
0000
0000
1000
0100
0000
0000
0100
0020
0000
0000
0000
,
0031
0100
0010
0100
0001
0100
0010
0100
0001
0000
1000
0000
0100
0000
0010
0000
,
0001
1000
0100
1000
0001
1000
0100
1000
0001
0000
0010
0000
0100
0000
1000
0000
,
0010
0100
1000
0100
0010
0100
1000
0100
0010
0000
0100
0000
0001
0000
0010
0000
,
0001
0000
1000
0000
0010
0100
0010
0100
0010
0000
0100
0000
0110
0000
0000
0000
,
0001
0010
0001
0010
0001
0000
1000
0100
1000
0100
1000
0000
0010
0100
0010
0100
,
0010
0000
0000
1001
0000
0000
0000
0000
;
