#TITLE:ZERO-ONE;
#SUBTITLE:;
#ARTIST:Mr.T;
#TITLETRANSLIT:;
#SUBTITLETRANSLIT:;
#ARTISTTRANSLIT:;
#GENRE:ELECTROSHOCK;
#CREDIT:;
#BANNER:ZERO-ONE_banner.png;
#BACKGROUND:ZERO-ONE.png;
#LYRICSPATH:;
#CDTITLE:;
#MUSIC:ZERO-ONE.ogg;
#OFFSET:-0.520000;
#SAMPLESTART:24.518000;
#SAMPLELENGTH:12.000000;
#LASTBEATHINT:256.000000;
#SELECTABLE:YES;
#BPMS:0.000000=160.000000
;
#STOPS:
;
#BGCHANGES:;
#KEYSOUNDS:;
#ATTACKS:;

//---------------dance-single - ----------------
#NOTES:
     dance-single:
     :
     Easy:
     6:
     0.224102,0.291477,0.020241,0.202415,0.000000,155.000000,153.000000,2.000000,20.000000,0.000000,0.000000,0.224102,0.291477,0.020241,0.202415,0.000000,155.000000,153.000000,2.000000,20.000000,0.000000,0.000000:
0000
0000
0000
0000
,
0000
0000
0000
0000
,
0000
0000
0000
0000
,
0000
0000
0000
0000
,
0000
1000
0000
1000
,
0000
0001
0000
0001
,
0000
0100
0000
0100
,
0020
0000
0000
0030
,
1000
0100
1000
0000
,
0001
0010
0001
0000
,
0100
0010
0100
0000
,
0001
1000
0001
0000
,
1000
0010
0100
0000
,
0001
0100
0010
0000
,
0100
0001
1000
0010
,
0220
0000
0000
0000
0000
0330
0000
0000
,
0001
1000
0010
0000
,
0100
0001
1000
0000
,
0100
0010
0001
0000
,
1000
0100
0010
0000
,
2000
0000
3010
0000
,
0002
0000
0103
0000
,
0020
0000
0000
0030
,
1000
0100
0010
0001
,
0100
0010
1000
0000
,
0001
0010
0100
0000
,
1000
0001
0010
0000
,
0001
0100
0010
0000
,
2000
0000
3100
0000
,
0002
0000
0013
0000
,
0200
0000
0000
0300
,
0010
0000
0010
0010
,
2000
0000
0000
3000
,
0002
0000
0000
0003
,
0020
0000
0000
0030
,
0200
0000
0000
0300
,
0010
0000
0010
0000
,
0001
0000
0001
0000
,
1000
0000
1000
0000
,
0010
0100
0010
0100
,
0001
0010
0001
0000
,
1000
0100
1000
0000
,
0001
0100
0010
0000
,
1000
0100
0010
0000
,
0100
1000
0001
0000
,
0100
0010
0001
0000
,
0010
1000
0100
1000
,
0002
0000
0000
0003
,
0100
0010
1000
0000
,
0001
0010
0100
0000
,
1000
0001
0100
0000
,
0010
1000
0100
0000
,
0020
0000
0031
0000
,
2000
0000
3100
0000
,
0002
0000
0000
0003
,
0010
0100
0010
0100
,
1000
0100
0010
0100
,
1000
0000
0001
0000
,
0100
0010
0100
0001
,
0010
0000
0001
0000
,
2000
0010
0000
3010
,
0002
0100
0000
0103
,
0020
0000
0000
0030
,
0100
0001
0010
1000
,
0110
0000
0000
0000
;

//---------------dance-single - ----------------
#NOTES:
     dance-single:
     :
     Medium:
     9:
     0.409167,0.452524,0.121449,0.111328,0.050604,283.000000,271.000000,12.000000,11.000000,0.000000,0.000000,0.409167,0.452524,0.121449,0.111328,0.050604,283.000000,271.000000,12.000000,11.000000,0.000000,0.000000:
0000
0000
0000
0000
,
0000
0000
0000
0000
,
0000
0000
0000
0000
,
0000
0000
0000
0000
,
0001
0010
0000
0010
,
1000
0100
0000
0100
,
0001
0100
0000
0100
,
1000
0010
0000
0010
,
1000
0000
0100
0000
1000
0001
1000
0000
,
0001
0000
0010
0000
0001
1000
0001
0000
,
0100
0000
0010
0000
1000
0100
1000
0000
,
0010
0000
0100
0000
0001
0010
0001
0000
,
1000
0000
0011
0000
1000
0100
1000
0000
,
0001
0000
0101
0000
1000
0010
1000
0000
,
0010
0000
0110
0000
1000
0001
1000
0000
,
0200
0000
0000
0300
,
0010
0000
0001
0010
0001
0000
1000
0000
,
0100
1000
0100
0000
0101
0000
0000
0000
,
0010
0000
1000
0001
1000
0000
0010
0000
,
0100
0010
0100
0000
1010
0000
0000
0000
,
0100
0001
0000
0001
1000
0000
0100
0000
,
1000
0100
0000
0100
1000
0000
0010
0000
,
0100
0010
0100
0000
0001
1000
0001
0000
,
0220
0000
0000
0000
0000
0330
0000
0000
,
1000
0000
0010
0100
0001
0000
0010
0000
,
0001
1000
0100
0000
1010
0000
0000
0000
,
0001
0000
1000
0100
0010
0000
0100
0000
,
0010
0100
1000
0000
1001
0000
0000
0000
,
0010
0100
0000
0100
0010
1000
0010
0000
,
0100
0001
0000
0001
0100
0010
0100
0000
,
0001
0010
0100
0000
0010
0100
1000
0000
,
2002
0000
0000
0000
0000
3003
0000
0000
,
0010
0000
0000
0010
0000
0000
0010
0000
0100
0000
0000
0000
0100
0000
0000
0000
,
0001
0000
0000
0001
0000
0000
0001
0000
0010
0000
0000
0000
0010
0000
0000
0000
,
0100
0000
0000
0100
0000
0000
0100
0000
1000
0000
0000
0000
1000
0000
0000
0000
,
0100
1000
0100
0000
0010
0000
0001
0000
,
1000
0000
0000
1000
0000
0000
1000
0000
0010
0000
0000
0000
0010
0000
0000
0000
,
0100
0000
0000
0100
0000
0000
0100
0000
0001
0000
0000
0000
0001
0000
0000
0000
,
0010
0000
0000
0010
0000
0000
0010
0000
0100
0000
0000
0000
0100
0000
0000
0000
,
1000
0001
1000
0001
,
0010
0100
0010
0000
0001
0000
0001
0000
,
1000
0100
1000
0000
0010
0000
0010
0000
,
0100
0001
0100
0000
0001
0000
0010
0000
,
0100
1000
0100
0000
1000
0000
0001
0000
,
1000
0000
0000
1000
0000
0000
1000
0000
0010
0000
0000
0000
0100
0000
0000
0000
,
0001
0000
0000
0001
0000
0000
0001
0000
0010
0000
0000
0000
0100
0000
0000
0000
,
1000
0000
0000
0100
0000
0000
1000
0000
0010
0000
0000
0000
0100
0000
0000
0000
,
0001
0000
0000
0010
0000
0000
0001
0000
0200
0000
0000
0000
0300
0000
0000
0000
,
0010
0000
1000
0001
1000
0000
0100
0000
,
0010
0001
0010
0000
1010
0000
0000
0000
,
0100
0000
0001
1000
0001
0000
0010
0000
,
0100
1000
0100
0000
0011
0000
0000
0000
,
1000
0010
0000
0010
0100
0001
0100
0000
,
0010
1000
0000
1000
0100
0010
0100
0000
,
1000
0001
0000
0001
0010
0100
1000
0000
,
2002
0000
0000
0000
0000
3003
0000
0000
,
0010
0000
0100
0000
0001
1000
0100
0000
,
1000
0000
0001
0000
0010
0100
1000
0000
,
0010
0000
0100
0000
0001
1000
0010
0000
,
0100
0000
0001
0000
1000
0100
0010
0000
,
0002
0010
0000
0013
,
2000
0010
0000
3010
,
0200
0001
0000
0301
,
0001
0010
0100
0000
0010
0100
1000
0001
;

//---------------dance-single - ----------------
#NOTES:
     dance-single:
     :
     Hard:
     13:
     0.737368,0.647095,0.111328,0.060724,0.576882,510.000000,499.000000,11.000000,6.000000,0.000000,0.000000,0.737368,0.647095,0.111328,0.060724,0.576882,510.000000,499.000000,11.000000,6.000000,0.000000,0.000000:
// measure 0
0000
0000
0000
0000
,  // measure 1
0000
0000
0000
0000
,  // measure 2
0000
0000
0000
0000
,  // measure 3
0000
0000
0000
0000
,  // measure 4
0001
0100
0101
0000
0010
1000
1010
0000
,  // measure 5
1000
0100
1100
0000
0010
0001
0011
0000
,  // measure 6
0001
1000
1001
0000
0100
0010
0110
0000
,  // measure 7
1000
0000
0010
0100
0010
0000
0100
0000
0001
0000
0010
0000
0100
0000
0000
0000
,  // measure 8
1000
0000
0010
0000
1000
0010
0000
0010
0100
0000
0001
0000
0010
0000
0001
0000
,  // measure 9
1000
0000
0100
0000
1000
0001
0000
0001
0010
0000
0001
0000
1000
0000
0100
0000
,  // measure 10
0010
0000
0100
0000
1000
0010
0000
0010
0100
0000
0001
0000
0100
0000
1000
0000
,  // measure 11
0100
0000
0010
0000
1000
0001
0000
0001
0010
0000
0100
0000
1000
0000
0001
0000
,  // measure 12
1000
0000
0010
0000
0100
0010
0000
0010
1000
0000
0001
0000
0010
0000
0100
0000
,  // measure 13
1000
0000
0001
0000
0010
0100
0000
0100
1000
0000
0100
0000
0001
0000
0100
0000
,  // measure 14
1000
0000
0010
0000
0100
0001
0000
0001
0010
0000
0100
0000
1000
0000
0001
0000
,  // measure 15
0100
0000
0010
0100
0010
0000
1000
0000
0001
0000
1000
0000
1001
0000
0000
0000
,  // measure 16
0100
0000
0010
1000
0000
0010
1000
0000
0001
0000
0010
0001
0000
1000
0100
0000
,  // measure 17
1000
0000
0001
0000
0100
0000
0010
2000
0000
0000
0000
0000
3001
0000
0010
0000
,  // measure 18
0001
0000
1000
0100
0000
1000
0010
0000
0100
0000
0001
0010
0000
0100
1000
0000
,  // measure 19
0010
0000
0100
0000
0001
0000
1000
0100
0000
0000
0100
0000
1000
0000
0001
0000
,  // measure 20
0010
0001
0000
0000
0010
0000
0000
0001
1000
0000
0100
0000
0001
0000
0100
0000
,  // measure 21
1000
0010
0000
0000
0010
0000
0000
1000
0001
0000
0100
0000
1000
0000
0100
0000
,  // measure 22
0001
0010
0000
0000
0001
0000
0000
1000
0100
0000
1000
0000
0001
0000
0010
0000
,  // measure 23
0100
0000
1000
0001
1000
0000
0010
0000
0100
0000
0001
0000
1001
0000
0000
0000
,  // measure 24
0010
0000
0100
0001
0000
0100
0001
0000
1000
0000
0010
0100
0000
0010
0100
0000
,  // measure 25
0001
0000
0010
0000
0100
0000
1000
0010
0000
0000
0010
0000
0100
0000
0001
0000
,  // measure 26
1000
0000
0100
0010
0000
0100
1000
0000
0001
0000
0100
0010
0000
0100
0001
0000
,  // measure 27
1000
0000
0001
0000
0100
0000
0010
1000
0000
0000
1000
0000
0001
0000
0010
0000
,  // measure 28
0001
1000
0000
0000
1000
0000
0000
0010
0100
0000
0001
0000
0100
0000
1000
0000
,  // measure 29
0100
0010
0000
0000
0010
0000
0000
1000
0001
0000
0010
0000
1000
0000
0010
0000
,  // measure 30
0001
1000
0000
0000
1000
0000
0000
0010
0100
0000
0001
0000
1000
0000
0100
0000
,  // measure 31
0010
0000
0001
1000
0001
0000
0100
0000
0010
0000
1000
0000
1001
0000
0000
0000
,  // measure 32
0100
0000
0010
0100
0000
0010
0100
0000
0001
0000
0010
0000
0100
0000
1000
0000
,  // measure 33
0001
0000
0010
0001
0000
0010
0001
0000
1000
0000
0010
0000
0100
0000
0010
0000
,  // measure 34
1000
0000
0100
1000
0000
0100
1000
0000
0001
0000
1000
0000
0010
0000
0100
0000
,  // measure 35
0001
0000
0010
0100
0000
0010
0001
0000
1000
0100
1000
0000
0010
0000
0100
0000
,  // measure 36
0001
0000
1000
0100
0000
1000
0010
0000
0100
0000
0001
0000
0010
0000
0100
0000
,  // measure 37
1000
0000
0010
1000
0000
0001
1000
0000
0010
0000
0100
0000
0001
0000
0010
0000
,  // measure 38
0100
0000
1000
0001
0000
1000
0100
0000
0010
0000
0001
0000
1000
0000
0100
0000
,  // measure 39
0010
0000
0100
1000
0000
0100
0010
0000
0001
0000
0100
0000
0010
0000
1000
0000
,  // measure 40
0001
0000
0100
0010
0000
0100
0001
0000
1000
0000
0100
0000
0001
0000
0100
0000
,  // measure 41
1000
0000
0010
0100
0000
0010
1000
0000
0001
0000
0010
0000
0100
0000
1000
0000
,  // measure 42
0010
0000
0100
0001
0000
0100
0010
0000
1000
0000
0010
0000
0100
0000
0001
0000
,  // measure 43
0010
0000
0001
1000
0000
0001
1000
0000
0100
0000
1000
0000
0001
0000
0010
0000
,  // measure 44
0001
0000
1000
0010
0000
1000
0100
0000
1000
0000
0010
0000
0100
0000
0001
0000
,  // measure 45
0010
0000
0001
1000
0000
0010
0100
0000
0010
0000
1000
0000
0100
0000
0010
0000
,  // measure 46
0100
0000
1000
0001
0000
0100
0010
0000
1000
0000
0100
0000
0010
0000
0001
0000
,  // measure 47
1000
0000
0010
0100
0000
0001
0010
0000
0001
0000
1000
0000
1001
0000
0000
0000
,  // measure 48
0010
0000
0100
0001
0000
1000
0100
0000
1000
0000
0010
0100
0000
0001
0010
0000
,  // measure 49
0001
0000
1000
0000
0100
0000
0010
0200
0000
0000
0000
0000
1300
0000
0001
0000
,  // measure 50
0010
0000
0001
1000
0000
0100
1000
0000
0001
0000
0100
0010
0000
0100
0001
0000
,  // measure 51
1000
0000
0100
0000
0010
0000
0001
2000
0000
0000
0000
0000
3010
0000
0100
0000
,  // measure 52
0001
0010
0000
0000
0001
0000
0000
1000
0010
0000
0100
0000
0001
0000
0100
0000
,  // measure 53
0010
1000
0000
0000
0100
0000
0000
1000
0001
0000
0010
0000
0100
0000
0010
0000
,  // measure 54
0001
1000
0000
0000
0010
0000
0000
0100
0010
0000
1000
0000
0010
0000
0001
0000
,  // measure 55
0010
0000
0100
0010
0100
0000
0001
0000
1000
0000
0100
0000
1100
0000
0000
0000
,  // measure 56
1000
0000
0001
0000
0010
0001
0000
0001
0100
0000
0010
0000
1000
0100
0000
0100
,  // measure 57
1000
0000
0001
0000
0010
0001
0000
0001
0010
0000
0100
0000
1000
0000
0100
0000
,  // measure 58
1000
0000
0010
0000
0100
0001
0000
0001
0010
0000
0001
0000
1000
0100
0000
0100
,  // measure 59
0010
0000
0100
0000
1000
0010
0000
0010
0100
0000
0001
0000
1000
0000
0100
0000
,  // measure 60
0020
1000
0000
0031
,  // measure 61
2000
0100
0000
3001
,  // measure 62
0020
1000
0000
0031
,  // measure 63
1000
0000
0010
0100
0010
0000
0100
0000
0001
0000
0010
0000
0100
0000
0010
0001
;
