#TITLE:ZED;
#SUBTITLE:;
#ARTIST:USAO;
#TITLETRANSLIT:;
#SUBTITLETRANSLIT:;
#ARTISTTRANSLIT:;
#GENRE:DUB STEP;
#CREDIT:;
#BANNER:ZED_banner.png;
#BACKGROUND:ZED.png;
#LYRICSPATH:;
#CDTITLE:;
#MUSIC:ZED.ogg;
#OFFSET:-0.800000;
#SAMPLESTART:101.849998;
#SAMPLELENGTH:12.000000;
#LASTBEATHINT:314.502350;
#SELECTABLE:YES;
#BPMS:0.000000=95.000000
,16.000000=190.000000
,93.000000=95.000000
,141.000000=190.000000
;
#STOPS:92.000000=0.947000,
217.000000=0.947000
;
#BGCHANGES:;
#KEYSOUNDS:;
#ATTACKS:;

//---------------dance-single - ----------------
#NOTES:
     dance-single:
     :
     Easy:
     9:
     0.318799,0.406020,0.087670,0.031880,0.000000,280.000000,269.000000,11.000000,4.000000,0.000000,0.000000,0.318799,0.406020,0.087670,0.031880,0.000000,280.000000,269.000000,11.000000,4.000000,0.000000,0.000000:
0000
0000
0000
0000
,
0000
0000
0000
0000
,
0000
0000
0000
0000
,
0000
0000
0000
0000
,
0010
0000
0110
0000
,
1000
0100
1000
0000
,
0001
0000
0101
0000
,
0010
1000
0001
0000
,
0010
0000
1100
0000
,
0001
0010
0001
0000
,
0010
0000
1001
0000
,
0100
0010
1000
0000
,
0010
0000
0000
0010
0000
0000
0000
0000
,
0010
0000
0000
0010
0000
0000
0100
0000
,
0001
0000
0000
0001
0000
0000
0000
0000
,
0001
0000
0000
0001
0000
0000
0010
0000
,
0100
0000
0000
1000
0000
0000
0000
0000
,
1000
0000
0000
0100
0000
0000
1000
0000
,
1000
0000
0000
1000
0000
0000
0000
0000
,
1000
0000
0000
1000
0000
0000
0000
0000
,
0001
0010
0001
1000
,
0010
1000
0001
1000
,
0001
1000
0100
0010
,
1001
0000
0010
0000
0100
0000
0010
0100
,
0001
0000
1000
0000
0100
0000
1000
0010
,
0100
0000
0001
0000
0010
0000
0001
1000
,
0010
0000
1000
0000
0010
0000
0100
0001
,
0001
0000
0010
0000
1001
0000
0100
0010
,
1000
0000
0001
0000
1000
0000
0010
0100
,
0001
0000
2002
0000
3003
0000
0100
0010
,
0100
0000
0001
0000
0001
0000
0010
0100
,
0100
0000
2000
0000
3100
0000
1000
0010
,
0100
0000
0010
0000
1000
0000
0001
0010
,
0100
0000
0010
0000
0001
0000
1000
0001
,
0010
0000
0001
0000
0100
0000
0010
1000
,
1000
0000
0001
0000
0000
0001
0000
0000
,
0000
0000
0010
0000
0000
0010
0000
0000
,
0001
0000
1000
0000
0000
1000
0000
0000
,
0000
0000
0100
0000
0000
0100
0000
0000
,
1000
0000
0010
0000
0000
1001
0000
0000
,
0000
0000
0100
0000
0000
1001
0000
0000
,
0010
0000
0100
0000
0000
0001
0000
0000
,
0010
0000
0001
0000
0000
1000
0000
0000
,
0100
1000
0010
0100
,
0001
0010
0001
1000
,
0000
1000
0010
0100
,
0001
0010
0100
1000
,
0000
0001
0010
0001
,
0100
0001
1000
0010
,
0000
1000
0100
0010
,
0001
1000
0010
0100
,
0000
0001
0010
0100
,
0010
0001
0010
0100
,
1000
0010
0100
0010
,
1000
1001
0100
0010
,
1000
0010
1000
0100
,
0010
0000
0001
0100
,
0001
0010
0001
1000
,
0010
0000
0100
0010
,
1000
0001
1000
0100
,
0010
0000
0001
0100
,
0001
0010
0100
1000
,
1001
0000
0010
1000
,
0010
0100
0010
1000
,
0001
0010
0001
0100
,
0010
1000
0001
0100
,
0010
1000
0100
1000
,
0010
1000
0001
0010
,
0100
1000
0010
0100
,
0010
1000
0001
0001
,
2000
0000
3010
0100
,
0010
1000
0001
0010
,
0001
1000
0100
0000
1000
0000
0010
0000
,
0100
0001
1000
0001
,
0010
0100
1000
0000
0010
0000
1000
0000
,
0001
1000
0100
0010
,
0001
1000
0001
0000
1000
0000
0100
0000
,
0010
0001
1000
0010
,
0100
0010
1000
0001
0000
0000
0000
0000
;

//---------------dance-single - ----------------
#NOTES:
     dance-single:
     :
     Medium:
     13:
     0.565868,0.781431,0.310829,0.207219,0.207219,497.000000,458.000000,39.000000,26.000000,0.000000,0.000000,0.565868,0.781431,0.310829,0.207219,0.207219,497.000000,458.000000,39.000000,26.000000,0.000000,0.000000:
0000
0000
0000
0000
,
0000
0000
0000
0000
,
0000
0000
0000
0000
,
0000
0000
0000
0000
,
1001
0000
0010
0001
,
1000
0000
0000
0010
0000
0000
0100
0000
0001
0000
0000
0000
0000
0000
0000
0000
,
1010
0000
0100
0001
,
0010
0000
0000
0100
0000
0000
1000
0000
0001
0000
0000
0000
0000
0000
0000
0000
,
0110
0000
0001
1000
,
0100
0000
0000
0010
0000
0000
0001
0000
0100
0000
0000
0000
0000
0000
0000
0000
,
1100
0000
0000
0010
0100
0000
0001
0000
,
0010
0000
0000
0100
0000
0000
1000
0000
0001
0000
1000
0000
0010
0000
0000
0000
,
2100
0000
0000
3001
0000
0000
0010
0000
,
0012
0000
0000
1003
0000
0010
0100
0000
,
2010
0000
0000
3100
0000
0000
0010
0000
,
0102
0000
0000
1003
0000
1000
0100
0000
,
1002
0000
0000
0013
0000
0000
0001
0000
,
1002
0000
0000
0103
0000
0010
0100
0000
,
2100
3001
0012
1003
,
1000
0010
0100
0001
0010
0100
1000
0000
,
0001
0010
0100
1000
0010
0100
0001
0000
,
1000
0100
0010
0001
1000
0001
0010
0000
,
0001
0100
0010
1000
0100
0010
0100
0000
,
0110
0000
0000
0000
1000
0000
0000
0100
1000
0001
1000
0000
0001
0000
0000
0100
,
0010
0000
0100
0000
0001
0000
0000
0000
0010
0000
0000
0000
0000
0000
0001
0000
0010
0000
0000
0000
0100
0000
0000
0000
1000
0000
0000
0010
0000
0000
1000
0000
,
0001
0000
0000
0000
1001
0000
0000
0000
0100
0000
0000
0000
0000
0000
0010
0000
1000
0000
0000
0000
0001
0000
0000
0000
1000
0000
0000
0100
0000
0000
0010
0000
,
0001
0000
0000
0000
1000
0000
0000
0000
0101
0000
0000
0000
0000
0000
0010
0000
1000
0000
0000
0000
0100
0000
0000
0000
1000
0000
0000
0010
0000
0000
0100
0000
,
0001
0000
0010
0000
0001
0000
0000
0000
2000
0000
0000
0000
0000
0000
3100
0000
0010
0000
0000
0000
0100
0000
0000
0000
1000
0000
0000
0001
0000
0000
0010
0000
,
0001
0000
0000
0000
0100
0000
0000
0000
0120
0000
0000
0000
0000
0000
1030
0000
0100
0000
0000
0000
1000
0000
0000
0000
0001
0000
0000
0100
0000
0000
0010
0000
,
1000
0000
0100
0000
0010
0000
0000
0000
0002
0000
0000
0000
0000
0000
0000
0000
0003
0000
0000
0000
1001
0000
0000
0000
0100
0000
0000
0010
0000
0000
1000
0000
,
0100
0000
1000
0000
0010
0000
0000
0000
0200
0000
0000
0000
0000
0000
0301
0000
0010
0000
0000
0000
0001
0000
0000
0000
1000
0000
0000
0001
0000
0000
0010
0000
,
0100
0000
1000
0000
0001
0000
0000
0000
1001
0000
0000
0000
0000
0000
0100
0000
0010
0000
1000
0000
0100
0000
0000
0000
1000
0000
0000
0001
0000
0000
0010
0000
,
0001
0000
0100
0000
0010
0000
0000
0000
1000
0000
0000
0100
0000
0000
1000
0000
0010
0000
0100
0000
0001
0000
0000
0000
0010
0000
0000
0100
0000
0000
1000
0000
,
0010
0000
0100
0000
0010
0000
0000
0000
2000
0000
0000
0000
0000
0000
3001
0000
0010
0000
0000
0000
0001
0000
0000
0000
0100
0000
0000
0010
0000
0000
0100
0000
,
0001
0010
0100
0000
2000
0000
0000
3010
0100
0000
0001
0000
1000
0100
0000
0010
,
0001
1000
0010
0000
0210
0000
0000
0000
0000
0000
0001
0000
0000
0000
0000
0000
,
0310
0000
1020
0000
0000
0100
0000
0000
,
1030
0000
2100
0000
0000
0001
0000
0000
,
3100
0000
0012
0000
0000
1000
0000
0000
,
0013
0000
2001
0000
0000
3100
0000
0000
,
1100
0000
1002
0000
0000
0103
0000
0000
,
0101
0000
0210
0000
0000
0001
0000
0000
,
0310
0000
0120
0000
0000
1000
0000
0000
,
0130
0000
1000
0000
0100
1000
0000
0001
,
0010
0000
0001
0000
1000
0001
0000
0010
,
0001
1000
0010
0000
1000
0100
0000
1000
,
0010
0000
1000
0000
0001
0010
0000
0100
,
1000
0001
1000
0000
0010
0100
0000
0001
,
0100
0000
0010
0000
1000
0100
0000
1000
,
0010
1000
0001
0010
0100
0000
1000
0010
,
0100
0000
0001
1000
0100
0010
0001
1000
,
0001
2001
3010
1002
,
0103
0012
1003
2100
,
3010
0000
0010
0100
0010
1000
0100
0010
,
0001
0000
0110
0000
1000
0010
0100
0010
,
1000
0100
0010
0100
1000
0001
1000
0010
,
0100
0010
1000
0000
0001
0010
0100
0010
,
0001
0100
0001
0010
0100
1000
0010
0100
,
0001
0010
0100
0000
0010
0001
1000
0001
,
1000
0010
0100
0010
1000
0100
0010
0001
,
0010
0100
1000
0000
1010
0000
0001
0100
,
0000
0010
1000
0100
1000
0100
0000
0100
,
0010
0100
1000
0000
0101
0000
0010
0100
,
0000
0001
0010
0001
0101
0000
0010
1000
,
0000
0100
1000
0000
1010
0000
0100
0010
,
0000
1000
0100
1000
1010
0000
0100
0010
,
0000
1000
0001
0010
0001
0100
1000
0100
,
0000
0100
0001
0100
0010
1000
0010
0001
,
0000
0001
0010
1000
0100
0001
0100
1000
,
0000
1000
0100
0001
0100
1000
0010
1000
,
0000
1000
1001
0000
0010
0100
0001
0010
,
0001
1000
0100
0010
0100
1000
0001
0010
,
0100
1000
0010
0000
1000
0010
0100
0001
,
1000
0010
0100
0010
1000
0001
0010
0100
,
1000
0001
0100
0000
0001
0010
0100
1000
,
0010
1000
0100
0001
0100
1000
0010
1000
,
0001
0100
0010
0000
1000
0010
0001
0010
,
0100
0001
0100
1000
0100
0010
1000
0001
,
0010
0000
0100
0000
0010
0000
0001
1000
0000
0000
0000
0000
0000
0000
0000
0000
;

//---------------dance-single - ----------------
#NOTES:
     dance-single:
     :
     Hard:
     16:
     0.757147,1.156517,0.605718,0.247069,0.581808,665.000000,589.000000,76.000000,31.000000,0.000000,0.000000,0.757147,1.156517,0.605718,0.247069,0.581808,665.000000,589.000000,76.000000,31.000000,0.000000,0.000000:
// measure 0
0000
0000
0000
0000
,  // measure 1
0000
0000
0000
0000
,  // measure 2
0000
0000
0000
0000
,  // measure 3
0000
0000
0000
0000
,  // measure 4
1200
0000
0000
0310
0000
0000
0011
0000
,  // measure 5
0001
0000
0000
1000
0000
0000
0100
0000
1000
0000
0010
0000
0100
0000
0000
0000
,  // measure 6
0201
0000
0000
0310
0000
0000
1010
0000
,  // measure 7
1000
0000
0000
0001
0000
0000
0010
0000
0001
0000
1000
0000
0100
0000
0000
0000
,  // measure 8
1002
0000
0000
0013
0000
0000
0110
0000
,  // measure 9
0001
0000
0000
1000
0000
0000
0100
0000
1000
0000
0001
0000
0010
0000
0000
0000
,  // measure 10
0210
0000
0000
1300
0000
0000
1001
0000
,  // measure 11
0010
0000
0000
1000
0000
0000
0001
0000
0010
0000
0100
1000
0001
0000
0100
0000
,  // measure 12
0210
0000
0000
0301
0000
0000
0101
0000
,  // measure 13
2010
0000
0000
0000
0000
0000
3100
0000
0000
0000
0100
0000
1000
0010
1000
0000
,  // measure 14
0010
0000
0000
0210
0000
0000
0301
0000
,  // measure 15
0012
0000
0000
1003
0000
0000
0110
0000
,  // measure 16
1100
0000
0000
0202
0000
0000
0303
0000
,  // measure 17
0011
0000
0000
0000
0000
0000
1010
0000
0000
0000
0001
0000
0010
0100
1000
0000
,  // measure 18
0001
0000
1000
1010
0000
0100
0001
0010
,  // measure 19
0001
0000
0000
0000
0010
0000
0110
0000
0000
0000
0010
0001
0010
0000
0100
0000
,  // measure 20
1000
0010
1000
0010
0100
0001
0100
0001
,  // measure 21
0010
0001
0010
0001
1000
0100
1000
0100
,  // measure 22
0010
0000
0100
0000
1000
0000
0001
0000
1000
0001
1000
0001
0010
0100
0010
0100
,  // measure 23
2000
3000
0000
0000
0000
0000
0000
0000
0101
0000
0000
0000
0010
0000
1000
0000
0001
0000
0001
0000
0010
0000
0100
0000
1000
0000
0000
1010
0000
0000
0100
0000
,  // measure 24
0001
0000
0000
0000
0000
0000
0010
0000
0000
0000
0000
0000
0100
0000
0000
0000
0000
0000
0000
0000
0000
0000
0000
0000
1000
0000
0000
0000
0000
0000
0000
0000
0000
0000
0000
0000
0100
0000
0000
0000
0000
0000
0000
0000
0000
0000
0000
0000
0010
0000
0000
0000
0000
0000
0000
0000
0000
0000
0000
0000
0000
0000
0000
0000
0000
0000
0101
0000
0000
0000
0000
0000
0000
0000
0000
0000
0000
0000
0000
0000
0000
0000
0000
0000
0010
0000
0000
0000
0000
0000
0000
0000
0000
0000
0000
0000
1000
0000
0000
0000
0000
0000
0000
0000
0000
0000
0000
0000
0100
0000
0000
0000
0000
0000
0000
0000
0000
0000
0000
0000
0010
0000
0000
0000
0000
0000
0000
0000
0000
0000
0000
0000
0010
0000
0000
0000
0000
0000
0000
0000
0000
0000
0000
0000
0100
0000
0000
0000
0000
0000
0000
0000
1000
0000
0000
0000
0000
0000
0000
0000
0010
0000
0000
0000
0000
0000
0000
0000
0100
0000
0000
0000
0000
0000
0000
0000
0000
0000
0000
0000
0001
0000
0000
0000
0000
0000
0000
0000
0000
0000
0000
0000
,  // measure 25
0010
0000
0000
0000
0000
0000
0000
0000
0001
0000
0000
0000
0000
0000
0000
0000
0100
0000
0000
0000
0000
0000
0000
0000
0010
0000
0000
0000
0000
0000
0000
0000
0000
0000
0000
0000
1000
0000
0000
0000
0000
0000
0000
0000
0000
0000
0000
0000
1001
0000
0000
0000
0000
0000
0000
0000
0000
0000
0000
0000
0000
0000
0000
0000
0000
0000
0000
0000
0000
0000
0000
0000
0000
0000
0000
0000
0000
0000
0000
0000
0000
0000
0000
0000
0100
0000
0000
0000
0000
0000
0000
0000
0000
0000
0000
0000
0010
0000
0000
0000
0000
0000
0000
0000
0000
0000
0000
0000
0010
0000
0000
0000
0000
0000
0000
0000
0000
0000
0000
0000
1000
0000
0000
0000
0000
0000
0000
0000
0000
0000
0000
0000
0001
0000
0000
0000
0000
0000
0000
0000
0000
0000
0000
0000
0010
0000
0000
0000
0000
0000
0000
0000
0000
0000
0000
0000
0000
0000
0000
0000
0000
0000
1100
0000
0000
0000
0000
0000
0000
0000
0000
0000
0000
0000
0000
0000
0000
0000
0000
0000
0001
0000
0000
0000
0000
0000
0000
0000
0000
0000
0000
0000
,  // measure 26
0100
0000
0010
0000
0100
0000
1000
0000
0100
0000
0000
0000
0001
0000
0011
0000
0000
0000
1000
0000
0010
0000
1000
0000
0001
0000
0000
0110
0000
0000
1000
0100
,  // measure 27
1000
0000
0010
0000
0001
0000
0010
0000
2000
0000
0000
0000
0000
0000
3001
0000
0010
0000
0100
0000
0010
0000
0001
0000
1000
0000
0000
0011
0000
0000
0100
0000
,  // measure 28
0010
0000
0000
0000
0000
0000
0000
0000
0000
0000
0000
0000
1000
0000
0000
0000
0000
0000
0000
0000
0000
0000
0000
0000
0100
0000
0000
0000
0000
0000
0000
0000
0000
0000
0000
0000
0000
0000
0000
0000
0000
0000
0000
0000
0000
0000
0000
0000
1001
0000
0000
0000
0000
0000
0000
0000
0000
0000
0000
0000
0000
0000
0000
0000
0000
0000
0100
0000
0000
0000
0000
0000
0000
0000
0000
0000
0000
0000
0000
0000
0000
0000
0000
0000
0010
0000
0000
0000
0000
0000
1000
0000
0000
0000
0000
0000
0100
0000
0000
0000
0000
0000
0000
0000
0000
0000
0000
0000
0010
0000
0000
0000
0000
0000
0000
0000
0000
0000
0000
0000
0001
0000
0000
0000
0000
0000
0000
0000
0000
0000
0000
0000
1000
0000
0000
0000
0000
0000
0000
0000
0000
0000
0000
0000
0001
0000
0000
0000
0000
0000
0000
0000
0010
0000
0000
0000
0000
0000
0000
0000
0100
0000
0000
0000
0000
0000
0000
0000
1000
0000
0000
0000
0000
0000
0000
0000
0000
0000
0000
0000
0100
0000
0000
0000
0000
0000
0000
0000
0000
0000
0000
0000
,  // measure 29
1000
0000
0000
0000
0000
0000
0000
0000
0010
0000
0000
0000
0000
0000
0000
0000
0100
0000
0000
0000
0000
0000
0000
0000
0001
0000
0000
0000
0000
0000
0000
0000
0000
0000
0000
0000
0010
0000
0000
0000
0000
0000
0000
0000
0000
0000
0000
0000
0220
0000
0000
0000
0000
0000
0000
0000
0000
0000
0000
0000
0000
0000
0000
0000
0000
0000
0000
0000
0000
0000
0000
0000
0000
0000
0000
0000
0000
0000
0000
0000
0000
0000
0000
0000
0000
0000
0000
0000
0000
0000
0000
0000
0000
0000
0000
0000
0330
0000
0000
0000
0000
0000
0000
0000
0000
0000
0000
0000
0000
0000
0000
0000
0000
0000
0000
0000
0000
0000
0000
0000
1001
0000
0000
0000
0000
0000
0000
0000
0000
0000
0000
0000
0000
0000
0000
0000
0000
0000
0000
0000
0000
0000
0000
0000
0100
0000
0000
0000
0000
0000
0000
0000
0000
0000
0000
0000
0000
0000
0000
0000
0000
0000
1001
0000
0000
0000
0000
0000
0000
0000
0000
0000
0000
0000
0000
0000
0000
0000
0000
0000
0010
0000
0000
0000
0000
0000
1000
0000
0000
0000
0000
0000
,  // measure 30
0001
0000
0100
0000
0010
0000
0100
0000
0001
0000
0000
0000
1000
0000
0100
0000
0000
0000
1000
0000
0010
0000
0100
0000
0001
0000
0000
0010
0000
0000
0001
1000
,  // measure 31
0100
0000
0000
0000
0000
0000
0000
0000
0000
0000
0000
0000
0010
0000
0000
0000
0000
0000
0000
0000
0000
0000
0000
0000
0011
0000
0000
0000
0000
0000
0000
0000
0000
0000
0000
0000
0000
0000
0000
0000
0000
0000
0000
0000
0000
0000
0000
0000
0200
0000
0000
0000
0000
0000
0000
0000
0000
0000
0000
0000
0000
0000
0000
0000
0000
0000
0000
0000
0000
0000
0000
0000
0000
0000
0000
0000
0000
0000
0000
0000
0000
0000
0000
0000
0310
0000
0000
0000
0000
0000
0000
0000
0000
0000
0000
0000
1000
0000
0000
0000
0000
0000
0000
0000
0000
0000
0000
0000
0100
0000
0000
0000
0000
0000
0000
0000
0000
0000
0000
0000
0010
0000
0000
0000
0000
0000
0000
0000
0001
0000
0000
0000
0000
0000
0000
0000
1000
0000
0000
0000
0000
0000
0000
0000
0001
0000
0000
0000
0000
0000
0000
0000
0000
0000
0000
0000
0000
0000
0000
0000
0000
0000
0101
0000
0000
0000
0000
0000
0000
0000
0000
0000
0000
0000
0000
0000
0000
0000
0000
0000
1000
0000
0000
0000
0000
0000
0000
0000
0000
0000
0000
0000
,  // measure 32
0010
0000
0000
0000
0000
0000
0000
0000
0000
0000
0000
0000
0100
0000
0000
0000
0000
0000
0000
0000
0000
0000
0000
0000
0001
0000
0000
0000
0000
0000
0000
0000
0000
0000
0000
0000
0000
0000
0000
0000
0000
0000
0000
0000
0000
0000
0000
0000
0011
0000
0000
0000
0000
0000
0000
0000
0000
0000
0000
0000
0000
0000
0000
0000
0000
0000
0100
0000
0000
0000
0000
0000
0000
0000
0000
0000
0000
0000
0000
0000
0000
0000
0000
0000
1000
0000
0000
0000
0000
0000
0000
0000
0000
0000
0000
0000
0010
0000
0000
0000
0000
0000
0000
0000
0000
0000
0000
0000
1000
0000
0000
0000
0000
0000
0000
0000
0000
0000
0000
0000
0100
0000
0000
0000
0000
0000
0000
0000
0010
0000
0000
0000
0000
0000
0000
0000
0100
0000
0000
0000
0000
0000
0000
0000
1000
0000
0000
0000
0000
0000
0000
0000
0100
0000
0000
0000
0000
0000
0000
0000
0010
0000
0000
0000
0000
0000
0000
0000
0001
0000
0000
0000
0000
0000
0000
0000
0000
0000
0000
0000
0010
0000
0000
0000
0000
0000
0000
0000
0000
0000
0000
0000
,  // measure 33
0100
0000
0000
0000
0000
0000
0000
0000
0010
0000
0000
0000
0000
0000
0000
0000
0001
0000
0000
0000
0000
0000
0000
0000
1000
0000
0000
0000
0000
0000
0000
0000
0000
0000
0000
0000
0010
0000
0000
0000
0000
0000
0000
0000
0000
0000
0000
0000
0002
0000
0000
0000
0000
0000
0000
0000
0000
0000
0000
0000
0000
0000
0000
0000
0000
0000
0000
0000
0000
0000
0000
0000
0000
0000
0000
0000
0000
0000
0000
0000
0000
0000
0000
0000
0013
0000
0000
0000
0000
0000
0000
0000
0000
0000
0000
0000
1000
0000
0000
0000
0000
0000
0000
0000
0000
0000
0000
0000
0100
0000
0000
0000
0000
0000
0000
0000
0000
0000
0000
0000
0010
0000
0000
0000
0000
0000
0000
0000
0001
0000
0000
0000
0000
0000
0000
0000
0100
0000
0000
0000
0000
0000
0000
0000
0010
0000
0000
0000
0000
0000
0000
0000
0000
0000
0000
0000
0000
0000
0000
0000
0000
0000
1100
0000
0000
0000
0000
0000
0000
0000
0000
0000
0000
0000
0000
0000
0000
0000
0000
0000
0001
0000
0000
0000
0000
0000
0000
0000
0000
0000
0000
0000
,  // measure 34
0100
0000
0010
0000
1000
0000
0000
0000
1001
0000
0000
0000
0010
0000
0100
0000
0000
0000
0010
0000
0100
0000
0010
0000
1000
0000
0000
0100
0000
0000
0010
0001
,  // measure 35
0010
0100
1000
0001
0110
0000
0000
0000
0000
0000
0202
0000
0000
0000
0000
0000
,  // measure 36
0303
0000
0000
0000
1010
0000
0000
0000
0000
0000
1100
0000
0000
0000
0001
0010
,  // measure 37
0100
0010
0001
0000
0010
0000
0000
0000
0000
0000
2002
0000
0000
0000
0000
0000
,  // measure 38
3003
0000
0110
0000
0000
1020
0000
0000
,  // measure 39
0130
0000
1100
0000
0000
0202
0000
0000
,  // measure 40
0303
0000
0011
0000
0000
0101
0000
0010
,  // measure 41
1000
0001
0100
0001
1000
0000
0000
0000
0000
0000
0022
0000
0000
0000
0000
0000
,  // measure 42
0033
0000
1100
0000
0000
1020
0000
0000
,  // measure 43
0130
0000
0001
1000
0100
0010
0000
0010
,  // measure 44
0100
1000
0001
0010
1000
0010
0000
0010
,  // measure 45
0001
1000
0100
0001
0100
1000
0000
0010
,  // measure 46
0100
0001
1000
0010
0001
0010
0000
0100
,  // measure 47
0110
0000
1000
0100
0010
0001
0000
0001
,  // measure 48
0100
0010
1000
0001
0010
0100
0000
1000
,  // measure 49
1001
0000
0010
0100
0001
0100
0010
1000
,  // measure 50
0100
0000
1000
0000
0001
0000
1000
0000
0100
0000
0010
0000
0001
0100
0010
1000
,  // measure 51
0100
1000
0010
0000
1010
0000
0001
0000
,  // measure 52
0011
1000
1100
0001
,  // measure 53
1001
0000
0100
0100
0010
0010
1000
1000
,  // measure 54
0001
0000
0010
0000
0100
0000
1000
0000
0200
0300
0000
0000
0000
0000
0000
0000
0001
0000
0000
0000
0010
0000
0000
0000
1000
0000
0000
0000
0010
0000
0000
0000
,  // measure 55
0001
0010
1000
0010
1000
0100
0001
0100
,  // measure 56
1000
0010
0110
0000
1000
0100
1000
0100
,  // measure 57
0001
0100
1000
0010
0001
0010
1000
0001
,  // measure 58
0100
0010
1010
0000
0001
0010
0001
1000
,  // measure 59
0010
0001
0010
1000
0100
0010
0001
1000
,  // measure 60
0010
0100
0101
0000
0010
1000
0100
0001
,  // measure 61
0000
0001
0100
1000
0001
0011
0000
1000
,  // measure 62
0010
0100
0001
1000
0100
0000
0000
0000
1010
0000
0000
0000
0100
0000
0110
0000
,  // measure 63
0001
0010
0100
1000
1001
0000
0010
0011
,  // measure 64
0001
0000
1000
0010
0100
0010
1000
0000
0001
0000
1000
0000
0010
0000
0110
0000
,  // measure 65
0100
0000
0010
1000
0100
0000
1000
0000
0010
0000
0100
0000
0001
0000
0010
0000
,  // measure 66
0001
0000
1000
0001
0010
0100
1000
0000
0010
0000
1000
0000
0001
0000
0011
0000
,  // measure 67
0000
1000
0001
0010
0001
1000
0010
1100
,  // measure 68
0000
0000
0001
1000
0100
0010
0100
1000
0001
0000
1000
0000
0010
0000
0100
0000
,  // measure 69
0001
0000
0010
0001
0100
0000
0010
0000
1000
0000
1000
0000
0010
0000
0010
0000
,  // measure 70
1000
0100
0010
0001
0010
0000
0001
0000
0100
0000
0001
0000
1000
0000
1020
0000
,  // measure 71
0000
0130
0101
0010
1000
0001
0010
0201
,  // measure 72
0000
0000
0310
1000
0001
1000
0010
0100
0010
0000
1000
0000
0100
0000
1002
0000
,  // measure 73
1000
0000
0013
0000
0100
0000
1000
0001
1000
0000
0010
0000
0100
0000
0012
0000
,  // measure 74
0010
0000
1003
0010
0100
0000
0010
0000
0100
0000
0001
0000
1000
0000
1001
0000
,  // measure 75
0001
0010
0100
0010
1001
0010
0100
0101
,  // measure 76
1000
0000
0010
1000
0001
0010
0001
1000
0010
0100
0001
0000
1000
0000
0100
0000
,  // measure 77
0010
0100
1000
0000
0001
0000
0100
0000
0010
1000
0010
1000
0001
0100
0001
0100
,  // measure 78
0010
1000
0100
0010
0001
1000
0010
0100
0000
0000
0000
0000
0000
0000
0000
0000
;
