#TITLE:Yum Yum Sweetie;
#SUBTITLE:;
#ARTIST:t+pazolite;
#TITLETRANSLIT:;
#SUBTITLETRANSLIT:;
#ARTISTTRANSLIT:;
#GENRE:;
#CREDIT:;
#BANNER:Yum_Yum_Sweetie_banner.png;
#BACKGROUND:Yum_Yum_Sweetie.png;
#LYRICSPATH:;
#CDTITLE:;
#MUSIC:Yum Yum Sweetie.ogg;
#OFFSET:-0.550000;
#SAMPLESTART:12.180000;
#SAMPLELENGTH:11.700000;
#LASTBEATHINT:336.498749;
#SELECTABLE:YES;
#BPMS:0.000000=165.000000
;
#STOPS:156.000000=0.364000,
335.000000=1.091000
;
#BGCHANGES:;
#KEYSOUNDS:;
#ATTACKS:;

//---------------dance-single - ----------------
#NOTES:
     dance-single:
     :
     Easy:
     6:
     0.294605,0.334416,0.135359,0.151284,0.000000,259.000000,242.000000,17.000000,19.000000,0.000000,0.000000,0.294605,0.334416,0.135359,0.151284,0.000000,259.000000,242.000000,17.000000,19.000000,0.000000,0.000000:
0000
0000
0000
0000
,
0000
0000
0000
0000
,
0000
0000
0000
0000
,
0000
0000
0000
0000
,
0010
0100
0001
0000
,
1000
0100
0010
0000
,
0001
0010
0100
1000
,
0220
0000
0330
0000
,
0001
1000
0100
1000
,
0020
0000
0130
0000
,
0100
0010
1000
0100
,
0010
0010
2002
3003
,
0010
0100
0001
1000
,
0200
0000
0310
0000
,
0001
0100
0010
1000
,
0001
0010
1001
0000
,
0100
0100
0100
0000
,
0010
0010
0010
0000
,
1000
1000
1000
0000
,
0001
0001
0001
0000
,
0010
0001
0010
0000
,
0100
1000
0100
0000
,
1000
0010
0100
0001
,
0220
0000
0330
0000
,
1000
0010
0100
0010
,
1000
0001
0001
0000
,
0010
0001
1000
0001
,
0100
0010
0010
0000
,
1000
0001
0010
0200
,
1300
0010
0100
0000
,
1001
0000
0110
0000
,
2002
0000
3003
0000
,
0010
0000
0010
0100
,
0010
0000
1000
0000
,
0001
0000
0001
0100
,
0010
0000
1000
0000
,
0100
1000
0100
0000
,
0010
0001
0010
0000
,
0001
1000
0010
0000
,
0110
0000
0000
1000
,
0010
0100
0000
0001
,
0010
0100
0000
1000
,
0001
0010
0100
1000
,
0000
0101
0000
0010
,
1000
0001
0000
1000
,
0100
0010
0000
0001
,
1000
0010
0100
1010
,
0000
0101
0000
0002
,
0000
0013
0000
2000
,
0000
3010
0000
0002
,
0000
0103
0000
2000
,
0000
3100
0000
0010
,
0100
0001
0100
0010
,
1000
0100
0000
0001
,
0010
0100
1000
0001
,
0100
0010
0000
0001
,
0001
0010
0010
0100
,
0100
1000
0000
1000
,
1000
0010
0010
0100
,
0100
0001
0000
1000
,
0001
0010
0100
0010
,
0000
0011
0000
0001
,
0100
0010
1000
0100
,
0100
0220
0330
0001
,
0010
0100
1000
0010
,
0100
0001
0000
1000
,
0001
0010
0100
1000
,
0010
0010
0000
0100
,
0001
1000
0100
0010
,
1000
0001
0000
0010
,
0001
0100
1000
0001
,
0010
0220
0330
0001
,
1000
0010
0100
0001
,
1000
0100
0000
0010
,
0100
1000
0010
0100
,
0000
1001
0000
0100
,
0100
0000
0000
0010
,
0010
0000
0000
1000
,
1000
0000
0000
0001
,
0001
0000
0000
0001
,
0010
0001
1000
0001
,
0010
0001
0000
1000
,
0010
1000
0100
1000
,
0001
1000
0000
0110
,
1001
0000
0000
0000
;

//---------------dance-single - ----------------
#NOTES:
     dance-single:
     :
     Medium:
     11:
     0.459538,0.568508,0.183133,0.230906,0.063698,404.000000,381.000000,23.000000,29.000000,0.000000,0.000000,0.459538,0.568508,0.183133,0.230906,0.063698,404.000000,381.000000,23.000000,29.000000,0.000000,0.000000:
// measure 0
0000
0000
0000
0000
,  // measure 1
0000
0000
0000
0000
,  // measure 2
0000
0000
0000
0000
,  // measure 3
0000
0000
0000
0000
,  // measure 4
1000
0000
0000
1010
0000
0000
0001
0000
0100
0000
0010
0000
1000
0000
0000
0000
,  // measure 5
0001
0000
0000
0011
0000
0000
1000
0000
0100
0000
0010
0000
0001
0000
0000
0000
,  // measure 6
0100
0000
0000
0110
0000
0000
0001
0000
1000
0000
0000
1001
0000
0000
0010
0000
,  // measure 7
0220
0000
0000
0330
,  // measure 8
0001
0000
0010
0001
1000
0010
1000
0000
,  // measure 9
0001
0000
0000
0001
0000
0000
0010
0000
0200
0000
0000
0000
1300
0000
0000
0000
,  // measure 10
1000
0000
0010
0100
0010
1000
0001
0000
,  // measure 11
0010
0000
0000
0100
0000
0000
1000
0000
2002
0000
0000
0000
3003
0000
0000
0000
,  // measure 12
0010
0000
0100
0010
1000
0100
0010
0000
,  // measure 13
0001
0000
0000
0100
0000
0000
0010
0000
2000
0000
0000
0000
3100
0000
0000
0000
,  // measure 14
1000
0000
0010
1000
0010
0100
0010
0000
,  // measure 15
1000
0000
1000
0001
0010
0100
1000
0000
,  // measure 16
0001
0001
0010
0010
,  // measure 17
0100
0100
1000
1000
,  // measure 18
0010
0010
0100
0100
,  // measure 19
1000
1000
0001
0001
,  // measure 20
0100
0000
0100
0010
0100
0010
0100
0000
,  // measure 21
0001
0000
0001
0010
0001
0010
0001
0000
,  // measure 22
1000
0000
1000
0100
1000
0100
1000
0000
,  // measure 23
2002
0000
0000
3003
,  // measure 24
0010
0000
0100
0001
0100
0010
1000
0000
,  // measure 25
0001
0000
0010
0100
1000
0001
1000
0000
,  // measure 26
0100
0000
1000
0010
0100
0010
1000
0000
,  // measure 27
0001
0000
0100
0010
0100
0001
1000
0000
,  // measure 28
0100
0000
1000
0001
0100
0010
2000
0000
,  // measure 29
3001
0000
0010
0100
1000
0001
0200
0000
,  // measure 30
0310
0010
0100
0000
1000
1000
0001
0000
,  // measure 31
0220
0000
0000
0000
0000
0330
0000
0000
,  // measure 32
0002
0000
0000
0013
0000
1000
0010
0000
,  // measure 33
1020
0000
0130
0100
,  // measure 34
0001
0010
0100
1000
,  // measure 35
0020
0000
0000
0000
0000
0130
0001
0000
,  // measure 36
2001
0000
0000
3010
0000
0001
0010
0000
,  // measure 37
0002
0000
0103
0010
,  // measure 38
1000
0100
0010
0001
,  // measure 39
1001
0000
0000
0100
,  // measure 40
0001
0010
0100
1000
0001
0000
0100
0000
,  // measure 41
0010
1000
0100
0010
0001
0000
0100
0000
,  // measure 42
0010
1000
0001
0010
0100
0000
1000
0000
,  // measure 43
0010
1000
0000
0010
2000
0000
3001
0000
,  // measure 44
0010
0001
0100
0010
1000
0000
0010
0000
,  // measure 45
1000
0010
0100
0001
0010
0000
0001
0100
,  // measure 46
1000
0000
1000
0100
0001
0000
0220
0000
,  // measure 47
0000
0000
0330
1000
,  // measure 48
0000
0010
0000
0001
,  // measure 49
0000
0010
0000
0100
,  // measure 50
0000
1000
0000
0001
,  // measure 51
0000
0100
0000
0001
,  // measure 52
1000
0010
1000
0001
0010
0000
0001
0000
,  // measure 53
1000
0100
1000
0001
0100
0000
0010
1000
,  // measure 54
0010
0000
0100
0001
0100
0000
0001
0000
,  // measure 55
0010
0100
0000
0100
1000
0000
0010
0000
,  // measure 56
0010
0100
0010
0000
0010
1000
0100
0000
,  // measure 57
0100
0010
0100
0000
0100
0000
1000
0000
,  // measure 58
1000
0001
1000
0000
1000
0000
0010
0000
,  // measure 59
0010
0100
0010
0000
0110
0000
1000
0000
,  // measure 60
0001
0000
0010
0000
0100
0000
0010
0000
0001
0000
0000
0000
1000
0000
0000
0010
,  // measure 61
0000
1000
0002
0000
0013
0000
0001
0000
,  // measure 62
0001
0000
0100
0000
0010
0000
1000
0000
0100
0000
0000
0000
0010
0000
0000
0100
,  // measure 63
0000
0010
0220
0000
0330
0000
0100
0000
,  // measure 64
1000
0000
0010
0000
0100
0000
0001
0000
0010
0000
0000
0000
0001
0000
0000
1000
,  // measure 65
0000
0010
2000
0000
3100
0000
1000
0000
,  // measure 66
1000
0010
0100
0001
0010
0000
0001
0000
,  // measure 67
0001
0010
0100
1000
0100
0000
1100
0000
,  // measure 68
0001
0100
0000
0010
1000
0000
0001
0000
,  // measure 69
0010
0100
1000
0001
1000
0000
0010
0000
,  // measure 70
0100
0000
0010
0000
0000
0000
0100
0000
0010
0000
0100
0000
0001
0000
0000
1000
,  // measure 71
0000
0001
2002
0000
3003
0000
0100
0000
,  // measure 72
0001
0000
1000
0000
0100
0000
1000
0000
0001
0000
0000
0000
0100
0000
0000
0010
,  // measure 73
0000
0100
0001
0000
0010
0000
0001
0000
,  // measure 74
0100
0010
1000
0100
1000
0000
0220
0000
,  // measure 75
0000
0000
0000
0000
0000
0000
0000
0000
0330
0000
0000
0000
0001
0000
0000
0101
,  // measure 76
0000
0000
0000
0000
1000
0000
0000
0000
1000
0000
0000
0000
0010
0000
0000
0110
,  // measure 77
0000
0000
0000
0000
0001
0000
0000
0000
0001
0000
0000
0000
1000
0000
0000
1010
,  // measure 78
0000
0000
0000
0000
0100
0000
0000
0000
0100
0000
0000
0000
1000
0000
0000
1100
,  // measure 79
0000
0001
0001
1000
,  // measure 80
0010
0100
0010
1000
0100
0000
1000
0000
,  // measure 81
0001
0010
0100
1000
0001
0000
0100
0000
,  // measure 82
0001
1000
0010
1000
0001
0000
0020
0000
,  // measure 83
0000
0000
0030
0110
,  // measure 84
1001
0000
0000
0000
;

//---------------dance-single - ----------------
#NOTES:
     dance-single:
     :
     Hard:
     15:
     0.716606,0.702274,0.262756,0.238869,0.565323,630.000000,597.000000,33.000000,30.000000,0.000000,0.000000,0.716606,0.702274,0.262756,0.238869,0.565323,630.000000,597.000000,33.000000,30.000000,0.000000,0.000000:
0000
0000
0000
0000
,
0000
0000
0000
0000
,
0000
0000
0000
0000
,
0000
0000
0000
0000
,
0001
0000
0000
0101
0000
0000
1000
0000
0010
0000
0100
0010
0000
0100
0010
0000
,
1000
0000
0000
1100
0000
0000
0001
0000
0010
0000
0100
0010
0000
0100
0010
0000
,
0001
0000
1000
0000
0010
0000
0100
0000
0001
0010
0001
0000
1000
0100
1000
0000
,
2002
0000
0000
3003
,
0010
0000
0100
0000
0001
0010
0000
0100
0000
0000
0100
0000
1000
0000
0010
0000
,
0100
0000
0001
0100
0000
0010
1000
0000
0100
0000
0000
0000
0110
0000
0000
0000
,
0001
0000
1000
0000
0100
1000
0000
0010
0000
0000
0100
0010
0100
0000
0001
0000
,
0010
0000
0000
0011
0000
0000
1000
0000
2002
0000
0000
0000
3003
0000
0000
0000
,
0100
0000
0010
0000
1000
0100
0000
0010
0000
0000
0010
0000
0001
0000
0100
0000
,
0010
0000
1000
0010
0000
0100
0001
0000
0010
0000
0000
0000
0110
0000
0000
0000
,
1000
0000
0001
0000
0010
0001
0000
0100
0000
0000
0010
0100
0010
0000
1000
0000
,
0100
0000
1000
0000
0001
1000
0000
1000
0010
0100
0010
0100
0010
0000
0000
0000
,
1000
0000
0010
0000
1000
0100
0000
0100
0000
0100
0000
0100
0010
0000
0001
0000
,
0100
0000
0010
0000
1000
0001
0000
0001
0000
0001
0000
0001
0010
0000
0100
0000
,
1000
0000
0001
0000
0100
0010
0000
0010
0000
0010
0000
0010
1000
0000
0001
0000
,
0010
0000
0001
0000
1000
0100
0000
0100
0000
0100
1000
0100
1000
0000
0010
0000
,
0100
0000
0001
0000
1000
0100
0000
0100
0000
0100
0000
0100
0010
0000
0001
0000
,
1000
0000
0001
0000
0100
0010
0000
0010
0000
0010
0000
0010
1000
0000
0001
0000
,
0100
0000
0010
0000
1000
0001
0000
0001
0010
0001
0000
0001
1000
0000
0100
0000
,
0220
0000
0000
0330
,
0001
0000
1000
0000
0100
1000
0000
0010
0000
1000
0000
0010
0100
0000
0100
0000
,
0001
0000
0010
0000
0100
0010
0000
0001
0000
0010
0000
0001
0100
0000
0010
0000
,
1000
0000
0100
0000
1000
0010
0000
0100
0000
0010
0000
0100
0001
0000
0100
0000
,
0001
0000
0010
0000
0100
1000
0000
0001
1000
0000
0010
0100
0010
0000
1000
0000
,
0001
0000
0010
0000
0001
1000
0000
0100
0000
0010
0000
0001
2000
0000
0000
0000
,
3001
0000
0010
0000
0100
1000
0000
0001
0000
1000
0000
0010
0200
0000
0000
0000
,
0301
0000
0010
0000
0001
1000
0000
0010
0000
0100
0000
0001
0010
0000
0001
0000
,
1000
0000
0001
0010
0001
0000
1000
0000
0010
0000
0100
0000
1000
0000
0100
0000
,
0020
0000
1030
0200
0000
0310
0001
1000
,
0020
0000
0031
0020
0000
1030
0100
1000
,
0001
0011
1000
1010
,
0120
0000
0000
1030
0000
0001
0010
0100
,
2000
0000
3010
0200
0000
0301
0010
0100
,
2000
0000
3100
0002
0000
0103
1000
0010
,
0100
0101
1000
1010
,
0011
0000
0000
0000
1000
0000
0010
0000
0001
0000
0010
0000
1000
0000
0001
0100
,
0001
0010
0001
1000
0200
0000
1300
0010
,
0100
0000
0110
0000
0000
0000
0001
0000
0010
0000
0001
0000
1000
0000
0010
0100
,
0010
0000
1000
0000
0001
0000
0010
0100
0000
0000
1000
0000
0010
0000
0000
0110
,
0000
0000
1000
0000
0001
0000
0100
0000
1000
0000
0100
0000
0010
0000
1000
0001
,
1000
0010
1000
0100
0010
0001
1000
0010
,
0001
0020
0000
0130
0001
0010
0100
1000
,
0010
0000
0100
0000
0001
0000
1000
0010
1000
0000
0100
0000
0020
0000
0000
0000
,
0000
0000
0000
0000
0000
0000
0001
0000
0031
0000
0000
0000
0001
0000
1000
0010
,
1000
0001
0100
0000
0000
0000
0010
0000
,
1000
0000
0100
0000
0000
0000
0010
0000
0001
0000
0000
0000
0100
0000
0001
1000
,
0001
0000
0010
0000
0100
0000
1000
0010
0000
0000
0100
0000
0002
0000
0000
0000
,
0023
0000
0000
0000
0230
0000
0000
0000
1300
0000
0000
0000
1000
0000
0001
0010
,
0001
0100
0010
1000
0100
0010
0100
1000
,
0010
0000
0200
0000
0000
0000
0301
0000
0010
0000
0001
0000
0100
0000
0010
1000
,
0010
1000
0001
0010
0100
1000
1001
0000
,
0100
0100
0000
0010
0110
0000
0001
0010
,
0001
1000
0000
1000
0000
1000
0000
1000
0010
0000
0100
0000
0010
0000
1000
0000
,
0001
0010
0000
0010
0000
0010
0000
0010
0100
0000
0010
0000
0001
0000
1000
0000
,
0010
0100
0000
0100
0001
0100
0000
0100
0010
0000
0100
0000
0020
0000
0000
0000
,
0000
0000
0030
0000
0110
0000
1000
0001
,
0100
0010
0000
1000
0000
0000
1000
0000
0010
0000
1000
0000
0100
0000
1000
0001
,
0000
0010
0001
0000
1000
0000
0000
0000
1001
0000
0000
0000
0100
0000
0010
0000
,
1000
0010
0000
0100
0000
0000
0001
1000
0001
0000
0100
0000
0001
0000
0000
1010
,
0000
0001
0022
0000
0033
0000
0001
1000
,
0010
0100
0000
0001
0000
0000
0001
0000
0100
0000
0001
0000
0010
0000
0001
1000
,
0000
0100
1000
0000
0001
0000
0000
0000
1001
0000
0000
0000
0010
0000
0100
0000
,
0001
0100
0000
0010
0000
0000
1000
0001
1000
0000
0010
0000
0100
0000
0010
0000
,
0100
0001
0000
1000
0001
1000
0001
1000
0001
0000
0000
0000
0100
0000
0001
0000
,
0010
0000
0100
1000
0000
0000
0010
0000
0100
0000
0010
0000
1000
0000
0001
0000
,
0100
0010
1000
0100
0001
0100
1000
0001
,
0010
0000
0100
0000
1000
0000
0010
0000
0100
0000
0001
0000
0010
0000
0000
0110
,
0000
1000
2002
0000
3003
0000
0010
0100
,
0001
0010
0100
1000
0010
0100
0010
0100
,
1000
0010
0001
0100
1000
0001
0010
0001
,
0100
0010
1000
0100
0001
0100
1000
0001
,
1000
0000
0001
0000
0010
0100
0010
0100
0010
0000
0000
0000
0001
0000
0000
0101
,
0000
0000
1000
0000
0010
0000
0100
0010
0000
0100
0010
0000
1000
0000
0000
1100
,
0000
0000
0010
0000
0100
0000
0001
0010
0000
0001
0010
0000
0001
0000
0000
1010
,
0000
0000
0100
0000
0010
0000
1000
0100
0000
1000
0100
0000
1000
0000
0000
0011
,
0000
0000
1000
0000
0010
0000
0100
0000
0020
0000
0000
0000
0130
0000
0000
1010
,
0000
0000
0100
0000
0001
0000
0010
0000
0100
0000
1000
0000
0010
0000
0000
0101
,
0000
0010
1000
0100
0010
0001
0100
0100
,
0010
0010
1000
1000
0001
0001
0010
0001
,
1000
0010
1000
0000
0010
0000
0100
0000
0001
0000
0010
0000
0110
0000
0000
0000
,
1001
0000
0000
0000
;
