#TITLE:ユキバレ*ぱれいど;
#SUBTITLE:;
#ARTIST:coTatsu;
#TITLETRANSLIT:Yukibare Parade;
#SUBTITLETRANSLIT:;
#ARTISTTRANSLIT:;
#GENRE:;
#CREDIT:;
#BANNER:Yukibare Parade_banner.png;
#BACKGROUND:Yukibare Parade.png;
#LYRICSPATH:;
#CDTITLE:;
#MUSIC:Yukibare Parade.ogg;
#OFFSET:0.000000;
#SAMPLESTART:61.490002;
#SAMPLELENGTH:15.000000;
#LASTBEATHINT:302.500000;
#SELECTABLE:YES;
#BPMS:0.000000=160.000000
;
#STOPS:48.000000=0.125000,
48.333332=0.125000,
48.666668=0.125000,
63.000000=0.125000,
63.333332=0.125000,
63.666668=0.125000,
160.750000=0.375000,
193.000000=0.188000,
193.500000=0.188000,
196.000000=0.188000,
196.500000=0.188000,
243.000000=0.125000,
243.333328=0.125000,
243.666672=0.125000
;
#BGCHANGES:;
#KEYSOUNDS:;
#ATTACKS:;

//---------------dance-single - ----------------
#NOTES:
     dance-single:
     :
     Easy:
     5:
     0.216728,0.280662,0.101140,0.092711,0.000000,180.000000,168.000000,12.000000,11.000000,0.000000,0.000000,0.216728,0.280662,0.101140,0.092711,0.000000,180.000000,168.000000,12.000000,11.000000,0.000000,0.000000:
0000
0000
0000
0000
,
0000
0000
0000
0000
,
0000
0000
0000
0000
,
0000
0000
0000
0000
,
0000
0000
0000
0000
,
1000
0000
1000
0000
,
0001
0000
0001
0000
,
0020
0000
0130
0000
,
2002
0000
3003
0000
,
0001
0010
0001
0000
,
1000
0100
1000
0000
,
0010
0100
0010
0000
,
1000
2000
3000
0001
,
0000
0100
0000
0010
,
0000
1000
0000
0100
,
0000
0010
0000
0001
,
0002
0003
0100
0000
,
0100
0000
0100
0000
,
0100
0000
0010
0000
,
0010
0000
0010
0000
,
0010
0000
1100
0000
,
0001
0000
0010
0001
,
0010
0000
0101
0000
,
0010
0000
1000
0100
,
0010
0000
0001
0010
,
0001
0000
1000
0010
,
1000
0000
0001
1000
,
0001
0000
0100
0010
,
0100
0000
0011
0000
,
1001
0000
1100
0000
,
1001
0000
0010
0000
,
0010
0000
1000
0001
,
2000
0000
3001
0000
,
0001
0000
0010
0000
,
0010
0000
0100
0000
,
0100
0000
2000
0000
,
3001
0010
0001
0000
,
0001
0010
0100
0000
,
0010
0100
1000
0000
,
0000
0000
0010
0000
,
1001
0100
0100
0100
,
0000
0001
0001
0001
,
0000
0010
0100
1000
,
0000
0010
0100
0001
,
0000
1000
0001
1000
,
0000
0001
0010
0100
,
0000
0110
0000
1001
,
0000
0010
0100
1000
,
0000
0001
0001
0000
,
1000
1000
0000
0020
,
0000
0130
0100
0001
,
0000
1000
0000
0100
,
0010
0001
0000
1000
,
0100
0010
0000
0001
,
0000
0001
0000
0001
,
0000
0001
0000
1000
,
0010
1000
0000
0010
,
1000
0010
0000
0100
,
0000
0001
0000
1000
,
0000
0010
0000
1000
,
0000
0100
0000
0010
,
0020
0000
0031
0000
,
0001
0000
1000
0000
,
1000
0000
1100
0000
,
0101
0000
0010
0010
,
0010
0000
1000
0001
,
1000
0000
0001
0010
,
0001
0000
1000
0100
,
0010
0000
0100
0010
,
0001
0000
0001
0100
,
0010
0000
0010
1000
,
0100
0000
2000
0000
,
0000
3000
0002
0000
,
0000
0000
0000
0000
,
0003
0000
0000
0000
;

//---------------dance-single - ----------------
#NOTES:
     dance-single:
     :
     Medium:
     10:
     0.420211,0.540886,0.657407,0.353988,0.269705,349.000000,271.000000,78.000000,42.000000,0.000000,0.000000,0.420211,0.540886,0.657407,0.353988,0.269705,349.000000,271.000000,78.000000,42.000000,0.000000,0.000000:
0000
0000
0000
0000
,
0000
0000
0000
0000
,
0000
0000
0000
0000
,
0000
0000
0000
0000
,
0000
0000
0000
0000
,
0001
0000
0000
1010
0000
0000
1000
0000
0001
0000
0010
0000
,
0001
0000
0000
1100
0000
0000
0010
0000
0100
0000
0001
0000
,
0020
0000
0000
0000
0100
0000
0200
0000
0000
0330
0000
0000
,
2200
0000
0000
0000
0000
3300
0000
0000
,
0001
0000
0000
0101
0000
0000
0010
0000
1000
0000
0001
0000
,
0100
0000
0000
1010
0000
0000
0100
0000
0001
0000
0010
0000
,
0001
0000
0000
1100
0000
0000
0001
0000
0010
0000
0100
0000
,
1000
0010
1000
0200
0000
0000
0000
0000
0000
1300
0000
0000
,
1001
0000
0000
0010
0000
0001
0000
0100
0000
0010
0000
0000
,
1010
0000
0000
1000
0000
0001
0000
0010
0000
0001
0000
0000
,
0101
0000
0000
0010
0000
1000
0000
0100
0000
0010
0001
0010
,
0200
0000
0310
0000
,
0002
0000
0013
0100
,
1000
0000
0010
0000
0100
0000
0001
0000
0010
0000
0100
0000
,
1000
0000
0220
0330
,
2002
3003
0010
0100
,
0001
0000
0000
0010
0000
0000
0100
0000
1000
0000
0001
0000
,
0200
0300
0110
0001
,
1100
0010
1000
1001
,
0220
0330
1000
1100
,
1100
0001
0010
0101
,
0101
0010
1000
1001
,
1001
0100
0011
0110
,
2200
3300
1001
0000
,
1010
0000
0101
0010
,
0202
0000
0000
0303
0000
0000
1000
0000
0000
0010
0000
1000
,
0010
0100
0001
0010
,
0200
0000
1300
0010
,
2000
0000
3001
0010
,
0002
0000
0103
0010
,
2000
0000
3001
0010
,
0001
0100
0110
1000
,
0011
1000
1100
0010
,
0101
0000
0000
1000
0000
0000
0000
0010
0000
0010
0000
0000
,
0100
0000
0010
0000
0100
0000
0001
0000
1000
0000
0001
0000
,
1000
1010
0101
1010
,
0000
0011
1100
0011
,
0000
1001
0110
1001
,
0000
0000
0000
0010
0000
0010
0100
0000
0100
0001
0000
0000
,
1001
1010
1100
1010
,
0000
0000
0000
0001
0000
0100
0000
0001
0000
1001
0000
0000
,
0000
0101
0000
1100
,
0000
0000
0000
0010
0000
1000
0000
0100
0000
0020
0000
0000
,
0031
0000
1010
1010
2020
3030
0000
0000
,
0011
0011
0022
0033
0000
0000
1100
0000
,
0001
0000
0000
0010
0000
0001
0000
0100
0000
0020
0000
0000
,
0000
0000
0000
1030
0000
0000
0000
0000
0000
0001
0000
0001
,
0010
0000
0000
0100
0000
0000
1100
0000
0000
1000
0000
1000
,
0010
0100
0101
0120
,
1030
2100
3001
0012
,
1003
1020
0130
0011
,
0000
1010
0000
1100
,
0000
0101
0000
0002
,
1000
0000
0000
0103
0000
0010
0000
0000
0000
2000
0000
0000
,
0010
0000
0000
3001
0000
0100
0000
0000
0000
0110
0000
0000
,
0001
0000
0000
1000
0000
0100
0000
0010
0000
0001
1000
0001
,
0200
0000
0000
0300
0000
0000
0100
0000
0010
0000
0100
0000
,
0001
0000
0010
0000
0001
0000
1000
0000
0010
0000
1000
0000
,
0100
0000
0110
1000
,
2002
3003
0011
1000
,
2002
3003
0000
0110
,
1000
0000
0010
0000
1000
0000
0100
0000
0000
0011
0000
0000
,
1000
0000
0010
0000
0100
0000
0010
0000
0000
1001
0000
0000
,
0020
0000
0000
0130
0000
0000
0001
0000
0001
0010
0000
0010
,
0100
0000
0100
1000
0000
0000
1010
0000
0000
0100
0000
0000
,
0001
0000
0011
0000
0000
0000
1000
0000
0000
1001
0000
0000
,
0010
0100
0102
0010
,
0103
0000
1010
0001
,
0000
0010
0000
0000
0000
0000
0100
0000
0000
0000
0000
0000
,
2000
0000
0000
0000
,
0000
0000
3000
0000
;

//---------------dance-single - ----------------
#NOTES:
     dance-single:
     :
     Hard:
     14:
     0.658611,0.731786,0.876542,0.328703,0.922898,547.000000,443.000000,104.000000,39.000000,0.000000,0.000000,0.658611,0.731786,0.876542,0.328703,0.922898,547.000000,443.000000,104.000000,39.000000,0.000000,0.000000:
// measure 0
0000
0000
0000
0000
,  // measure 1
0000
0000
0000
0000
,  // measure 2
0000
0000
0000
0000
,  // measure 3
0000
0000
0000
0000
,  // measure 4
0000
0000
0000
0000
,  // measure 5
1100
0000
0000
0010
0000
0000
0001
0000
1001
0000
0100
0010
,  // measure 6
0100
0000
0000
0011
0000
0000
1000
0000
0010
0000
0100
0000
,  // measure 7
0020
0000
0000
0000
1000
0000
1030
0000
0100
0000
0010
0000
,  // measure 8
0012
1000
0200
0303
,  // measure 9
1010
0000
0000
0011
0000
0000
1000
0000
0101
0000
0010
1000
,  // measure 10
0100
0000
0000
1001
0000
0000
0010
0000
0101
0000
0010
1000
,  // measure 11
0001
0000
0000
1100
0000
0000
0010
0000
1100
0000
0001
0000
,  // measure 12
0100
0110
1001
0220
0000
0000
0330
0000
0000
0101
0000
0000
,  // measure 13
1100
0000
0000
0010
0000
0101
0000
0010
1000
0100
0000
0000
,  // measure 14
1010
0000
0000
0100
0000
0011
0000
1000
0001
1000
0000
0000
,  // measure 15
0101
0000
0000
0010
0000
0100
0000
0001
0000
1000
1100
1001
,  // measure 16
0010
0000
0100
0000
0001
0000
0012
0000
0000
0000
0000
0000
,  // measure 17
1003
0000
0000
0010
0100
0001
0010
0000
0000
1001
0000
0000
,  // measure 18
0100
0000
0010
0000
1000
0000
1001
0000
0010
0000
0100
0000
,  // measure 19
0001
0010
0001
0000
0000
0000
0000
0000
0000
0000
0000
0000
2200
0000
0000
0000
0000
0000
3300
0000
0000
0000
0000
0000
,  // measure 20
0010
0000
0100
0000
0010
0000
1010
0000
0000
0100
0001
0010
,  // measure 21
0100
0000
0000
1010
0000
0000
0001
0000
1000
0000
0100
0000
,  // measure 22
0010
0000
0100
0000
1000
0000
1001
0000
0000
0010
0000
0000
,  // measure 23
1001
0100
0011
1100
,  // measure 24
0110
0000
0000
0000
0000
0000
0101
0000
0000
0000
0000
0000
1000
0010
1000
0000
0000
0000
0001
0000
0000
0000
0000
0000
,  // measure 25
1100
0000
0000
0000
0000
0000
0001
0000
0010
0000
0100
0000
1000
0001
1000
0000
0000
0000
0010
0000
0000
0000
0000
0000
,  // measure 26
0101
0000
0000
0000
0000
0000
1000
0000
0100
0000
0010
0000
0001
0100
0001
0000
0000
0000
1000
0000
0000
0000
0000
0000
,  // measure 27
0110
0000
0000
0000
0000
0000
0001
0000
1000
0000
0100
0000
0010
0100
0010
0000
0000
0000
1100
0000
0000
0000
0000
0000
,  // measure 28
0101
0000
0000
0010
0100
0001
0010
0000
0000
0100
1000
0100
,  // measure 29
0010
0000
0000
0001
1000
0001
0010
0100
1000
0010
0100
0001
,  // measure 30
0010
0000
0000
1100
0000
0000
0110
0000
0000
0001
0100
1000
,  // measure 31
0100
0000
0000
1000
0100
0001
1000
0001
0010
0100
0000
0000
,  // measure 32
0220
0330
0001
0101
,  // measure 33
1000
0000
0110
0000
1000
0010
0100
0000
0000
0101
0000
0000
,  // measure 34
0010
0000
1100
0000
0001
0100
0010
0000
0000
0110
0000
0000
,  // measure 35
1000
0000
0010
0000
1000
0001
0020
0000
0000
0032
0000
0000
,  // measure 36
0203
0000
0000
1300
0000
0000
0110
0000
0000
1000
0001
0010
,  // measure 37
0200
0000
0000
1300
0010
0100
0002
0000
0000
1003
0100
0010
,  // measure 38
0001
0000
0000
1100
0000
0000
0000
0001
1000
0010
0000
0000
,  // measure 39
0110
0000
1010
0000
0101
0000
0011
0000
0110
0000
1100
0000
,  // measure 40
2002
0000
3003
0110
0000
0010
1000
0000
1000
0001
1000
0100
,  // measure 41
1000
0010
0100
0001
0000
0001
0010
0000
0010
0001
1000
0010
,  // measure 42
0100
0001
0010
0100
0000
0100
0010
0000
0010
0001
1000
0010
,  // measure 43
0100
0010
1000
0001
0010
0100
1000
0100
0010
0001
0000
0001
,  // measure 44
1000
0000
0000
0110
0000
0000
0101
0000
0000
0010
0000
1100
,  // measure 45
0000
0001
0100
0010
0000
0110
0000
1010
0000
0202
0000
0000
,  // measure 46
0303
0000
0000
0011
0000
0000
1000
0010
0001
0010
0000
0000
,  // measure 47
1000
0010
0001
0010
0000
1010
0000
0101
0000
0022
0000
0000
,  // measure 48
0033
0000
0000
0000
0000
0000
1100
0000
0000
0101
0000
0000
1100
0000
0000
0000
0000
0000
0001
0000
1000
0000
0100
0000
,  // measure 49
0010
0000
0000
0110
0000
0000
1001
0000
0000
0000
0000
0000
0010
0000
0100
0000
0001
0000
0010
0000
0000
0000
0000
0000
,  // measure 50
0010
0100
1000
0010
0000
0101
0000
0010
0000
2010
0000
0000
,  // measure 51
0000
3100
0000
1100
0000
0001
0000
0010
0000
0011
0000
1000
,  // measure 52
0001
0010
0001
1000
0000
0010
0000
0110
0000
0001
0000
1000
,  // measure 53
0000
0110
0000
0100
0000
1000
0000
1010
0000
0200
0000
0000
,  // measure 54
0301
0010
0001
0020
0000
0000
0031
1000
0001
2000
0000
0000
,  // measure 55
3100
0010
0100
0020
0000
0000
0031
0100
1000
0200
0000
0000
,  // measure 56
0310
1000
0100
0001
0000
0101
0000
0100
1000
0020
0000
0000
,  // measure 57
0030
0100
0010
0100
0000
0001
0000
0001
0000
2010
0000
0000
,  // measure 58
3100
0000
0000
0010
0000
0011
0000
0100
0010
0100
0000
0000
,  // measure 59
0102
0000
0000
1003
0000
1010
0000
1000
0100
0010
0000
0000
,  // measure 60
2100
0000
0000
3010
0000
0100
0000
0001
0000
0010
0110
1001
,  // measure 61
0220
0000
0000
0330
0000
0000
1010
0000
1100
0000
1000
0010
,  // measure 62
0100
0000
0101
0000
0011
0000
1001
0000
0011
0000
1100
0000
,  // measure 63
2002
0000
0000
3003
0000
0000
0110
0000
0010
1000
0001
1000
,  // measure 64
0100
0000
0000
0011
0000
0000
1000
0001
0010
0100
0010
0001
,  // measure 65
1000
0010
0100
0010
1000
0100
1000
0000
0000
0101
0000
0000
,  // measure 66
0010
0000
1000
0010
0100
0010
0100
0000
0001
0010
0000
0001
,  // measure 67
1000
0100
1000
0010
0100
0001
1000
0000
1000
0010
0000
0010
,  // measure 68
0200
0000
0000
0301
0010
0001
0010
0000
0010
0100
1000
0100
,  // measure 69
1000
0000
1000
0010
0100
0010
0100
0000
0000
0101
0000
0000
,  // measure 70
1100
0000
1001
0000
0000
0000
0010
0000
0000
1100
0000
0000
,  // measure 71
0001
0110
0002
0010
,  // measure 72
1003
0000
0010
0000
1000
0000
0200
0000
0000
0010
0000
0000
,  // measure 73
0000
1000
0000
0000
0000
0000
0001
0000
0000
0000
0000
0000
,  // measure 74
0020
0000
0000
0000
,  // measure 75
0000
0000
0330
0000
;
