#TITLE:闇夜舞踏会 -緋碧と蝶のためのmasquerade-;
#SUBTITLE:;
#ARTIST:ここなつ Produced by あおいひと with イオ;
#TITLETRANSLIT:Yamiyo butoukai -hiheki to chou no tame no masquerade-;
#SUBTITLETRANSLIT:;
#ARTISTTRANSLIT:CoConatsu Produced by Aoihito with io;
#GENRE:;
#CREDIT:;
#BANNER:Yamiyo butoukai -hiheki to chou no tame no masquerade-banner.png;
#BACKGROUND:Yamiyo butoukai -hiheki to chou no tame no masquerade-bg.png;
#LYRICSPATH:;
#CDTITLE:;
#MUSIC:Yamiyo butoukai -hiheki to chou no tame no masquerade-.ogg;
#OFFSET:-0.700000;
#SAMPLESTART:71.190002;
#SAMPLELENGTH:12.000000;
#LASTBEATHINT:301.000000;
#SELECTABLE:YES;
#BPMS:0.000000=160.000000
;
#STOPS:
;
#BGCHANGES:;
#KEYSOUNDS:;
#ATTACKS:;

//---------------dance-single - ----------------
#NOTES:
     dance-single:
     :
     Easy:
     5:
     0.199026,0.280973,0.118930,0.203881,0.000000,164.000000,150.000000,14.000000,24.000000,0.000000,0.000000,0.199026,0.280973,0.118930,0.203881,0.000000,164.000000,150.000000,14.000000,24.000000,0.000000,0.000000:
0000
0000
0000
0000
,
0000
0000
0000
0000
,
0000
0000
0000
0000
,
0000
0000
0000
0000
,
1001
0000
0000
0000
,
0010
0000
0100
0000
,
0110
0000
0001
0000
,
0010
0000
0001
0000
,
1001
0000
0100
0000
,
0010
0000
1000
0000
,
0100
0000
1000
0000
,
0020
0000
0030
0000
,
0220
0000
0330
0000
,
0100
0000
0001
0010
,
0001
0000
0100
0000
,
0010
0000
1000
0000
,
0100
0000
0010
0000
,
0002
0000
1003
0000
,
0010
0000
0100
0000
,
0001
0000
0010
0000
,
0001
0000
1000
0000
,
0100
0000
1000
0000
,
0010
0000
0100
0000
,
0001
0000
0010
0000
,
0001
0000
0100
0000
,
0010
0000
1000
0000
,
0001
0000
0010
0001
,
0010
0000
0100
1000
,
0100
1000
0001
0100
,
0220
0000
0330
0000
,
2000
0000
3100
0000
,
0002
0000
0013
0000
,
0002
0000
0103
0000
,
2000
0000
3010
0000
,
0100
0001
0010
0000
,
0001
1000
0100
0000
,
1000
0001
0010
0000
,
0220
0000
0330
0000
,
0001
0000
0000
0000
,
0001
0000
0000
0000
,
1000
0000
0100
0000
,
1000
0000
0000
0000
,
1001
0000
0010
0000
,
0110
0000
1000
0000
,
0001
1000
0001
0000
,
1000
0010
0100
0001
,
0020
0000
0030
0000
,
0001
0000
0100
0010
,
0100
0000
0001
0010
,
0200
0000
1300
0000
,
2002
0000
3003
0000
,
0100
0010
1000
0000
,
0200
0000
1300
0001
,
0100
0000
0010
0100
,
0220
0000
0330
0000
,
1000
0000
0001
0010
,
0001
0000
0100
0010
,
0100
0000
0001
0000
,
0022
0000
0033
0000
,
0100
1000
0100
0000
,
1000
0001
1000
0000
,
0001
0000
0100
0000
,
0220
0000
0000
0330
0000
0000
0000
0000
,
1000
0000
0001
0000
,
0100
0000
0010
0000
,
1000
0000
0001
0000
,
0010
0000
0100
0000
,
1000
0010
1000
0000
,
0001
0100
0001
0000
,
0010
0001
0100
0000
,
0010
1000
0100
0000
,
2000
0000
3001
0000
,
0110
0000
0000
0000
,
0001
0000
1100
0000
;

//---------------dance-single - ----------------
#NOTES:
     dance-single:
     :
     Medium:
     10:
     0.370140,0.477845,0.271841,0.382276,0.008495,305.000000,273.000000,32.000000,45.000000,0.000000,0.000000,0.370140,0.477845,0.271841,0.382276,0.008495,305.000000,273.000000,32.000000,45.000000,0.000000,0.000000:
0000
0000
0000
0000
,
0000
0000
0000
0000
,
0000
0000
0000
0000
,
0000
0000
0000
0000
,
0110
0000
0001
0000
0010
0000
0001
1000
,
0100
0000
1000
0000
0010
0100
0001
0000
,
1001
0000
1000
0000
0010
0100
0001
0000
,
0010
0000
0001
1000
0020
0000
0030
0000
,
0110
1000
1100
0001
,
0011
1000
0110
0000
,
1001
0000
0010
0000
0100
0001
0010
0000
,
0002
0000
0000
0003
,
2020
0000
0000
3030
,
0011
0100
1100
0010
,
2000
0000
0000
3001
0100
0000
0010
0000
,
0200
0000
0000
0000
0300
0000
0000
0001
,
0020
0000
0000
0130
1000
0000
0001
0000
,
0100
0000
0220
0000
0000
0330
0000
0001
,
1000
0000
0000
0100
0010
0000
0000
0001
,
0100
0010
0100
0001
,
1000
0000
0100
1000
0100
0000
0010
0000
,
2002
0000
3003
0000
,
0010
0000
0100
0001
0100
0000
0010
0000
,
1000
0000
0100
0010
0100
0000
1000
0000
,
0001
0100
0010
1000
,
0010
0100
0022
0033
,
0200
0000
0000
2300
0000
0000
3200
0000
,
0310
0001
0100
0010
,
1000
0100
1000
0000
0001
0100
0001
0000
,
0220
0000
0330
0000
,
0001
0000
0010
0001
1000
0000
0010
0000
,
1000
0000
0010
0100
0001
0000
0010
0000
,
0001
0000
0010
0100
1000
0000
0010
0000
,
1000
0001
0100
0000
0220
0000
0330
0000
,
2000
0000
0000
3002
0000
0000
0203
0000
,
0302
0000
0000
0023
0000
0000
0032
0000
,
0103
0000
0010
0100
0010
0000
1000
0000
,
0202
0000
0303
0000
,
0020
0000
0000
0130
,
0200
0000
0301
0010
,
0100
1000
0001
0100
,
0020
0000
0000
0200
0000
0000
0330
0000
,
1001
0000
0010
1000
0010
0000
0100
0000
,
0001
0000
0010
0001
0010
0000
0000
0000
,
0001
1000
0100
1000
0000
0001
0100
0001
,
0010
0110
1000
1100
,
0202
0000
0303
0000
,
0110
0000
1000
0100
0000
1000
0001
0000
,
0010
0000
0001
0100
0000
0001
0010
0000
,
0001
0000
0100
0020
0000
0000
1030
0000
,
0001
0010
0100
1000
,
1001
0000
0100
0010
0000
1000
0001
0000
,
0010
0000
0001
0100
0000
0010
1000
0000
,
0100
0000
0010
0002
0000
0000
1003
0000
,
0010
0100
0001
0000
0010
0100
1000
0000
,
1002
0000
0000
0203
0000
0000
0310
0000
,
0210
0000
0000
0302
0000
0000
0013
0000
,
0100
0000
1000
0010
0000
0100
0010
0000
,
2020
0000
0000
0000
3030
0000
0000
0100
,
0001
0000
0000
0010
0100
0000
1000
0000
,
0010
0000
0100
0000
0010
0000
1000
0100
,
1000
0000
0000
0010
0000
0000
0100
0000
0001
0000
0000
0010
0000
0000
0100
0000
,
2000
0000
3001
0000
,
0110
0000
1001
0000
,
0011
0000
1100
0000
,
0001
0000
0100
0000
0001
0000
1000
0100
,
0010
0000
0100
0000
1000
0000
0001
0100
,
0010
0000
1000
0001
0010
0000
0011
0000
,
0001
0000
0100
0010
1000
0000
1100
0000
,
1000
0010
0100
0000
0001
0010
0100
0000
,
0010
0001
1000
0000
0010
0100
0001
0000
,
0010
0001
0100
0010
1000
0001
0010
0100
,
1000
0000
0000
0000
,
0010
0000
0202
0000
,
0000
0000
0000
0000
,
0303
0000
0000
0000
;

//---------------dance-single - ----------------
#NOTES:
     dance-single:
     :
     Hard:
     14:
     0.696592,0.732696,0.373781,0.263346,0.428999,574.000000,530.000000,44.000000,31.000000,0.000000,0.000000,0.696592,0.732696,0.373781,0.263346,0.428999,574.000000,530.000000,44.000000,31.000000,0.000000,0.000000:
// measure 0
0000
0000
0000
0000
,  // measure 1
0000
0000
0000
0000
,  // measure 2
0000
0000
0000
0000
,  // measure 3
0000
0000
0000
0000
,  // measure 4
0010
0000
1000
0100
1000
0000
0001
0000
0010
0000
0001
0000
0200
0000
0000
0000
,  // measure 5
0310
0000
1000
0001
1000
0000
0100
0000
0010
0000
0001
0000
0100
0000
0000
0000
,  // measure 6
0110
0000
0010
1000
0001
0000
0010
0000
0100
0000
1000
0000
0010
0000
0100
0000
,  // measure 7
0001
1000
0100
0000
1000
0001
0010
0000
0001
0000
1000
0000
1100
0000
0000
0000
,  // measure 8
0010
0000
1000
0100
0010
0000
0001
0000
0202
0000
0000
0000
0303
0000
0000
0000
,  // measure 9
0001
0000
0010
0100
1000
0000
0010
0000
2020
0000
0000
0000
3030
0000
0000
0000
,  // measure 10
0100
0000
0001
0010
0001
0000
1000
0000
0010
0000
0100
0000
0010
0000
1000
0000
,  // measure 11
0001
0000
1000
0100
0010
0100
1000
0001
0100
0000
0010
0000
0110
0000
0000
0000
,  // measure 12
2020
0000
0000
3030
,  // measure 13
0011
1100
1010
0101
,  // measure 14
0010
0000
0010
0000
1000
0000
0100
0010
0200
0000
0000
0000
1300
0000
0010
0000
,  // measure 15
0100
0001
0100
1000
0200
0000
0000
0301
,  // measure 16
0010
0010
0100
0010
0001
1000
0010
0001
,  // measure 17
0100
0000
2002
0000
0000
3003
0000
0010
,  // measure 18
0110
0000
1000
0001
0011
0000
1000
0010
,  // measure 19
1010
0000
0000
0010
0100
0000
0000
0100
0001
0000
0010
0000
0110
0000
0000
0000
,  // measure 20
1000
0000
0001
0000
0100
0000
0010
0100
0001
0000
0010
0000
0100
0000
1000
0010
,  // measure 21
0100
0001
0100
1000
0100
0000
0110
0000
,  // measure 22
0001
0000
0010
0000
0001
0000
1000
0010
0100
0000
0001
0000
0010
0000
0000
0000
,  // measure 23
0001
0000
1000
0000
0100
0000
0010
0100
1000
0000
0010
0000
0100
0000
0000
0000
,  // measure 24
0001
0000
0000
0001
1000
0000
0000
1000
0100
0000
0010
0000
0001
0000
0100
0010
,  // measure 25
1000
0000
0001
0000
0010
0000
0001
1000
0010
0000
0000
0000
0101
0000
0000
0000
,  // measure 26
0010
0000
0001
0000
0100
0000
0001
0010
0100
0000
1000
0000
1010
0000
0000
0000
,  // measure 27
0100
0000
0010
0000
1000
0000
0100
0010
0001
0000
1000
0000
1001
0000
0000
0000
,  // measure 28
0010
0100
0010
0100
0020
0000
0000
0000
1030
0100
1000
0100
2000
0000
0000
0000
,  // measure 29
3001
0000
0100
0010
0100
0000
0001
0000
0010
0000
0000
0000
0110
0000
0000
0000
,  // measure 30
1000
0000
0000
1000
0001
0000
0000
0001
0100
0000
0010
0100
0001
0000
0010
0100
,  // measure 31
1000
0100
0010
0100
1000
0001
0100
0000
,  // measure 32
0010
0000
0000
0010
1000
0000
0000
1000
0001
0000
1000
0100
0010
0000
0001
0100
,  // measure 33
0010
0000
1000
0000
0001
0000
0100
0010
0100
0000
0001
0000
1001
0000
0000
0000
,  // measure 34
0200
0000
0010
0320
0000
1000
1030
0000
,  // measure 35
1200
0000
0010
0320
0000
0031
1001
0000
,  // measure 36
0010
0000
0100
0000
0001
0000
0010
0100
1000
0000
0010
0100
0001
0000
0000
0000
,  // measure 37
1000
0001
0010
0100
2002
0000
3003
0000
,  // measure 38
0110
0000
0000
1000
0100
1000
0001
0000
0000
0010
0000
0000
,  // measure 39
0101
0000
0000
0010
0100
0001
0100
0000
0000
0010
0000
0000
,  // measure 40
2000
3200
0320
0031
,  // measure 41
0101
0000
0000
0001
0010
0100
1000
0000
0000
0010
0000
0000
,  // measure 42
0100
0000
0001
0010
0001
0000
1000
0000
0010
0000
0000
0000
0010
0000
1000
0000
,  // measure 43
0100
1000
0010
0100
0001
0000
1100
0000
,  // measure 44
0010
0100
0010
1000
0100
0001
0100
1000
,  // measure 45
0001
0000
0000
0001
1000
0000
0000
1000
0010
0000
0000
0010
0100
0000
0000
0100
,  // measure 46
0010
0000
1000
0100
0010
0100
1000
0001
0200
0000
0000
0000
0310
0000
0000
0000
,  // measure 47
0101
0000
0000
0001
0010
0000
0000
0010
0100
0000
1000
0010
1000
0000
0001
0000
,  // measure 48
1000
0000
0000
1000
0010
0000
0000
0010
0100
0000
0001
0010
0001
0000
1000
0000
,  // measure 49
0010
0000
0100
0010
1000
0000
0100
0000
1000
0000
0010
0000
0100
0000
0001
0000
,  // measure 50
0010
0000
0001
0010
0100
0000
0010
0000
0001
0000
0100
0000
0010
0000
0000
0000
,  // measure 51
1010
0000
0000
0010
0100
0000
0000
0100
0001
0000
0010
0100
1000
0000
0010
0000
,  // measure 52
1000
0000
0000
1000
0100
0000
0000
0100
0010
0000
0001
0100
0001
0000
0010
0000
,  // measure 53
0001
0000
0100
0000
1000
0000
0100
0000
0001
0000
0010
0100
1000
0000
0001
0000
,  // measure 54
1000
0000
0010
0000
0001
0000
0010
0000
1000
0000
0100
0010
0100
0000
0000
0000
,  // measure 55
1100
0000
0000
1000
0001
0000
0000
0001
0100
0000
0010
0000
0100
0010
1000
0000
,  // measure 56
0001
0000
0000
0001
1000
0000
0000
1000
0010
0000
0100
0001
1000
0000
0100
0000
,  // measure 57
0010
0000
0001
0100
0001
0000
0020
0000
0000
0000
0031
0000
0011
0000
0000
0000
,  // measure 58
0100
0000
1000
0010
1000
0000
0200
0000
0000
0000
1300
0000
1100
0000
0000
0000
,  // measure 59
0001
0000
0100
0010
0100
0000
0001
0000
0010
0000
0100
0000
1000
0000
0010
0000
,  // measure 60
1000
0000
0010
0100
0010
0000
1000
0000
0100
0000
0010
0000
0001
0000
1000
0000
,  // measure 61
1010
0000
0000
0011
0000
0000
0101
0000
1001
0000
0000
1100
0000
0000
0011
0000
,  // measure 62
0220
0330
0001
1000
,  // measure 63
1001
0000
0000
0000
0010
0100
0001
1000
0020
0000
0000
0000
1030
0000
0000
0000
,  // measure 64
1010
0000
0000
0000
1000
0100
0010
0001
0200
0000
0000
0000
0310
0000
0000
0000
,  // measure 65
0100
0000
0001
0000
0010
0000
0001
0100
0010
0000
1000
0000
0100
0000
1000
0000
,  // measure 66
0010
0000
0100
0000
0010
0000
1000
0100
0010
0000
0001
0000
1001
0000
0000
0000
,  // measure 67
0010
0000
0100
0000
0001
0010
0100
0000
1000
0000
0010
0000
1000
0100
0010
0000
,  // measure 68
0001
0000
1000
0000
0100
1000
0010
0000
0100
0000
0001
0000
1000
0010
0100
0000
,  // measure 69
0001
0000
1000
0100
0010
0000
0100
1000
0010
0000
0100
0000
0100
0000
0000
0000
,  // measure 70
0010
0000
0100
0001
1000
0000
0100
1000
0001
0000
0100
0000
0100
0000
0000
0000
,  // measure 71
0010
0000
1000
0100
0010
0000
0001
1000
0100
0000
0010
0000
0001
0100
0001
0100
,  // measure 72
0001
0000
1000
0010
1000
0000
0100
0000
0001
0000
1000
0000
0010
0000
0001
0000
,  // measure 73
1000
0000
0022
0000
,  // measure 74
0000
0000
0000
0000
,  // measure 75
0033
0000
0000
0000
;
