#TITLE:Xymatic Scope;
#SUBTITLE:;
#ARTIST:MasKaleido feat. ぁゅ;
#TITLETRANSLIT:;
#SUBTITLETRANSLIT:;
#ARTISTTRANSLIT:MasKaleido feat. ayu;
#GENRE:;
#CREDIT:;
#BANNER:Xymatic_Scope_banner.png;
#BACKGROUND:Xymatic_Scope_bg.png;
#LYRICSPATH:;
#CDTITLE:;
#MUSIC:Xymatic Scope.ogg;
#OFFSET:-0.650000;
#SAMPLESTART:43.529999;
#SAMPLELENGTH:11.300000;
#LASTBEATHINT:286.333344;
#SELECTABLE:YES;
#BPMS:0.000000=85.000000
,13.000000=170.000000
,276.000000=140.000000
,278.000000=115.000000
,280.000000=95.000000
,282.000000=80.000000
,283.000000=50.000000
,284.000000=22.000000
;
#STOPS:179.000000=0.176000,
179.250000=0.176000
;
#BGCHANGES:;
#KEYSOUNDS:;
#ATTACKS:;

//---------------dance-single - ----------------
#NOTES:
     dance-single:
     :
     Easy:
     5:
     0.200045,0.247217,0.069152,0.190167,0.000000,162.000000,154.000000,8.000000,22.000000,0.000000,0.000000,0.200045,0.247217,0.069152,0.190167,0.000000,162.000000,154.000000,8.000000,22.000000,0.000000,0.000000:
0000
0000
0000
0000
,
0000
0000
0000
0000
,
0000
0000
0000
0000
,
0000
0010
0000
0100
,
0010
1000
0000
0100
,
1000
0001
0000
1000
,
0001
0010
0000
0220
,
0330
0010
0000
0001
,
1000
0010
0000
0100
,
0010
1000
0000
0100
,
1000
0001
0000
2002
,
3003
0100
0000
0010
,
0000
0100
0000
0001
,
0000
0010
0100
1000
,
0000
0001
0100
0010
,
0000
1000
0000
0001
,
0000
0010
0000
0100
,
0000
2000
0000
3010
,
0000
0002
0000
0103
,
0000
0110
0000
0001
,
0000
1000
0100
1000
,
0000
2000
0000
3001
,
0000
0010
0000
1001
,
0000
0010
0000
0100
,
0000
0001
0000
0010
,
0000
0001
1000
0001
,
0000
0200
0000
0300
,
0000
0010
0000
0010
,
0100
0010
0000
1000
,
0000
0100
0000
1000
,
0001
1000
0000
0010
,
0000
0100
0001
0100
,
0000
0010
1000
0010
,
0000
2002
0000
0000
,
0000
3003
0000
0000
,
0000
0010
0001
0010
,
0000
0100
1000
0100
,
0000
2000
0000
3010
,
0000
0002
0000
0103
,
0000
0010
0000
0100
,
0010
0200
0000
0000
,
0300
0001
0000
0001
,
0000
0010
0000
0010
,
0000
0100
0000
0100
,
0000
1000
0000
1000
,
0001
0000
0010
0000
,
0001
1000
0001
0000
,
1000
0000
0010
0000
,
1000
0001
1000
0000
,
0100
1000
0100
0000
,
0010
0001
0010
0000
,
0002
0000
0103
0000
,
2000
0000
3010
0000
,
0110
0000
0000
0000
,
1001
0000
0000
0000
,
0110
0000
0000
0000
,
0001
0000
1000
0000
,
0020
0000
0130
0000
,
2000
0000
3100
0000
,
0001
0000
0100
0001
,
0200
0000
0000
0000
0000
0300
0000
0000
,
0010
0000
1000
0100
,
0020
0000
0031
0000
,
1000
0000
0001
0010
,
0200
0000
1300
0000
,
0001
0100
0001
0000
,
1000
0100
1000
0000
,
0010
0000
0010
0000
,
0100
0000
0100
0000
,
0002
0000
1003
0000
,
0100
0000
0000
0000
0020
0000
0000
0030
,
0000
0000
1000
0000
;

//---------------dance-single - ----------------
#NOTES:
     dance-single:
     :
     Medium:
     9:
     0.353167,0.370825,0.112371,0.371689,0.030254,286.000000,273.000000,13.000000,43.000000,0.000000,0.000000,0.353167,0.370825,0.112371,0.371689,0.030254,286.000000,273.000000,13.000000,43.000000,0.000000,0.000000:
0000
0000
0000
0000
,
0000
0000
0000
0000
,
0000
0000
0000
0000
,
0000
0000
0010
0000
0100
0000
0001
0010
,
0100
0000
1000
0000
0010
0000
1000
0001
,
0100
0000
0001
0000
0010
0000
0100
1000
,
0001
1000
0001
0220
,
0330
0000
0001
0000
0010
0000
0001
1000
,
0100
0000
1000
0000
0010
0000
1000
0001
,
0100
0101
0000
1100
,
0000
0000
0010
0100
0010
0100
0000
0001
,
0001
0000
2000
0000
3100
0000
1000
0010
,
1000
0000
0002
0000
0013
0000
0001
0100
,
0001
0000
0100
0000
0010
0000
1000
0001
,
1000
0001
0010
0220
,
0330
0000
2000
0000
3100
0000
1000
0010
,
1000
0000
0002
0000
0013
0000
0001
0100
,
0001
0000
0010
0000
0001
0000
1000
0010
,
1000
0100
1000
2002
,
3003
0200
0000
1000
,
0300
0020
0000
0001
,
0030
2000
0000
3010
,
0100
0000
0001
0000
0010
0000
0100
0010
,
0100
2000
0000
3020
,
0000
0230
0000
0302
,
0000
0000
0000
0000
0013
0000
0000
0000
0100
0000
0000
0000
1000
0000
0000
0001
,
0000
1000
0000
0100
0010
0000
0010
0200
,
0000
0000
1300
0000
0010
1000
0000
0001
,
0000
0010
0000
0001
0100
0000
0010
0000
,
0100
0001
1000
0100
,
0010
0000
0001
0000
1000
0001
0000
1000
,
0001
0000
0010
0000
0100
1000
0000
0001
,
0000
1000
0000
0100
0010
0000
0001
0000
,
0010
0001
1000
1100
,
0000
0010
0000
0100
0000
0010
0000
2000
,
0000
0000
3001
0000
0010
0000
0001
0100
,
0010
0000
1000
0000
0100
0000
1000
0010
,
0100
0001
0010
0001
,
1000
0100
0000
0010
0000
0220
0000
0000
,
0330
0001
0010
0100
,
1000
0002
0000
0000
0000
1000
0000
1003
,
0000
0200
0000
0320
,
0000
2030
0000
3200
,
0000
0320
0000
0230
,
0000
0000
0000
0000
2300
0000
0000
0000
0000
0000
0000
0000
3001
0100
0010
0000
,
0100
0000
0001
0000
0010
0000
0001
1000
,
0000
0010
1000
0000
0100
0000
1000
0000
,
0010
0000
0100
0000
0001
0010
0001
0000
,
1000
0010
2200
3300
,
0010
0000
0001
0000
1000
0001
1000
0000
,
0010
0100
0010
0000
1000
0000
0100
0000
,
0010
0000
0100
0000
1000
0001
1000
0000
,
0010
0100
0010
0100
0001
0000
0000
0000
,
2002
0000
0000
0000
3003
0000
0000
0101
,
0000
0010
1000
0100
,
2002
0000
3003
0000
,
0000
0000
0000
0000
1010
0000
0000
0000
0001
0000
0000
0010
0000
0000
0100
0000
,
2000
0000
0010
0000
,
3002
0000
0010
0000
,
0103
0000
0010
0000
0100
0010
0000
0100
,
0000
0001
1000
0001
0000
2000
0000
0000
,
3010
0000
0100
0010
0000
1000
0000
0100
,
0000
1000
0001
0000
0010
0000
0001
0000
,
0100
0000
0010
0000
1000
0001
1000
0001
,
0000
0010
0000
0220
0000
0000
0330
0000
,
0100
0000
1000
0000
0001
0000
0100
0010
,
0000
1000
0000
0100
0000
0010
0001
0000
,
1000
0000
0001
0000
0010
0001
0010
0000
,
0100
0000
1000
0000
0010
1000
0010
0000
,
0200
0000
0302
0000
,
0013
0100
2000
0000
,
3001
0100
0010
0100
0010
1000
0100
0000
0000
0000
0000
0000
;

//---------------dance-single - ----------------
#NOTES:
     dance-single:
     :
     Hard:
     13:
     0.602606,0.711162,0.293894,0.311182,0.155591,488.000000,454.000000,34.000000,36.000000,0.000000,0.000000,0.602606,0.711162,0.293894,0.311182,0.155591,488.000000,454.000000,34.000000,36.000000,0.000000,0.000000:
// measure 0
0000
0000
0000
0000
,  // measure 1
0000
0000
0000
0000
,  // measure 2
0000
0000
0000
0000
,  // measure 3
0000
0000
0000
0000
0010
0000
1000
0100
1000
0000
0001
0000
0100
0000
0010
0000
,  // measure 4
1000
0000
0100
0000
0010
0000
0001
0010
0001
0000
1000
0000
0001
0000
0010
0000
,  // measure 5
0100
0000
1000
0000
0010
0000
0100
0001
0100
0000
0010
0000
1000
0000
0100
0000
,  // measure 6
0010
0000
0001
0000
0100
0000
0010
1000
0010
0000
1000
0000
0100
0000
0001
0000
,  // measure 7
0100
0000
1000
0000
0010
0000
1000
0100
1000
0000
0001
0000
0010
0000
0100
0000
,  // measure 8
0010
0000
0001
0000
1000
0000
0010
0100
0010
0000
1000
0000
0001
0000
0010
0000
,  // measure 9
0100
0000
1000
0000
0010
0000
1000
0001
1000
0000
0010
0000
1000
0000
0100
0000
,  // measure 10
0010
0000
0001
0000
1000
0000
0001
0010
0100
0000
1000
0000
0000
0000
0001
0000
,  // measure 11
1001
0000
0100
0001
0100
1000
0100
0001
,  // measure 12
0010
0100
0000
1000
0100
0001
0100
1000
,  // measure 13
0010
0100
0001
0010
1000
0001
0100
1000
,  // measure 14
0001
1000
0000
1000
0010
0001
1000
0100
,  // measure 15
0002
0000
0103
0010
1000
0001
0010
0100
,  // measure 16
1000
0010
0000
0100
0001
0010
0001
1000
,  // measure 17
0100
0010
0001
1000
0100
0001
1000
0010
,  // measure 18
0001
1000
0000
1000
0001
0010
1000
0001
,  // measure 19
0200
0000
1300
0010
0001
0010
1000
0000
,  // measure 20
0001
0010
0000
0010
0001
1000
0010
0000
,  // measure 21
0110
0000
0001
0100
1000
0100
0001
0000
,  // measure 22
1000
0010
0000
0010
0100
0010
1000
0000
,  // measure 23
1100
0000
0002
0000
0000
0013
0000
0100
,  // measure 24
0000
1000
0000
1000
0001
0100
0000
0010
,  // measure 25
0010
0000
0000
0000
1010
0000
0000
0000
1100
0000
0000
0000
0011
0000
0000
1001
,  // measure 26
0000
0200
0000
0310
1000
0001
0000
0220
,  // measure 27
0330
0000
1000
0001
0010
0100
0010
0001
,  // measure 28
1000
0010
0000
0010
0100
0001
1000
0100
,  // measure 29
0020
0000
0130
1000
0001
1000
0010
0100
,  // measure 30
0010
1000
0000
1000
0001
0010
0100
0010
,  // measure 31
0110
0000
0000
0000
0010
0000
0000
0010
0001
0000
0000
0001
0100
0000
0000
0100
,  // measure 32
0010
1000
0100
0010
0001
0010
0100
0000
,  // measure 33
1100
0000
0101
0000
0010
1000
0010
0001
,  // measure 34
0010
0000
0100
0000
0000
0000
0010
0100
0010
0100
0010
0100
0000
0000
0220
0000
,  // measure 35
0330
0000
1000
0001
0010
0100
1000
0001
,  // measure 36
1000
0010
0100
1000
0100
0001
0010
0100
,  // measure 37
2000
0000
3001
0100
0001
0010
0100
0010
,  // measure 38
0001
1001
0000
0110
0000
2002
0000
0000
,  // measure 39
3003
0000
1000
0010
0100
0001
0010
0100
,  // measure 40
1000
0001
1000
0000
0000
0000
0010
0000
0000
0000
0110
0000
0000
0000
0100
0000
,  // measure 41
0001
0020
0000
0032
,  // measure 42
0000
0000
0000
0000
2003
0000
0000
0000
0000
0000
0000
0000
3100
0000
0000
0110
,  // measure 43
0000
0010
0002
0000
0000
0000
2003
0000
,  // measure 44
0000
0000
0000
0000
3020
0000
0000
0000
0000
0000
0000
0000
0130
0110
0010
0000
,  // measure 45
2000
0000
0000
0000
3010
0000
0100
0010
0100
0000
0001
0000
0010
0000
0001
0000
,  // measure 46
0100
1000
0100
0001
0010
0100
1000
0001
,  // measure 47
1000
0100
0001
0100
1000
0010
0001
0010
,  // measure 48
1000
0001
0100
0010
0001
0010
0110
0000
,  // measure 49
0001
0000
1000
0010
2000
0000
0000
0000
3100
0000
0010
0000
0001
0000
0100
0000
,  // measure 50
0001
0000
0010
0100
0010
0000
0100
0000
1000
0000
0010
0000
0100
0000
0000
0000
,  // measure 51
0001
1000
0010
0100
0001
1000
0100
0010
,  // measure 52
0000
0010
0100
2000
0002
0000
3003
0000
,  // measure 53
0110
0000
0000
0010
0000
0100
0000
1001
,  // measure 54
0000
1000
1001
0000
0100
0000
0010
0000
,  // measure 55
0101
0010
1000
0001
,  // measure 56
1000
0000
0000
0000
1100
0000
0000
0000
0011
0000
0000
0110
0000
0000
1000
0000
,  // measure 57
0002
0000
0100
0100
0000
0013
0000
0100
,  // measure 58
2000
0010
0100
3010
,  // measure 59
0110
0000
1000
0100
0001
0100
1000
0010
,  // measure 60
0000
0000
1000
0001
1000
0001
1000
0001
0000
0000
2002
0000
3003
0000
0000
0000
,  // measure 61
0001
1000
0100
0010
0001
1000
0001
0100
,  // measure 62
0010
0001
0010
1000
0100
0010
0002
0000
,  // measure 63
1003
0000
0000
1000
0010
0000
0000
0010
0100
0000
0001
0000
1000
0000
1001
0000
,  // measure 64
0000
0110
0000
2002
0000
0000
3003
0000
,  // measure 65
0001
0000
0100
0000
0010
0000
1000
0000
0100
0000
0010
0000
0001
1000
0001
0000
,  // measure 66
0100
0010
1000
0001
0010
0100
0200
0000
,  // measure 67
1300
0010
0001
1000
0100
0001
0010
0000
,  // measure 68
0001
0100
1000
0001
0010
1000
0100
0000
,  // measure 69
1010
0000
0100
0001
0010
0100
1000
0001
,  // measure 70
1002
0000
0023
0000
0230
0000
2300
3000
,  // measure 71
0100
0001
1000
0001
0100
0010
1000
0010
0100
0001
0010
1000
2002
3003
0000
0000
0000
0000
0000
0000
0000
0000
0000
0000
;
