#TITLE:Why did you go away;
#SUBTITLE:;
#ARTIST:jun with TAHIRIH;
#TITLETRANSLIT:;
#SUBTITLETRANSLIT:;
#ARTISTTRANSLIT:;
#GENRE:LOVERS EUROBEAT;
#CREDIT:;
#BANNER:Why_did_you_go_away_banner.png;
#BACKGROUND:Why_did_you_go_away.png;
#LYRICSPATH:;
#CDTITLE:;
#MUSIC:Why did you go away.ogg;
#OFFSET:-0.900000;
#SAMPLESTART:48.889999;
#SAMPLELENGTH:12.000000;
#LASTBEATHINT:303.000000;
#SELECTABLE:YES;
#BPMS:0.000000=160.000000
;
#STOPS:
;
#BGCHANGES:;
#KEYSOUNDS:;
#ATTACKS:;

//---------------dance-single - ----------------
#NOTES:
     dance-single:
     :
     Easy:
     6:
     0.253301,0.287282,0.135740,0.127257,0.000000,209.000000,193.000000,16.000000,15.000000,0.000000,0.000000,0.253301,0.287282,0.135740,0.127257,0.000000,209.000000,193.000000,16.000000,15.000000,0.000000,0.000000:
0000
0000
0000
0000
,
0000
0000
0000
0000
,
0001
1000
0010
1000
,
0010
0000
0100
0000
,
0010
0000
1000
0100
,
1000
0000
0001
0100
,
0001
0000
0010
0100
,
0010
0000
1001
0000
,
1000
0010
0100
0010
,
1000
0000
0001
0000
,
0100
0010
1000
0001
,
0010
0000
0011
0000
,
0001
1000
0100
1000
,
0010
0000
0110
0000
,
1000
0001
0100
0010
,
1001
0000
0000
0000
,
0020
0000
0000
0030
,
0100
0100
0100
0000
,
0001
1000
0100
0000
,
1000
0010
0100
0000
,
0001
0010
0100
0000
,
1000
0001
0010
0000
,
0100
0000
1000
0001
,
0010
0000
1001
0000
,
0200
0000
0310
1000
,
0010
0000
0100
0000
,
0002
0000
1003
0010
,
1000
0000
0110
0000
,
0100
0001
0100
0000
,
0010
1000
0010
0000
,
1000
0001
0100
0010
,
0220
0000
0330
0000
,
0001
0000
1000
0010
,
0100
0000
0010
0000
,
1000
0000
0001
0010
,
0100
0000
1001
0000
,
1000
0000
0010
0100
,
0010
0000
1000
0001
,
0010
0000
0001
0100
,
0001
0000
1000
0000
,
0110
0000
0001
0000
,
0110
0000
1000
0000
,
0110
0000
0010
1000
,
0001
0000
1000
0000
,
2002
0000
3003
0000
,
0010
0000
0100
0010
,
1000
0000
0001
0000
,
0200
0000
0310
0000
,
1000
0100
0010
0100
,
1000
0000
0001
0000
,
0100
0010
0001
0010
,
0100
0000
0010
0000
,
1000
0001
0010
0100
,
1000
0000
1001
0000
,
1000
0100
0010
0001
,
1001
0000
0000
0000
,
0020
0000
0000
0000
,
0030
0000
0100
0100
,
0002
0000
0000
0000
,
2003
0000
0000
3000
,
0010
0100
0001
0100
,
0010
0000
1000
0000
,
0100
1000
0001
1000
,
0100
0000
0010
0000
,
0001
0100
0010
0100
,
0001
0000
1000
0000
,
1010
0000
0100
0001
,
0101
0000
0010
1000
,
0002
0000
0013
0100
,
2000
0000
3000
0000
,
0010
0100
0010
0100
,
0001
1000
0001
0000
,
2000
0000
3010
0100
,
0002
0000
0013
0000
,
0001
0000
0000
1000
0000
0001
0000
1000
,
0000
0010
0000
0000
;

//---------------dance-single - ----------------
#NOTES:
     dance-single:
     :
     Medium:
     11:
     0.447216,0.446883,0.135740,0.186643,0.038177,369.000000,353.000000,16.000000,22.000000,0.000000,0.000000,0.447216,0.446883,0.135740,0.186643,0.038177,369.000000,353.000000,16.000000,22.000000,0.000000,0.000000:
0000
0000
0000
0000
,
0000
0000
0000
0000
,
0001
0000
0100
0010
0000
1000
0000
0100
,
1000
0010
0000
0100
0010
0000
0100
0000
,
0001
0000
0010
0001
0000
1000
0100
0000
,
1000
0000
0010
0100
0000
0001
0010
0000
,
0001
0000
1001
0000
1000
0010
0100
0001
,
0100
0010
0000
0220
0000
0000
0330
0000
,
1000
0100
0010
0100
1000
0000
0001
0000
,
0100
0000
0000
0010
0000
0000
0100
0000
0000
0001
0000
0000
1000
0000
0000
0000
,
0001
0100
0010
0100
0001
0000
1000
0000
,
0100
1000
0000
0001
0100
0010
0100
0000
,
0001
1000
0010
0100
0010
0000
1000
0000
,
0001
0000
0000
0010
0000
0000
0001
0000
0000
0100
0000
0000
0010
0000
0000
0000
,
0100
0010
1000
0010
0100
0000
0001
0000
,
1001
0000
0000
0000
0000
0010
0000
0000
,
0200
0000
0000
0301
,
0001
0010
0001
0000
1000
0000
0100
0000
,
1000
0010
0100
0000
0010
0000
1000
0000
,
0001
0100
0010
0000
0100
0000
0110
0000
,
0010
0000
1000
0000
0001
0010
0100
0000
,
1000
0000
0010
1000
0100
0000
1000
0000
,
0010
0100
0001
0000
0100
0010
1000
0000
,
0001
1000
0010
0100
0002
0000
1003
0000
,
0020
0100
1030
0100
,
0001
0010
0100
0000
1000
0000
1001
0000
,
0200
0010
0301
1000
,
0001
0010
0100
2000
0000
0000
3001
0000
,
0100
0010
0100
0000
0001
0000
1000
0000
,
0100
0010
0100
0000
1000
0000
0001
0000
,
0100
0001
0100
0000
0010
1000
0010
0000
,
1000
0000
0000
0001
0000
0000
0010
0000
0000
0000
0010
0000
0000
0000
0000
0000
,
0100
1000
0100
0000
0010
0000
0001
0000
,
0010
0001
0010
0000
0100
0000
1000
0000
,
0001
0100
0001
0000
1000
0010
1000
0000
,
0010
0100
0220
0330
,
1000
0000
0010
0000
0100
0010
0100
0000
,
0001
0000
0010
0000
0100
0010
0100
0000
,
1000
0000
0001
0000
1000
0001
0100
0000
,
0010
1000
0100
1000
0010
0000
0100
0000
,
0102
0000
1003
0000
0010
0100
0010
0000
,
2001
0000
3010
0000
0100
0010
0100
0000
,
0001
0010
0100
0000
1000
0010
0100
0000
,
0001
1000
0001
1000
0000
0000
0010
0000
,
0100
0001
0010
0100
,
1000
0000
1001
0000
0010
0100
0010
0000
,
1000
0000
0001
0000
0010
0100
0010
0000
,
0002
0000
1003
1000
,
0010
0100
0010
0000
1000
0001
1000
0000
,
0010
0000
0000
0100
0000
0000
0001
0000
0000
1000
0000
0000
0100
0000
0000
0000
,
1000
0001
0010
0000
0001
1000
0100
0000
,
1000
0010
0000
0100
0001
0100
0010
0000
,
0100
0010
1000
0001
0010
0000
0001
0000
,
1000
0000
0000
0100
0000
0000
0010
0000
0000
0001
0000
0000
0100
0000
0000
0000
,
0010
1000
0001
1000
0010
0000
0100
0000
,
0110
0000
0000
0000
0000
1001
0000
0000
,
0220
0000
0000
0000
,
0330
0000
0000
0000
,
2000
0000
0000
0010
0000
0010
0000
3010
,
0000
0000
0002
0000
0103
0010
0100
0000
,
0001
1000
0100
0000
1000
0010
0100
0000
,
0001
0010
0100
1000
0001
0000
0100
0000
,
0010
1000
0010
0000
0100
0001
0100
0000
,
0001
0010
0001
0000
1000
0100
1000
0000
,
0020
0000
0130
0000
0001
1000
0100
0010
,
0100
0000
1000
0000
0001
0100
0010
0000
,
0120
0000
1030
0000
0001
0100
0010
0000
,
0210
0000
0301
0000
1000
0010
0100
0000
,
0001
0000
1001
0000
0100
0010
0100
0010
,
0000
1000
0000
0002
0000
0000
1003
0000
,
0010
0000
0100
0000
0001
0010
0100
0000
,
1000
0000
0010
0000
0100
0001
0010
0000
,
0002
0000
1003
0010
,
0200
0000
0310
0000
,
1000
0010
0100
0001
0000
1000
0000
0001
,
0000
1001
0000
0000
;

//---------------dance-single - ----------------
#NOTES:
     dance-single:
     :
     Hard:
     13:
     0.709002,0.670325,0.483575,0.220578,0.262997,585.000000,528.000000,57.000000,26.000000,0.000000,0.000000,0.709002,0.670325,0.483575,0.220578,0.262997,585.000000,528.000000,57.000000,26.000000,0.000000,0.000000:
// measure 0
0000
0000
0000
0000
,  // measure 1
0000
0000
0000
0000
,  // measure 2
0001
0010
0100
0010
0001
1000
0010
1010
,  // measure 3
0000
0101
0000
0110
0100
0001
1000
0100
,  // measure 4
2000
0000
3010
0100
0001
0100
0010
1000
,  // measure 5
0001
0000
1001
1000
0100
0010
0001
0010
,  // measure 6
0100
0000
1100
0000
0010
0100
1000
0001
,  // measure 7
0000
0110
0000
1001
0000
0100
0010
0100
,  // measure 8
0001
0000
1000
0000
0010
0000
0100
0010
0000
1000
0001
0000
1000
0000
0010
0000
,  // measure 9
0100
0001
0000
0100
0010
0000
0100
0001
0000
1000
0010
0000
1000
0000
0001
0000
,  // measure 10
1000
0000
0100
0000
0010
0000
0100
1000
0000
0001
0010
0000
0001
0000
0100
0000
,  // measure 11
0010
1000
0000
0001
0100
0000
0010
0100
0000
0010
0100
0000
0001
0000
1000
0000
,  // measure 12
0010
0000
1000
0000
0001
0000
0010
0001
0000
1000
0100
0000
1000
0000
0010
0000
,  // measure 13
1000
0001
0000
1000
0010
0000
1000
0001
0000
1000
0100
0000
0010
0000
0001
0000
,  // measure 14
0100
0000
0010
0000
1000
0000
0001
0100
0000
0010
1000
0000
0010
0000
0100
0000
,  // measure 15
0220
0000
0000
0000
0000
0000
0330
0000
0000
0000
1000
0001
1000
0000
0001
0000
,  // measure 16
0100
0010
0000
0010
0000
1000
0100
0010
,  // measure 17
0100
1000
0010
1000
0100
0010
0200
0000
,  // measure 18
1300
0001
0100
0010
0100
0001
0010
0001
,  // measure 19
0100
0010
0001
0010
0100
0010
0110
0000
,  // measure 20
1000
0001
0010
0100
1000
0010
0100
0001
,  // measure 21
1000
0100
0001
0100
1000
0010
0100
0001
,  // measure 22
0100
1000
0100
0001
0010
0100
1000
0100
,  // measure 23
0010
0001
0200
0000
1300
0100
0001
0100
,  // measure 24
2000
0000
3100
0010
0100
0001
1000
0010
,  // measure 25
0000
0110
0000
1010
1000
0001
0010
0100
,  // measure 26
1000
0100
1000
0100
0010
0001
0010
0001
,  // measure 27
0000
0101
0000
1010
1000
0010
0001
0010
,  // measure 28
1000
0010
0100
0010
1000
0100
0001
0100
,  // measure 29
0010
0001
0010
1000
0100
0001
0100
1000
,  // measure 30
0200
0010
0001
0310
,  // measure 31
1010
0000
0000
0101
0000
0000
1001
0000
0000
0000
0021
0000
0000
0000
0000
0000
,  // measure 32
0130
0000
1000
0000
0001
0000
0010
0001
0000
1000
0100
0000
1000
0000
0010
0000
,  // measure 33
0100
0000
0001
0000
0010
0000
0001
1000
0000
0010
0100
0000
0010
0000
1000
0000
,  // measure 34
0001
0000
0010
0000
0100
0000
1000
0010
0000
0100
0001
0000
1000
0000
0100
0000
,  // measure 35
0010
0110
0000
2001
0000
0010
3010
0000
,  // measure 36
0102
0000
0013
0001
1000
0010
0100
0010
,  // measure 37
1000
0000
1100
0100
0010
0001
0010
0100
,  // measure 38
1000
0000
1001
0000
0010
0100
0010
1000
,  // measure 39
0000
1001
0000
0210
0000
0301
1000
0010
,  // measure 40
1020
0000
0130
0101
0000
0001
0010
0100
,  // measure 41
2100
0000
3001
0101
0000
0100
0010
1000
,  // measure 42
0001
0000
1001
0000
0010
0100
0002
0000
,  // measure 43
1003
0010
0001
0010
0000
0100
0001
0100
,  // measure 44
0010
1010
0101
0011
,  // measure 45
1100
0000
0110
0000
1000
0001
1000
0010
,  // measure 46
0100
0000
0001
0000
1000
0000
0100
0010
0100
0000
1000
0000
0001
0000
0100
0000
,  // measure 47
0020
0000
1000
1000
2030
0000
3001
0000
,  // measure 48
0010
0000
0001
0000
1000
0000
0010
0100
0000
0001
0010
0000
0001
0000
1000
0000
,  // measure 49
0010
0100
0000
0010
1000
0000
0010
0100
0000
0010
1000
0000
0001
0000
0100
0000
,  // measure 50
0001
0000
0010
0000
0100
0000
1000
0010
0000
0100
0001
0000
0100
0000
0010
0000
,  // measure 51
1000
0001
0000
1000
0001
0000
0100
0010
0000
0100
0010
0000
1000
0000
0100
0000
,  // measure 52
0010
0000
0001
0000
0010
0000
0001
1000
0000
0010
0100
0000
0001
0000
0010
0000
,  // measure 53
0100
1000
0000
0001
0010
0000
0001
0100
0000
0010
1000
0000
0001
0000
0100
0000
,  // measure 54
0010
0000
1000
0000
0100
0000
1000
0001
0000
0100
0010
0000
0100
0000
0010
0000
,  // measure 55
2020
0000
0000
0000
0000
0000
3030
0000
0000
0000
0100
0001
0100
0000
0010
0000
,  // measure 56
1000
0100
0010
0100
0000
1010
0000
0201
,  // measure 57
0000
0010
0000
0010
0000
0010
0310
0000
,  // measure 58
1000
0010
0001
0010
0000
1010
0000
0101
,  // measure 59
0000
0011
0000
2100
0000
3001
0010
0100
,  // measure 60
1000
0000
0010
0000
0100
0000
0001
0010
0000
0100
1000
0000
0010
0000
0100
0000
,  // measure 61
0010
0000
1000
0000
0100
0000
1000
0010
0000
0100
0001
0000
0010
0000
0001
0000
,  // measure 62
1000
0000
1010
0010
0100
0001
0010
0001
,  // measure 63
0100
0000
0101
0001
1000
0100
0001
0100
,  // measure 64
1000
0000
1010
0010
0100
0001
1000
0010
,  // measure 65
0000
0101
0000
2010
0000
3001
0100
0010
,  // measure 66
0120
0000
1030
1002
0000
0013
0100
1000
,  // measure 67
2100
0000
3010
0210
0000
0301
1000
0100
,  // measure 68
0010
0000
0101
0000
0010
1000
0100
1001
,  // measure 69
0000
0000
0110
0000
0000
0000
1010
0000
0000
0000
0100
0010
0100
0000
0001
0000
,  // measure 70
1000
0000
0100
0000
0010
0000
0001
0100
0000
0010
1000
0000
0010
0000
0100
0000
,  // measure 71
0001
0000
0010
0000
0100
0000
1000
0001
0000
0100
0010
0000
1000
0000
0010
0000
,  // measure 72
0100
0000
0001
0000
0100
0000
0010
0100
0010
0000
0100
0000
0010
0000
1000
0000
,  // measure 73
0100
0000
1000
0000
0001
0000
0010
0001
0020
0000
0000
0000
0130
0000
0000
0000
,  // measure 74
1000
0100
0010
0110
0000
1001
0000
0110
,  // measure 75
0000
0000
0010
1000
0001
0000
0000
0000
0000
0000
0000
0000
0000
0000
0000
0000
;
