#TITLE:Who I am;
#SUBTITLE:;
#ARTIST:カエルとネコ;
#TITLETRANSLIT:;
#SUBTITLETRANSLIT:;
#ARTISTTRANSLIT:Kaeru to neko;
#GENRE:;
#CREDIT:;
#BANNER:Who I am_banner.png;
#BACKGROUND:Who I am.png;
#LYRICSPATH:;
#CDTITLE:;
#MUSIC:Who I am.ogg;
#OFFSET:1.020000;
#SAMPLESTART:26.250000;
#SAMPLELENGTH:12.000000;
#LASTBEATHINT:217.000824;
#SELECTABLE:YES;
#DISPLAYBPM:110.000000;
#BPMS:0.000000=110.000000
,96.000000=220.000000
,97.000000=110.000000
;
#STOPS:96.000000=0.136000,
96.166664=0.136000,
96.333336=0.091000,
96.666664=0.091000,
96.833336=0.091000
;
#BGCHANGES:;
#KEYSOUNDS:;
#ATTACKS:;

//---------------dance-single - ----------------
#NOTES:
     dance-single:
     :
     Easy:
     6:
     0.157300,0.226944,0.042027,0.218539,0.000000,131.000000,126.000000,5.000000,26.000000,0.000000,0.000000,0.157300,0.226944,0.042027,0.218539,0.000000,131.000000,126.000000,5.000000,26.000000,0.000000,0.000000:
0000
0000
0000
0000
,
0000
0000
0000
0000
,
0000
0000
0000
0000
,
0000
0000
0000
0000
0000
0000
0000
0010
,
0000
0000
0100
0000
0000
0001
0000
0000
,
0010
0000
0000
0001
0000
0000
1000
0000
,
0000
0100
0000
0000
0010
0000
0001
0000
,
0000
0100
0000
0000
0010
0000
0000
1000
,
0000
0000
0100
0000
0000
0010
0000
0000
,
0001
0000
0000
1001
0000
0100
0000
0000
,
0010
0000
0000
1000
0000
0000
0100
0000
,
0000
1000
0000
0000
0001
0000
0000
0100
,
0000
0000
0020
0000
0130
0000
0000
0001
,
0000
0000
0010
0000
0000
0001
0000
0000
,
2000
0000
0000
3000
0000
0000
0002
0000
,
0000
0003
0000
0100
0000
0000
0010
0000
,
0000
1000
0000
0000
0001
0000
0000
0020
,
0000
0000
0030
0000
0000
0200
0000
0000
,
0300
0000
1000
0000
0000
0001
0000
0000
,
0010
0000
0000
0100
0000
0000
0020
0000
,
0000
0030
0000
0000
0002
0000
0000
0003
,
0000
1000
0000
0000
0010
0000
0000
0100
,
0000
0000
0010
0000
0000
2000
0000
0000
,
3000
0000
0000
0002
0000
0000
0003
0000
,
0000
1000
0100
1000
,
0001
0010
0000
0001
,
0010
0000
0100
0000
2000
0000
0000
3000
,
0000
0001
0100
0001
,
1000
0010
0000
1001
,
0010
0000
0100
0010
,
1000
0000
0200
0000
0000
0300
0000
0000
,
2000
0000
0000
3000
0000
0000
0002
0000
,
0000
0003
0000
0000
0020
0000
0000
0030
,
0000
0001
0100
0010
,
1000
0100
0010
0220
,
0000
0000
0000
0330
0000
0000
0000
0000
,
0000
2002
0000
0000
,
3003
0000
0000
0100
,
0010
0100
0001
0010
,
0100
0000
2000
0000
0000
3001
0000
0000
,
0000
0000
0000
0020
,
0100
0130
2000
0001
,
3001
1001
0010
0100
,
0010
0000
1000
0000
0000
0000
0000
0100
,
0000
0000
0100
0000
0000
0000
0100
0100
,
0000
1000
0000
0100
0000
0010
0000
0001
,
0000
0000
0000
0001
0100
0000
0010
0000
,
0100
0001
0010
0100
,
1000
0010
0100
0001
,
1000
0000
0000
2000
0000
0000
3000
0000
,
0000
0002
0000
0000
0003
0000
0000
0200
,
0000
0000
0300
0000
0000
0020
0000
0000
,
0030
1000
0000
0000
,
1000
0000
0000
0010
2000
0000
0000
0000
,
3000
0000
0000
0000
;

//---------------dance-single - ----------------
#NOTES:
     dance-single:
     :
     Medium:
     12:
     0.468297,0.477686,0.058837,0.235349,0.256363,390.000000,383.000000,7.000000,28.000000,0.000000,0.000000,0.468297,0.477686,0.058837,0.235349,0.256363,390.000000,383.000000,7.000000,28.000000,0.000000,0.000000:
0000
0000
0000
0000
,
0000
0000
0000
0000
,
0000
0000
0000
0000
,
0000
0000
0000
0000
0000
0000
0000
0001
,
0100
0010
0000
1000
0100
0000
0010
0000
0001
0000
0100
0000
0010
0000
0100
0000
,
0001
0000
1000
0000
0001
0000
0010
0000
0100
1000
0000
0001
0100
0000
0010
0000
,
0100
0000
0001
0000
0010
0000
0100
0000
2000
0000
0000
0000
3001
0000
0100
0010
,
0000
0100
0001
0000
0010
0000
0100
0000
1000
0000
0010
0100
0000
0010
2000
0000
,
0000
0000
3001
0000
0100
0000
0010
1000
0000
0001
0100
0000
0001
0000
0010
0000
,
0100
0000
1000
0010
0000
0100
0001
0000
0010
0000
0001
0000
1000
0100
0000
1000
,
0001
0000
0100
0000
0010
0000
1000
0000
0001
0010
0000
0001
1000
0000
0100
0000
,
1000
0020
0000
0130
0200
0000
0301
0001
,
1000
0100
0000
0010
0001
0000
1000
0000
1001
0000
0010
0100
0000
0010
0100
0000
,
0001
0000
0010
0000
0100
0000
1000
0010
0000
1000
0010
0000
0100
0000
0001
0000
,
0010
0000
0001
0100
0000
0001
0100
0000
0010
0000
1000
0000
0100
0000
1000
0010
,
0000
1000
0010
0000
0200
0000
0301
0000
0010
0100
0000
1000
0001
0000
0100
0000
,
0010
0000
0100
0000
0001
0010
0000
0100
1000
0000
0001
0000
0100
0000
0020
0000
,
0000
0000
0130
0000
0200
0000
0000
0000
0310
0000
0010
0000
1000
0000
0100
0010
,
0002
0000
0000
0000
1003
0000
0010
1000
0000
0010
1000
0000
0001
0000
0010
0000
,
0001
0000
0100
0001
0000
0100
0001
0000
1000
0000
0100
0000
1000
0000
0010
0100
,
0000
0001
0010
0000
0001
0000
1000
0000
0100
0000
0010
0001
0000
0010
0001
0000
,
0200
0000
0310
0000
1000
0100
0000
1000
0010
0000
0100
0000
0001
0000
0010
0000
,
0001
0010
0000
0100
1000
0000
0010
0000
0100
0000
0002
0000
0000
0000
1003
0000
,
2000
0000
0000
0000
3001
0000
0001
0000
0010
0100
0000
1000
0001
0000
0100
0000
,
0110
0000
0001
0000
0010
0100
1000
0100
,
0010
0000
0001
0100
0010
0100
0001
0000
,
1000
0000
0010
0000
0100
0000
0010
0000
2000
0000
0000
3100
0000
0000
0010
0000
,
0001
1000
0010
0100
0001
0010
0100
1000
,
0010
1000
0100
0020
0000
0000
0031
1000
,
0001
0010
0001
0000
1000
0000
0100
1000
0100
0000
0010
0000
0001
0000
0100
0000
,
0110
0000
0010
1000
0100
1000
0000
0001
,
0010
0001
0200
0000
0300
0000
0010
0100
,
0001
0100
0000
0010
1000
0100
2000
0000
,
3000
0000
0001
0010
0100
0010
0001
1000
,
0010
0100
0010
1000
0001
0100
0020
0000
,
1030
2000
0000
3001
0002
0000
0103
0200
,
0000
0310
0020
0100
0130
0002
0010
0013
,
2000
0100
3100
0010
0001
1000
1001
0000
,
0100
0110
0000
0001
0011
0000
1000
0001
,
0010
0100
1000
0010
0001
1001
0000
0000
,
0000
0000
0000
0000
0000
0000
0000
0000
0000
0000
0000
0000
0100
0000
0010
0100
,
0010
1000
0100
0010
0002
0000
0103
0010
,
0000
0000
0000
0000
0010
0000
1000
0100
1000
0000
0001
0000
0100
0000
0010
0000
,
0100
0001
0010
0001
0000
0100
0100
0000
,
0100
0100
0000
0010
0010
0000
0010
0010
,
0010
0000
1000
0000
0001
0100
0001
0000
1000
0000
0100
0000
1000
0000
0010
0000
,
0100
0000
0001
0000
0020
0000
0000
0000
0031
0000
0100
0010
0100
0000
0001
0000
,
0010
0000
0100
0000
1000
0000
0010
0100
0010
0000
1000
0000
0001
0000
0100
0000
,
0010
0000
1000
0100
0010
0000
0001
0000
0100
0000
0001
0000
0010
0000
0100
1000
,
0001
0000
0100
0000
0010
0000
1000
0000
0001
0010
0100
0000
1000
0000
0100
0000
,
0010
0000
0100
0000
1000
0010
0100
0000
0001
0000
0010
0000
0100
0000
2000
0000
,
0000
0000
3001
0000
0002
0000
0000
0000
0103
0000
0010
0000
0100
0000
0001
0010
,
0100
0000
1000
0000
0001
0000
0100
0001
0000
0001
0010
0000
0100
0000
1000
0000
,
0010
0000
0000
0100
0000
0000
0002
0000
2000
0000
0000
0000
0000
0000
0000
0000
,
0000
3003
0000
0000
0000
0000
0000
0000
;

//---------------dance-single - ----------------
#NOTES:
     dance-single:
     :
     Hard:
     16:
     0.827326,0.864384,0.529536,0.134485,1.075883,689.000000,626.000000,63.000000,16.000000,0.000000,0.000000,0.827326,0.864384,0.529536,0.134485,1.075883,689.000000,626.000000,63.000000,16.000000,0.000000,0.000000:
// measure 0
0000
0000
0000
0000
,  // measure 1
0000
0000
0000
0000
,  // measure 2
0000
0000
0000
0000
,  // measure 3
0000
0000
0000
0000
0000
0000
0000
0000
0000
0000
0000
0000
0000
0000
1000
0100
,  // measure 4
0010
0100
1000
0000
0011
0000
1000
0000
0010
0100
0001
0000
0001
0010
0100
1000
,  // measure 5
0010
0000
0110
0000
1001
0000
0100
0001
0010
0001
0100
0000
1010
0000
0100
0010
,  // measure 6
1000
0100
0010
0000
0010
0100
1000
0001
0100
0000
0110
0000
0001
0010
1000
0010
,  // measure 7
0001
0000
1000
0000
0010
0100
0001
0010
0001
0000
0001
1000
0010
0100
0001
0000
,  // measure 8
0011
0000
1100
0000
0001
0100
1000
0100
0001
0000
1000
0000
0010
0100
0001
0010
,  // measure 9
0100
0000
0100
1000
0010
0100
0010
0000
0110
0000
0001
1000
0010
0100
0010
1000
,  // measure 10
0001
0000
1000
0000
0100
0010
0001
0000
0001
0100
0010
0100
0001
0000
0101
0000
,  // measure 11
1010
0000
1000
0100
0010
0100
1000
0001
0100
0000
0010
1000
0100
0010
0001
0000
,  // measure 12
0001
0000
1000
0000
0000
0000
1000
0000
0001
0000
0010
0000
0100
0000
1000
0001
0100
0000
0000
0000
0010
0000
0100
0000
0001
0000
0000
0000
0011
0000
0000
0000
,  // measure 13
1001
0000
1000
0010
0100
0000
0100
0010
1000
0100
0001
1000
0010
0001
0100
0000
,  // measure 14
0010
1000
0100
1000
0100
0010
0001
0000
0101
0000
1001
0000
1000
0010
0001
1000
,  // measure 15
0100
0001
0010
0000
1100
0000
0001
0100
0010
0100
0001
0010
0100
0000
1100
0000
,  // measure 16
0100
0001
1000
0010
0100
0010
0001
0100
1000
0000
1001
0000
0110
0000
0001
0100
,  // measure 17
1000
0100
0001
0010
0100
0000
1100
0000
1010
0000
0010
0100
1000
0100
0001
0010
,  // measure 18
0100
0000
0101
0000
1000
0001
0010
0001
0100
0010
1000
0000
1000
0001
0010
0001
,  // measure 19
0100
0000
0100
0010
0100
0001
0010
0000
0011
0000
1001
0000
1000
0010
0100
0001
,  // measure 20
0010
0100
0010
0000
0011
0000
0110
0000
1000
0010
0001
1000
0100
0001
1000
0100
,  // measure 21
0010
0100
1000
0010
0100
0010
1000
0001
0100
0000
0110
0000
0010
0100
0001
0010
,  // measure 22
0001
0000
0001
0010
0100
0000
1100
0000
1001
0000
0010
0100
0010
1000
0100
1000
,  // measure 23
0001
0000
0010
0000
0001
0000
0010
0000
0100
0000
1000
0000
0001
0000
0100
0000
1000
0000
0001
0000
0010
0000
1000
0000
0010
0000
0100
0000
0010
0100
0010
0000
,  // measure 24
0100
0000
1001
0000
0110
0000
0000
0000
1001
0000
0010
0000
0100
0000
0000
0001
0000
0000
0010
0000
0000
0001
0000
0000
0100
0000
0000
0010
0000
0000
0100
0000
0000
0010
0000
0000
1000
0000
0000
0100
0000
0000
0010
0000
0000
0100
0000
0000
,  // measure 25
1000
0000
0000
0001
0000
0000
0100
0000
0000
0001
0000
0000
1000
0000
0000
0010
0000
0000
0200
0000
0000
0000
0302
0000
0000
0000
0023
0000
0000
0000
0000
0000
0230
0000
0000
0000
1300
0000
0000
0001
0000
0000
0100
0000
0000
0001
0000
0000
,  // measure 26
1000
0000
0010
0000
0100
0000
0010
0000
1000
0000
0100
0000
0010
0000
0001
0000
0100
0010
0100
0000
0000
0000
0001
0010
0001
0000
0000
0000
1000
0100
1000
0000
,  // measure 27
0001
0000
0010
0100
1000
0000
0010
0000
0100
0000
0001
0000
0010
0000
0100
0000
1000
0000
0010
0000
1000
0000
0100
0000
0010
0000
0001
0000
0100
0000
0010
0000
,  // measure 28
1000
0000
0000
0100
0000
0000
0001
0000
0000
0100
0000
0000
1000
0000
0000
0001
0000
0000
0200
0000
0000
0000
2300
0000
0000
0000
3002
0000
0000
0000
0000
0000
0023
0000
0000
0000
1030
0000
0000
0001
0000
0000
0010
0000
0000
0100
0000
0000
,  // measure 29
0010
0001
1000
0010
0100
0010
1000
0001
0010
0100
1000
0010
0100
1000
0100
0001
,  // measure 30
0010
0000
0100
1000
0001
0100
0010
0100
0001
0000
0000
0000
0010
0000
0001
0000
0010
0000
0000
0000
0011
0000
0000
0000
1000
0000
0000
0000
0100
0000
1000
0000
,  // measure 31
0100
0000
0000
0000
0000
0000
1000
0000
0000
0010
0000
0000
1000
0000
0000
0000
0100
0000
0000
0000
0100
0000
0000
0000
0100
0000
0000
0000
0000
0000
0000
0000
0000
0000
0000
0000
0110
0000
0000
0000
0000
0000
0010
0000
0000
0001
0000
0000
,  // measure 32
0010
0000
0000
0000
0000
0000
0100
0000
0000
0000
0000
0000
1000
0000
0000
0010
0000
0000
1000
0000
0000
0000
0000
0000
0001
0000
0000
0010
0000
0000
0100
0000
0000
1000
0000
0000
0001
0000
0000
0000
0010
0000
0000
0000
0010
0000
0000
0000
,  // measure 33
0010
0000
0000
0000
0010
0000
0000
0000
0000
0000
0000
0000
1001
0000
0000
0000
0000
0000
0010
0000
0000
0100
0000
0000
0001
0000
0000
0010
0000
0000
0100
0000
0000
0000
0000
0000
1000
0000
0000
0010
0000
0000
0100
0000
0000
0001
0000
0000
,  // measure 34
0010
0000
0100
1000
0100
0010
0100
0000
1100
0000
0001
0000
0201
0000
0001
0000
,  // measure 35
0301
0012
0010
0013
2010
0010
3010
0120
,  // measure 36
0100
0000
0130
0000
1001
0000
0100
0010
0100
0000
1001
0000
0010
0100
0010
0000
,  // measure 37
1000
0010
0100
1000
0100
0010
1000
0100
0001
0100
1000
0001
0010
0000
0010
0001
,  // measure 38
0010
0000
1100
0000
1000
0100
1000
0000
0001
0100
0010
0001
0010
0100
0001
0010
,  // measure 39
1000
0010
0001
1000
0010
0001
0000
0001
0010
1000
1010
0000
0000
0000
0000
0000
,  // measure 40
0000
0000
0000
0000
0000
0000
0000
0000
0000
0000
0000
0000
0100
0010
1000
0001
,  // measure 41
0010
0000
0110
0000
1100
0000
0001
0100
0010
0000
0010
0100
0001
0010
0100
0000
,  // measure 42
1000
0000
0000
0000
1000
0000
0000
0000
1000
0000
0000
0000
0001
0000
0000
0100
0000
0000
0010
0000
0000
0100
0000
0000
0001
0000
0000
0010
0000
0000
0100
0000
0000
0000
0000
0000
0010
0000
0000
0001
0000
0000
0100
0000
0000
0010
0000
0000
,  // measure 43
1000
0000
0100
1000
0010
0100
0010
0000
1010
0000
0100
0001
0100
1000
0000
0100
,  // measure 44
0001
0100
1000
0100
0000
0000
0001
0010
0100
0010
0000
0100
1000
0010
0000
0220
,  // measure 45
0330
0000
1001
0000
0001
0010
0100
0010
0001
0000
1010
0000
1001
0000
0100
0010
,  // measure 46
1000
0000
0001
0010
0100
0000
1100
0000
1001
0000
0010
0100
0001
0000
0011
0000
,  // measure 47
0010
0100
1000
0000
1010
0000
0010
0100
0001
0000
0110
0000
1001
0000
0110
0000
,  // measure 48
1000
0100
0001
0100
1000
0001
0100
0010
0100
0001
0010
0100
1000
0010
0001
1000
,  // measure 49
0100
0001
0010
0000
0110
0000
0001
0010
1000
0010
0001
0100
0010
1000
0010
0100
,  // measure 50
0001
0010
0100
0000
0110
0000
1000
0001
0100
0010
0100
0000
1001
0000
0010
1000
,  // measure 51
0100
0010
0001
0100
0010
1000
0001
0010
0100
1000
0001
0100
1000
0001
0010
1000
,  // measure 52
0100
0001
0100
1000
0010
0001
0010
1000
0000
0001
0010
0000
0100
0000
1000
0000
,  // measure 53
1001
0000
0010
0110
0000
1000
0001
0000
0022
0000
0000
0000
0000
0000
0000
0000
,  // measure 54
0000
0033
0000
0000
0000
0000
0000
0000
;
