#TITLE:Welcome;
#SUBTITLE:;
#ARTIST:Uraken;
#TITLETRANSLIT:;
#SUBTITLETRANSLIT:;
#ARTISTTRANSLIT:;
#GENRE:HARDCORE;
#CREDIT:;
#BANNER:Welcome_banner.png;
#BACKGROUND:Welcome_bg.png;
#LYRICSPATH:;
#CDTITLE:;
#MUSIC:Welcome.ogg;
#OFFSET:-0.840000;
#SAMPLESTART:74.949997;
#SAMPLELENGTH:12.000000;
#LASTBEATHINT:305.000000;
#SELECTABLE:YES;
#BPMS:0.000000=170.000000
,68.000000=85.000000
,108.000000=170.000000
;
#STOPS:
;
#BGCHANGES:;
#KEYSOUNDS:;
#ATTACKS:;

//---------------dance-single - ----------------
#NOTES:
     dance-single:
     :
     Easy:
     6:
     0.222442,0.293423,0.117369,0.101720,0.000000,199.000000,184.000000,15.000000,13.000000,0.000000,0.000000,0.222442,0.293423,0.117369,0.101720,0.000000,199.000000,184.000000,15.000000,13.000000,0.000000,0.000000:
0000
0000
0000
0000
,
1000
0000
0010
0100
,
0010
0000
1000
0000
,
0001
0000
0010
0100
,
0010
0000
0001
0000
,
1001
0000
0010
0100
,
0001
0000
0010
0000
,
0100
0000
1000
0010
,
0100
0000
0110
0000
,
0001
0000
0010
0001
,
1000
0000
0010
1000
,
0001
0000
1000
0001
,
0010
0000
0001
0200
,
0310
1000
0100
0000
,
1000
0001
0100
0000
,
0001
1000
0100
0010
,
0001
0000
0110
0000
,
1001
0000
0000
0000
,
0000
0000
0000
0000
,
0000
0000
0000
0000
,
0000
0000
0000
0000
,
0100
0000
0010
0000
,
1000
0000
0001
0000
,
0020
0000
0032
0000
,
0203
0000
2300
0000
,
3000
0000
0000
0000
,
0000
0000
0000
0000
,
0001
0000
0001
1000
,
0010
0000
0010
0000
,
1000
0000
1000
0001
,
0100
0000
0110
0000
,
0001
0000
0100
0010
,
1000
0000
1000
0000
,
0100
0000
0010
0001
,
1000
0000
1000
0001
,
1000
0100
1000
0000
,
0001
0100
0001
0000
,
1000
0010
1000
0000
,
0001
0010
0001
0000
,
1001
0000
0100
0000
,
1001
0000
0010
0000
,
1001
0000
0100
0000
,
2002
0000
3003
0000
,
0010
0000
0100
0001
,
0010
0000
0100
1000
,
0010
0000
0010
1000
,
0100
0000
0100
1000
,
0001
0000
0010
0001
,
1000
0000
0010
0100
,
0001
0000
0001
0100
,
0220
0000
0330
0000
,
0010
1000
0100
0000
,
0010
0001
0100
0000
,
0001
0010
0100
0000
,
1000
0010
0100
0000
,
0002
0000
0013
0100
,
2000
0000
3010
0100
,
0001
0000
1000
0000
,
0220
0000
0330
0000
,
1000
0100
0000
0100
,
1000
0010
0000
0010
,
1000
0001
0000
0001
,
1000
0000
0100
0010
,
0001
0010
0000
0010
,
0001
0100
0000
0100
,
0001
1000
0000
1000
,
0001
0010
0100
0000
,
0110
0000
0001
0100
,
0010
0000
1000
0100
,
0010
0000
0001
1000
,
0100
0000
0100
0000
,
1000
0010
1000
0000
,
0001
0010
0001
0000
,
0100
0010
1000
0001
,
0011
0000
1100
0000
,
1001
0000
0000
0000
;

//---------------dance-single - ----------------
#NOTES:
     dance-single:
     :
     Medium:
     11:
     0.429235,0.440134,0.289510,0.109544,0.043035,384.000000,347.000000,37.000000,14.000000,0.000000,0.000000,0.429235,0.440134,0.289510,0.109544,0.043035,384.000000,347.000000,37.000000,14.000000,0.000000,0.000000:
// measure 0
0000
0000
0000
0000
,  // measure 1
0001
0000
1001
0000
1000
0010
0100
0000
,  // measure 2
0001
0010
0100
1000
,  // measure 3
0010
0000
0110
0000
0100
0001
1000
0000
,  // measure 4
0100
0000
0010
0001
0010
0000
0002
0000
,  // measure 5
1003
0000
1010
0000
0100
0010
1000
0000
,  // measure 6
0001
1000
0100
0010
,  // measure 7
0001
0101
1000
1010
,  // measure 8
0001
0000
1000
0001
0200
0000
0320
0000
,  // measure 9
1030
0000
1100
0000
1000
0010
1000
0000
,  // measure 10
0001
0000
0011
0000
0001
0100
0001
0000
,  // measure 11
1000
0000
1001
0000
0001
1000
0100
0000
,  // measure 12
1000
0001
1000
0000
0010
0100
0010
0000
,  // measure 13
1000
1010
0000
0011
,  // measure 14
0001
0101
0000
1100
,  // measure 15
1000
1010
0001
1001
,  // measure 16
0110
0000
0010
0100
0010
0000
0110
0000
,  // measure 17
1001
0000
0000
0000
,  // measure 18
0000
0000
0000
0000
,  // measure 19
1000
0000
0001
0000
,  // measure 20
0100
0000
0010
0000
,  // measure 21
1001
0000
0000
0000
0010
0000
0100
0001
,  // measure 22
0010
0100
1000
0010
,  // measure 23
0110
0000
0000
0000
1000
0000
0100
1000
,  // measure 24
0010
0000
0100
0000
0202
0000
0000
0303
,  // measure 25
0000
0010
0000
0000
0000
0100
0000
0000
0000
0001
0000
0000
0000
1000
0000
0000
,  // measure 26
0000
0100
0000
0000
0000
0010
0000
0000
0002
0000
0000
0000
0000
0000
0000
0000
,  // measure 27
1003
0000
1001
0000
0100
0010
1000
0000
,  // measure 28
0001
1000
0100
0010
,  // measure 29
0001
0000
1001
0000
0100
0001
0010
0000
,  // measure 30
0001
0010
0100
1000
,  // measure 31
0010
0000
1010
0000
1000
0100
0010
0000
,  // measure 32
0100
1000
0010
0100
,  // measure 33
0001
0000
0011
0000
0010
0001
1000
0000
,  // measure 34
0010
0000
0100
0100
0010
0000
0110
0000
,  // measure 35
0010
0000
1010
0000
1000
0100
0010
0000
,  // measure 36
0001
0000
1001
0000
0010
0100
0001
0000
,  // measure 37
0010
0000
0011
0000
0001
1000
0100
0000
,  // measure 38
1000
0000
1010
0000
0100
0010
1000
0000
,  // measure 39
0022
0000
0000
0000
0033
0000
0000
0000
0100
0000
0000
0010
0000
0000
0100
0000
,  // measure 40
0002
0000
0000
0000
0000
0000
0000
0000
1003
0000
0000
0010
0000
0000
0100
0000
,  // measure 41
0020
0000
1030
1001
,  // measure 42
0202
0000
0303
0000
1000
0100
0100
0000
,  // measure 43
1000
0010
1000
0001
,  // measure 44
0010
0000
0001
0000
0100
0000
0001
1000
,  // measure 45
0100
0000
1000
0010
0000
1000
0001
0000
,  // measure 46
0010
0000
0001
0100
0000
0001
0010
0000
,  // measure 47
0001
1000
0010
1000
,  // measure 48
0001
0100
0001
1000
,  // measure 49
0010
0100
0010
0000
1000
0100
1000
0000
,  // measure 50
0001
0000
0010
0001
1000
0000
1001
0000
,  // measure 51
0010
0100
0000
0100
0010
1000
0100
0000
,  // measure 52
1000
0010
0000
0010
0100
0001
1000
0000
,  // measure 53
0001
0010
0000
0010
0100
1000
0001
0000
,  // measure 54
1000
0100
0000
0100
1000
0010
0100
0000
,  // measure 55
0001
0010
0000
0010
0001
0010
0100
0000
,  // measure 56
1000
0010
0000
0010
0100
0010
1000
0000
,  // measure 57
0100
1000
0000
1000
0010
0100
0001
0000
,  // measure 58
2002
0000
0000
0000
0000
3003
0000
0000
,  // measure 59
0110
0000
0100
0001
0000
0001
0010
0100
,  // measure 60
1000
0000
0010
1000
0000
1000
0010
0100
,  // measure 61
0001
0000
0010
0001
0000
0001
0100
0000
,  // measure 62
0010
0000
0000
1000
0000
0000
0001
0000
0010
0000
0100
0000
0010
0000
0000
0000
,  // measure 63
0001
0000
1000
0100
0000
0100
1000
0010
,  // measure 64
0100
0000
0001
0010
0000
0010
0001
0100
,  // measure 65
0010
0000
1000
0100
0000
0100
1000
0010
,  // measure 66
0100
0000
0000
0010
0000
0000
0100
0000
0001
0000
1000
0000
0100
0000
0000
0000
,  // measure 67
1010
0000
1000
0001
0000
0010
0001
0100
,  // measure 68
0010
0000
1000
0001
0000
0001
0010
0000
,  // measure 69
0101
0000
0010
1000
0000
0001
0100
0000
,  // measure 70
0010
0000
0000
1000
0000
0000
0100
0000
0000
0000
0100
0000
0010
0000
0000
0000
,  // measure 71
0001
0100
0001
0000
1000
0010
1000
0000
,  // measure 72
0001
0010
0001
0000
1000
0100
1000
0000
,  // measure 73
0010
0100
0001
0000
0010
0100
1000
0000
,  // measure 74
0001
1000
0100
1000
0000
1000
0001
0100
,  // measure 75
0010
0000
0000
0000
;

//---------------dance-single - ----------------
#NOTES:
     dance-single:
     :
     Hard:
     14:
     0.680740,0.733557,0.406879,0.266037,0.379493,609.000000,557.000000,52.000000,34.000000,0.000000,0.000000,0.680740,0.733557,0.406879,0.266037,0.379493,609.000000,557.000000,52.000000,34.000000,0.000000,0.000000:
0000
0000
0000
0000
,
1001
0000
0110
0000
1000
0100
0002
0000
,
0103
0000
1000
0000
0010
0000
0100
0001
0100
0000
0010
0000
1000
0000
0001
0000
,
0011
0000
1100
0000
0010
0001
0020
0000
,
1030
0000
0100
0000
1000
0001
0010
0001
1000
0000
0010
0000
0110
0000
0000
0000
,
0101
0000
1100
0000
1000
0010
0002
0000
,
0013
0000
1000
0000
0001
0000
0010
0100
1000
0000
0010
0000
0100
0000
0001
0000
,
0101
0000
0000
0000
1100
0000
0000
0000
0110
0000
0000
0000
1001
0000
0000
1000
,
0001
0000
0010
0000
0001
1000
0010
1000
0001
0000
0100
0000
0110
0000
0000
0000
,
0011
0000
1010
0000
0100
0001
0010
0001
,
1001
0000
1010
0000
0100
0010
1000
0001
,
0101
0000
1100
0000
1000
0001
0010
0100
,
0010
0000
0010
0000
0001
0000
0001
0000
1000
0000
1000
0000
0010
0100
0010
0100
,
0010
0000
1000
0000
1100
0000
0000
0000
0001
0000
0100
0000
0010
0000
0100
0001
,
0010
0000
0000
0000
0011
0000
0000
0000
1000
0000
0010
0000
0100
0000
0010
1000
,
0100
0000
1000
0000
1001
0000
0000
0000
0110
0000
0000
0000
1001
0000
0000
0100
,
0010
0000
1000
0000
0001
0010
0100
1000
0010
0000
1000
0001
0100
0000
0000
0000
,
0022
0000
0000
0003
0200
0000
0000
0030
,
2000
0000
0000
0300
0002
0000
0000
3000
,
0020
0000
0000
0003
2000
0000
0000
0030
,
0200
0000
0000
3000
0002
0000
0000
0303
,
2002
0000
0000
3003
0020
0000
0230
0302
,
0013
0000
0100
1000
0000
0010
0100
0010
1000
0000
0001
0010
0000
0001
0100
0000
,
0220
0000
0000
0300
0001
0000
2030
3200
,
0310
0000
0001
0100
0000
0010
1000
0100
0020
0000
0000
0000
0000
0000
0000
0000
,
0000
0001
0000
0100
0000
0001
0000
0130
0000
2000
0000
0001
0000
0010
0000
3001
,
0000
0200
0000
1000
0000
0010
0000
0302
2000
0000
0000
0000
0000
0000
3003
0000
,
0110
0000
1001
0000
0001
0010
2000
0000
,
3010
0001
0001
0010
0001
0001
0010
0000
,
1001
0000
0110
0000
1000
0100
0002
0000
,
0103
1000
1000
0100
1000
0100
1100
0000
,
1001
0000
0110
0000
1000
0010
0002
0000
,
0013
1000
1000
0010
1000
0010
1000
1000
,
1001
0000
0011
0000
1000
0100
0001
0100
,
1000
0000
0001
0010
0100
0000
0100
0000
0010
0000
0001
0000
1000
0100
1000
0100
,
0010
0000
0110
0000
0001
0100
1000
0100
,
0101
0000
1100
0000
1000
0010
0001
0010
,
1010
0000
0011
0000
0001
0010
1000
0010
,
0011
0000
0000
0000
1100
0000
0000
0000
1000
0000
0001
0100
0010
0000
0100
0000
,
0001
0010
0001
0000
0010
0000
0100
1000
0010
0000
0000
1001
0000
0000
0001
0000
,
0100
0010
0100
0000
0001
0000
1000
0010
0100
0000
0000
1001
0000
0000
0010
0000
,
0001
1000
0001
0000
1000
0000
0010
0100
0000
0010
0100
0000
0010
0000
1000
0001
,
0010
0100
0010
0000
0001
0000
1000
0100
1000
0000
0010
0000
0020
0000
0000
0000
,
1030
0000
0100
0000
1000
0000
0010
1000
0100
0000
0010
0000
0001
0000
1000
0010
,
1000
0000
0100
0000
0010
0000
0001
0100
0010
0000
0100
0001
0010
0000
0000
0000
,
0011
0000
1000
1010
0000
0010
0100
0001
,
0010
0000
0001
0100
0000
0100
0010
0000
1000
0001
0000
0001
1000
0000
0100
0000
,
0010
0000
0100
0000
1000
0000
0010
0100
0001
0000
0010
0000
0100
0000
1000
0010
,
0100
0000
0001
0000
1000
0000
0100
0010
0001
0000
1000
0010
1000
0000
0000
0000
,
0011
0001
1000
0010
0110
0100
0002
0000
,
1003
0000
0100
0010
0100
0000
1000
0010
1000
0000
0001
0000
0002
0000
0000
0000
,
1003
0010
0001
1000
0100
0001
1000
0001
,
0010
1000
0001
0100
1000
0010
0100
0100
,
0001
1000
0010
0100
0001
0100
1000
0100
,
0010
0000
1000
0100
0010
0000
0001
0000
0100
0010
1000
0000
0001
0000
0010
0000
,
1000
0000
0010
0000
0010
0000
0001
0100
0010
0000
1000
0000
0100
0000
0010
0000
,
0001
0000
1000
0000
1000
0000
0001
0100
0010
0000
1000
0000
0100
0000
0010
0000
,
0001
0000
0100
0000
1000
0000
0100
0010
1000
0000
0100
0000
0010
0000
0001
0000
,
1000
0000
0100
0010
0100
0000
1000
0000
2002
0000
0000
0000
3003
0000
0000
0000
,
0101
0000
1000
0010
0000
0010
1000
0001
,
0010
0100
1000
0100
0000
0100
0010
0100
,
1000
0010
0001
0010
0000
0010
1000
0001
,
0010
0000
0001
0100
0001
0000
1000
0000
0010
0100
0010
0000
1000
0000
0100
1000
,
0010
0000
0100
0000
0001
0000
0010
0000
0000
0000
0010
0000
0001
0000
1000
0010
,
0100
0000
0010
0000
1000
0000
0100
0000
0000
0000
0100
0000
0010
0000
0001
1000
,
0010
0100
0001
0100
0010
1000
0100
0001
,
0100
0000
1000
0010
0100
0000
0001
0010
0100
0000
1000
0000
1001
0000
0000
0000
,
0110
0000
0000
0000
0001
0000
0100
0000
0000
0000
0100
0000
0010
0000
1000
0100
,
0010
0000
0100
0000
1000
0000
0010
0000
0000
0000
0010
0000
0100
0000
0001
0010
,
0100
0000
1000
0000
0001
0000
0010
0000
0000
0000
0010
0000
0001
0000
1000
0001
,
0010
0000
0100
0010
0000
0010
0100
0000
0000
0000
0100
0000
1000
0000
0001
0100
,
0010
0000
1000
0000
0100
1000
0010
0000
0100
0000
0001
0000
0010
0001
0100
0000
,
0010
0000
1000
0000
0001
0010
0100
0000
1000
0000
0010
0000
1000
0100
0010
0000
,
0001
0010
0001
0010
0001
0000
1000
0000
0010
0100
0010
0100
0010
0000
1000
0100
,
1000
0010
0100
0000
0010
0000
0001
0010
0000
1000
0001
0000
0100
0000
0001
0010
,
1000
0000
0000
0000
;
