#TITLE:Welcome!!;
#SUBTITLE:;
#ARTIST:kors k;
#TITLETRANSLIT:;
#SUBTITLETRANSLIT:;
#ARTISTTRANSLIT:;
#GENRE:;
#CREDIT:;
#BANNER:Welcome!!_banner.png;
#BACKGROUND:Welcome!!.png;
#LYRICSPATH:;
#CDTITLE:;
#MUSIC:Welcome!!.ogg;
#OFFSET:-1.070000;
#SAMPLESTART:11.730000;
#SAMPLELENGTH:12.000000;
#LASTBEATHINT:360.500000;
#SELECTABLE:YES;
#BPMS:0.000000=180.000000
;
#STOPS:
;
#BGCHANGES:;
#KEYSOUNDS:;
#ATTACKS:;

//---------------dance-single - ----------------
#NOTES:
     dance-single:
     :
     Easy:
     6:
     0.262722,0.315267,0.111458,0.214954,0.000000,231.000000,217.000000,14.000000,27.000000,0.000000,0.000000,0.262722,0.315267,0.111458,0.214954,0.000000,231.000000,217.000000,14.000000,27.000000,0.000000,0.000000:
0000
0000
0000
0000
,
0000
0000
0000
0000
,
0000
0000
0000
0000
,
0000
0000
0000
0000
,
1000
0010
0100
0000
,
0010
1000
0001
0000
,
0010
0001
1000
0000
,
2002
0000
3003
0000
,
0100
0000
0010
0100
,
0001
0000
0010
0100
,
1000
0000
0010
1000
,
0100
0000
0110
0000
,
0001
0000
0010
0001
,
1000
0000
0010
1000
,
0100
0000
1000
0000
,
0010
0100
0220
0330
,
0001
0000
0010
0001
,
0010
0000
0100
1000
,
0100
0000
1000
0010
,
2000
0000
3001
0000
,
0001
0000
0100
0001
,
1000
0000
0100
1000
,
0001
0000
0010
0000
,
2002
0000
3003
0000
,
0010
0010
0100
0000
,
0010
1000
0100
0000
,
1000
1000
0001
0000
,
0010
0001
0100
0000
,
0001
0001
1000
0000
,
0100
1000
0010
0000
,
0100
0100
0001
0000
,
1000
0001
2002
3003
,
0100
0010
0100
0000
,
0001
0010
0100
1000
,
0010
0100
0010
0000
,
1000
0100
0010
0001
,
1000
0010
1000
0000
,
0001
0100
0001
0000
,
1001
0000
0110
0000
,
2002
0000
3003
0000
,
0100
0000
0100
0010
,
0100
0000
0001
0010
,
0001
0000
0001
1000
,
0100
0000
0100
1000
,
0010
0000
0010
0100
,
0001
0000
1001
0000
,
1000
0010
0100
0000
,
0001
0010
0100
0000
,
2000
0000
3002
0000
,
0103
0010
0100
0000
,
0001
0100
0010
0000
,
1000
0100
0010
0000
,
0001
0000
0100
0010
,
1000
0000
0100
0010
,
0001
0000
1000
0001
,
1000
0010
0100
0001
,
2002
0000
0000
0000
,
3003
0000
0000
0000
,
0000
0000
0000
0000
,
0000
0000
0000
0000
,
0100
0000
0000
0000
,
0010
0000
0000
0000
,
1000
0000
0000
0000
,
0001
0000
0010
0000
,
0001
0100
0001
0000
,
1000
0100
1000
0000
,
0010
0100
0010
0000
,
1000
0001
1000
0000
,
0002
0000
0203
0000
,
0310
1000
0100
0000
,
0020
0000
0130
0000
,
2002
0000
3003
0000
,
0010
0100
0001
0000
,
0010
0001
0100
0000
,
0010
1000
0100
0000
,
1000
0010
0100
0000
,
0110
0000
0001
0010
,
0100
0000
1000
0010
,
0100
0000
0001
0000
,
1000
0010
1000
0000
,
0002
0000
0013
0100
,
2000
0000
3010
0100
,
0020
0000
2030
0000
,
3001
0010
0100
1000
,
0010
0000
0100
0001
,
0010
0000
0100
1000
,
0002
0000
1003
0000
,
0220
0000
0330
0000
,
1001
0000
0000
0000
;

//---------------dance-single - ----------------
#NOTES:
     dance-single:
     :
     Medium:
     12:
     0.506110,0.535893,0.390103,0.214954,0.115439,445.000000,396.000000,49.000000,27.000000,0.000000,0.000000,0.506110,0.535893,0.390103,0.214954,0.115439,445.000000,396.000000,49.000000,27.000000,0.000000,0.000000:
// measure 0
0000
0000
0000
0000
,  // measure 1
0000
0000
0000
0000
,  // measure 2
0000
0000
0000
0000
,  // measure 3
0000
0000
0000
0000
,  // measure 4
0001
0010
0100
0000
0010
0000
0011
0000
,  // measure 5
1000
0010
0100
0000
0010
0000
1100
0000
,  // measure 6
1000
0001
0100
0000
0010
0000
0110
0000
,  // measure 7
1000
0001
1000
0000
2002
0000
3003
0000
,  // measure 8
0010
0000
0000
0100
0000
0000
0001
0000
0010
0000
0100
0000
1000
0000
0000
0000
,  // measure 9
0010
0000
0000
0100
0000
0000
0010
0000
1000
0000
0100
0000
0010
0000
0000
0000
,  // measure 10
0001
0000
1001
0000
1000
0010
0100
0000
,  // measure 11
0010
0000
0000
0100
0000
0000
0001
0000
0010
0000
0000
0000
0001
0000
0000
0000
,  // measure 12
1000
0000
0000
0100
0000
0000
0010
0000
0100
0000
1000
0000
0010
0000
0000
0000
,  // measure 13
0100
0000
0000
0001
0000
0000
0010
0000
0001
0000
0100
0000
0010
0000
0000
0000
,  // measure 14
1000
0000
1001
0000
0010
0100
0001
0000
,  // measure 15
0010
0000
0000
0100
0000
0000
1000
0000
0010
0000
0000
0000
0100
0000
0000
0000
,  // measure 16
0001
0000
0000
0010
0000
0000
0100
0000
0000
1000
0000
0000
0010
0000
0000
0000
,  // measure 17
1000
0000
0000
0100
0000
0000
0010
0000
0000
0001
0000
0000
0100
0000
0000
0000
,  // measure 18
0010
0000
0000
0100
0000
0000
0001
0000
0000
1000
0000
0000
0100
0000
0000
0000
,  // measure 19
0010
0000
0000
0100
0000
0000
1000
0000
0000
0001
0000
0000
0100
0000
0000
0000
,  // measure 20
0010
0000
0000
0100
0000
0000
0001
0000
0000
0000
0010
0000
0100
0000
0000
0000
,  // measure 21
1000
0000
0000
0010
0000
0000
0100
0000
0000
0000
0010
0000
1000
0000
0000
0000
,  // measure 22
0100
0000
0000
1000
0000
0000
0001
0000
0000
0000
1000
0000
0001
0000
0000
0000
,  // measure 23
0220
0000
0000
0330
,  // measure 24
1010
0000
1010
0000
0100
0010
1000
0000
,  // measure 25
0100
0010
0001
0000
1000
0010
0100
0000
,  // measure 26
0101
0000
0101
0000
0010
0100
0001
0000
,  // measure 27
0010
0100
1000
0001
1000
0000
0001
0000
,  // measure 28
0011
0000
0011
0000
0010
0100
1000
0000
,  // measure 29
0010
0000
1000
0100
0010
0000
0001
0000
,  // measure 30
1000
0101
0010
1100
,  // measure 31
0010
0100
0010
0100
0020
0000
0000
0000
,  // measure 32
1030
0000
1100
0000
1000
0010
0100
0000
,  // measure 33
0001
0010
0100
0000
0010
0000
0001
0000
,  // measure 34
1001
0000
1001
0000
0100
0010
1000
0000
,  // measure 35
0001
1000
0100
1000
0020
0000
0130
0000
,  // measure 36
0110
0000
0101
0000
0010
0100
0001
0000
,  // measure 37
0010
0100
1000
0000
0020
0000
0130
0000
,  // measure 38
0001
1010
0100
0011
,  // measure 39
1000
0001
1000
0001
1000
0000
0010
0000
,  // measure 40
0100
0010
0000
0010
1000
0100
0000
0100
,  // measure 41
1000
0000
1000
0010
0100
0000
0001
0000
,  // measure 42
0010
0100
0000
0100
0010
0001
0000
0001
,  // measure 43
1000
0010
0000
0110
0000
0100
0001
0000
,  // measure 44
0010
0100
0000
0100
0000
0010
0100
0010
,  // measure 45
0100
1000
0001
0000
0100
0000
0110
0000
,  // measure 46
0010
1000
0100
0000
1000
0010
0100
0010
,  // measure 47
0000
1000
0000
1100
0000
0001
0000
0010
,  // measure 48
0001
1000
0000
1000
0001
0010
0000
0010
,  // measure 49
0100
1000
0001
1000
0020
0000
0130
0000
,  // measure 50
0010
1000
0000
1000
0100
0010
0000
0010
,  // measure 51
0001
0100
0000
0010
0000
0100
0001
0000
,  // measure 52
0011
0000
0000
1000
0000
1100
0000
0000
,  // measure 53
1010
0000
0000
0100
0001
0000
1001
0000
,  // measure 54
0100
0010
0000
0010
1000
0100
0000
0100
,  // measure 55
0010
0001
0100
0010
1000
0000
0001
0000
,  // measure 56
2002
0000
3003
0000
0000
0010
0000
0200
,  // measure 57
0000
0000
0310
0000
,  // measure 58
1001
0000
0010
0000
,  // measure 59
0110
0000
1000
0000
,  // measure 60
2200
0000
0000
3300
0000
0001
0000
0020
,  // measure 61
0000
0000
0031
0000
,  // measure 62
1001
0000
0100
0000
,  // measure 63
0110
0000
0002
0000
,  // measure 64
0013
0000
0001
0000
0011
0000
0000
0010
,  // measure 65
0000
0100
1000
0000
2200
0000
3300
0000
,  // measure 66
1000
0000
0010
0000
1010
0000
0000
0100
,  // measure 67
0000
0010
0100
0000
0202
0000
0303
0000
,  // measure 68
0010
0000
0001
0000
1001
0000
0000
1000
,  // measure 69
0000
0010
0100
0000
0220
0000
0330
0000
,  // measure 70
1001
0000
0110
0000
,  // measure 71
2002
0000
3003
0000
,  // measure 72
0100
0000
0000
0010
0000
0000
0100
0000
0001
0000
0010
0000
0100
0000
0000
0000
,  // measure 73
1000
0000
0000
0100
0000
0000
1000
0000
0010
0000
0100
0000
0010
0000
0000
0000
,  // measure 74
1000
0000
0100
0000
1000
0010
0100
0000
,  // measure 75
0001
0000
0000
0010
0000
0000
0001
0000
0100
0000
0000
0000
0101
0000
0000
0000
,  // measure 76
0010
0000
0000
0100
0000
0000
0001
0000
0010
0000
0100
0000
1000
0000
0000
0000
,  // measure 77
0010
0000
0000
0100
0000
0000
0001
0000
1000
0000
0100
0000
0010
0000
0000
0000
,  // measure 78
0001
0000
1001
0000
0100
0010
1000
0000
,  // measure 79
0001
0000
0000
1000
0000
0000
0100
0000
0020
0000
0000
0000
0031
0000
0000
0000
,  // measure 80
1000
0000
0000
0010
0000
0000
0100
0000
0000
0010
0000
0000
1000
0000
0000
0000
,  // measure 81
0001
0000
0000
0010
0000
0000
0100
0000
0000
0010
0000
0000
0001
0000
0000
0000
,  // measure 82
1000
0000
0000
0001
0000
0000
0010
0000
0000
0000
0100
0000
1000
0000
0000
0000
,  // measure 83
0010
0000
0000
1000
0000
0000
0100
0000
0000
0000
0010
0000
0001
0000
0000
0000
,  // measure 84
1000
0010
0100
0000
0001
0010
0100
0010
,  // measure 85
0001
0100
0010
0000
1000
0010
0100
0010
,  // measure 86
1000
1100
0001
0011
,  // measure 87
1000
0001
0010
0100
2000
0000
3001
0000
,  // measure 88
0220
0000
0000
0000
,  // measure 89
0000
0000
0000
0330
;

//---------------dance-single - ----------------
#NOTES:
     dance-single:
     :
     Hard:
     15:
     0.762008,0.750251,0.557289,0.413986,0.433890,670.000000,600.000000,70.000000,52.000000,0.000000,0.000000,0.762008,0.750251,0.557289,0.413986,0.433890,670.000000,600.000000,70.000000,52.000000,0.000000,0.000000:
// measure 0
0000
0000
0000
0000
,  // measure 1
0000
0000
0000
0000
,  // measure 2
0000
0000
0000
0000
,  // measure 3
0000
0000
0000
0000
,  // measure 4
0001
0000
0100
0010
0100
0000
0001
0000
0010
0000
0000
0000
0110
0000
0000
0000
,  // measure 5
1000
0000
0010
0100
0010
0000
1000
0000
0010
0000
0000
0000
0110
0000
0000
0000
,  // measure 6
1000
0000
0001
0010
0001
0000
0010
0000
0100
0000
0000
0000
1001
0000
0000
0000
,  // measure 7
1000
0000
0010
0100
0001
0000
0010
0100
1000
0000
0000
0000
1001
0000
0000
0000
,  // measure 8
0010
0000
0100
0010
0000
0100
0010
0000
1000
0000
0100
0000
0001
0000
0100
0000
,  // measure 9
1000
0000
0001
0010
0000
0001
1000
0000
0001
0000
0010
0000
1000
0000
0010
0000
,  // measure 10
0001
0000
0100
0000
0110
0000
0000
0000
1000
0000
0001
0010
0100
0000
0010
0000
,  // measure 11
0001
0000
1000
0100
0000
1000
0001
0000
0100
0000
0000
0000
0110
0000
0000
0000
,  // measure 12
0001
0000
0010
0100
0000
0010
0100
0000
1000
0000
0100
0000
0001
0000
0100
0000
,  // measure 13
1000
0000
0010
0100
0000
0010
0100
0000
0001
0000
0100
0000
1000
0000
0100
0000
,  // measure 14
0010
0000
1000
0000
1100
0000
0000
0000
0010
0000
1000
0001
0010
0000
0001
0000
,  // measure 15
0100
0000
0010
0100
0000
0010
0100
0000
0001
0000
0010
0100
0020
0000
0000
0000
,  // measure 16
0031
0000
0100
1000
0000
0100
0001
0000
0100
0010
0000
0100
0010
0000
1000
0000
,  // measure 17
0100
0000
0010
0001
0000
0010
0100
0000
0010
0001
0000
1000
0010
0000
0100
0000
,  // measure 18
0001
0000
0010
0001
0000
0100
0010
0000
1000
0100
0000
1000
0010
0000
0100
0000
,  // measure 19
0010
0000
1000
0100
0000
1000
0010
0000
0100
0001
0000
0010
0100
0000
1000
0000
,  // measure 20
0010
0000
0100
0001
0000
0100
0010
0000
0000
0000
0010
0100
0001
0000
0010
0000
,  // measure 21
0100
0000
1000
0100
0000
0010
0100
0000
0000
0000
0100
1000
0010
0000
0100
0000
,  // measure 22
0001
0000
1000
0010
0000
1000
0001
0000
0000
0000
0001
0010
0100
0000
1000
0000
,  // measure 23
2001
0000
0000
0010
0000
0000
3002
0000
0000
0103
0000
0000
1001
0000
0000
0000
,  // measure 24
0110
0000
0000
0000
1001
0000
0000
0000
0100
0000
0010
0100
0010
0000
0000
0000
,  // measure 25
1000
0000
0100
0000
0001
0000
0100
0000
1000
0000
0010
0100
0001
0000
0010
0000
,  // measure 26
0011
0000
0000
0000
1100
0000
0000
0000
0010
0000
1000
0001
0100
0000
0010
0000
,  // measure 27
0100
1000
0100
0001
0010
0010
0110
0000
,  // measure 28
1100
0000
0000
0000
0101
0000
0000
0000
1000
0000
0010
0100
0001
0000
0010
0000
,  // measure 29
0100
0000
0010
0000
0001
0000
0010
0000
1000
0000
0010
0001
0100
0000
0010
0000
,  // measure 30
0110
1001
0110
1001
,  // measure 31
0100
0100
0100
0100
0110
0000
1001
0000
,  // measure 32
1010
0000
0000
0000
0101
0000
0000
0000
0001
0000
0010
0100
1000
0000
0010
0000
,  // measure 33
1000
0000
0100
0000
1000
0000
0010
0100
0010
0000
1000
0000
1100
0000
0000
0000
,  // measure 34
0011
0000
0000
0000
1100
0000
0000
0000
0010
0000
0100
0001
0010
0000
0001
0000
,  // measure 35
0100
1000
0100
0001
0010
0010
0110
0000
,  // measure 36
0101
0000
0000
0000
1010
0000
0000
0000
0100
0000
0010
1000
0100
0000
0010
0000
,  // measure 37
0001
0000
0100
0000
0010
0000
0100
0001
0010
0000
0001
0000
0100
0000
0010
0100
,  // measure 38
0001
1001
0110
1001
,  // measure 39
0020
0130
2000
3100
0002
0013
0200
0310
,  // measure 40
0001
0010
0000
0011
1000
0010
0000
0110
,  // measure 41
0100
0000
0001
0000
0010
0000
0100
0000
1000
0000
0010
0100
0020
0000
0000
0000
,  // measure 42
1030
1100
0000
0001
0110
0001
1000
0001
,  // measure 43
0020
0130
2000
3100
0020
0031
0020
0130
,  // measure 44
1000
1001
0000
0110
0000
0100
0010
1000
,  // measure 45
0001
0000
0100
0000
1000
0000
0100
0000
0010
0000
1000
0100
0010
0000
0000
0000
,  // measure 46
0001
0100
0010
0100
0001
0010
0100
1000
,  // measure 47
0002
0013
2000
3001
0200
1300
0020
0130
,  // measure 48
0001
1001
0000
0100
1010
0100
0000
0100
,  // measure 49
0001
0000
0010
0000
0100
0000
1000
0000
0010
0100
0010
0100
0010
0000
0000
0000
,  // measure 50
1000
1100
0000
0001
1010
0100
0001
0010
,  // measure 51
0100
0010
0001
0010
1000
0010
0001
0100
,  // measure 52
0010
0110
0000
1010
0000
0110
0100
0001
,  // measure 53
0010
0000
0100
0000
1000
0000
0010
0000
1000
0001
1000
0001
1000
0000
0000
0000
,  // measure 54
0010
0110
0000
0100
0001
1000
0100
0010
,  // measure 55
0001
0000
1001
0000
0000
0000
0110
0000
1000
0001
0100
0010
0100
0000
0000
0000
,  // measure 56
0202
0000
0000
0300
0000
0023
0000
0200
,  // measure 57
0000
0030
2000
3300
,  // measure 58
2020
3000
0200
0030
,  // measure 59
0002
0300
2000
3003
,  // measure 60
2200
0000
0000
0300
0000
3020
0000
0200
,  // measure 61
0000
0030
0002
0303
,  // measure 62
0022
0033
2200
3300
,  // measure 63
2002
3003
0220
0330
,  // measure 64
1000
0100
0001
0000
0101
0000
0002
0100
,  // measure 65
0003
1000
0100
0000
2200
0000
0300
0000
,  // measure 66
3001
0100
1000
0000
1100
0000
2000
0100
,  // measure 67
3000
0001
0100
0000
2200
0000
3000
0000
,  // measure 68
0301
0010
1000
0000
0011
0000
0001
0020
,  // measure 69
0000
1030
0010
0000
0011
0000
1010
0000
,  // measure 70
0100
0010
0100
0000
0001
0010
0100
1000
,  // measure 71
2002
3003
0220
0330
,  // measure 72
1000
0000
0010
0100
0000
0010
1000
0000
0100
0000
0001
0000
0100
0000
1000
0000
,  // measure 73
0001
0000
0010
0100
0000
0010
0001
0000
1000
0000
0010
0000
0001
0000
0010
0000
,  // measure 74
1000
0000
0001
0000
0011
0000
0000
0000
1000
0000
0010
0100
0010
0000
1000
0000
,  // measure 75
0001
0000
0010
0100
1000
0000
0001
0000
0100
0000
0010
0000
0110
0000
0000
0000
,  // measure 76
1000
0000
0001
0010
0000
0001
1000
0000
0100
0000
0001
0000
0100
0000
1000
0000
,  // measure 77
0001
0000
1000
0010
0000
1000
0001
0000
0010
0000
1000
0000
0010
0000
0001
0000
,  // measure 78
1000
0000
0010
0000
0110
0000
0000
0000
0001
0000
0010
0001
0010
0000
0100
0000
,  // measure 79
1000
0000
0010
0100
0000
0001
0010
0000
0100
0000
1000
0000
1001
0000
0000
0000
,  // measure 80
0010
0000
0100
0010
0000
0001
0010
0000
0100
0010
0000
1000
0010
0000
0100
0000
,  // measure 81
0001
0000
0010
0001
0000
1000
0001
0000
0010
0001
0000
0100
0001
0000
0010
0000
,  // measure 82
0100
0000
1000
0100
0000
0001
0100
0000
1000
0100
0000
0001
0100
0000
1000
0000
,  // measure 83
0010
0000
0100
1000
0000
0100
0010
0000
0100
1000
0000
0100
0010
0000
1000
0000
,  // measure 84
0001
0000
0010
0100
0000
1000
0010
0000
0000
0000
0010
0100
0010
0000
1000
0000
,  // measure 85
0100
0000
0010
0001
0000
1000
0001
0000
0000
0000
0001
0100
0001
0000
0010
0000
,  // measure 86
0100
0000
1000
0010
0000
0100
0010
0000
1000
0001
0000
0001
1000
0000
0010
0000
,  // measure 87
0100
0000
0001
0010
0000
0100
1000
0000
0010
0100
0000
0100
0010
0000
0000
0000
,  // measure 88
2002
0000
0000
0000
,  // measure 89
0000
0000
0000
3003
;
