#TITLE:Warpstep;
#SUBTITLE:;
#ARTIST:DJ Shimamura;
#TITLETRANSLIT:;
#SUBTITLETRANSLIT:;
#ARTISTTRANSLIT:;
#GENRE:;
#CREDIT:;
#BANNER:Warpstep_banner.png;
#BACKGROUND:Warpstep.png;
#LYRICSPATH:;
#CDTITLE:;
#MUSIC:Warpstep.ogg;
#OFFSET:-0.890000;
#SAMPLESTART:30.420000;
#SAMPLELENGTH:12.000000;
#LASTBEATHINT:241.000000;
#SELECTABLE:YES;
#BPMS:0.000000=130.000000
;
#STOPS:
;
#BGCHANGES:;
#KEYSOUNDS:;
#ATTACKS:;

//---------------dance-single - ----------------
#NOTES:
     dance-single:
     :
     Easy:
     5:
     0.206795,0.228858,0.145613,0.205571,0.000000,169.000000,152.000000,17.000000,24.000000,0.000000,0.000000,0.206795,0.228858,0.145613,0.205571,0.000000,169.000000,152.000000,17.000000,24.000000,0.000000,0.000000:
0000
0000
0000
0000
,
0000
0000
0000
0000
,
0000
0000
0000
0000
,
0000
0000
0000
0000
,
0010
1000
0000
1000
,
0001
0010
0000
0010
,
0001
1000
0100
0010
,
2002
0000
3003
0000
,
0100
0000
0001
0010
,
0100
0000
1000
0010
,
0100
0000
0001
1000
,
0010
0000
1000
1000
,
0020
0000
0030
0000
,
0100
0000
0001
1000
,
0100
0000
1000
0001
,
0020
0000
0030
0000
,
0001
0100
0010
1000
,
0200
0000
0310
0000
,
0010
0100
1000
0001
,
0200
0000
0310
0000
,
0001
0010
0100
1000
,
0001
0000
1001
0000
,
0100
0010
1000
0001
,
0010
0000
0110
0000
,
2000
0010
0000
3010
,
0002
0100
0000
0103
,
2000
0100
0000
3100
,
0002
0010
0000
0013
,
0001
1000
0100
0000
,
1000
0001
0100
0000
,
0010
1000
0100
0010
,
2002
0000
3003
0000
,
0110
0000
1000
0000
,
1100
0000
0001
0000
,
0011
0000
0100
0000
,
2002
0000
0000
3003
0000
0000
0000
0000
,
1010
0000
0001
0000
,
0011
0000
1000
0000
,
1100
0000
0010
0000
,
0220
0000
0000
0330
0000
0000
0000
0000
,
0001
0010
0001
0000
,
1000
0010
1000
0000
,
0100
1000
0001
0010
,
2002
0000
3003
0000
,
0010
1000
0001
0010
,
0002
0100
0103
0000
,
1000
0001
0010
0100
,
2000
0010
3010
0000
,
0100
0010
0100
0000
,
0001
0010
0001
0000
,
1000
0001
0010
0100
,
2002
0000
3003
0000
,
0001
0100
0010
0010
,
1000
0100
0010
0000
,
0001
1000
0100
0100
,
1000
0001
0010
0000
,
0100
1000
0001
1000
,
0010
0100
0001
0000
,
0011
0000
1100
0000
,
0220
0000
0000
0330
0000
0000
0000
0000
;

//---------------dance-single - ----------------
#NOTES:
     dance-single:
     :
     Medium:
     9:
     0.330382,0.359749,0.265529,0.402576,0.042827,270.000000,239.000000,31.000000,47.000000,0.000000,0.000000,0.330382,0.359749,0.265529,0.402576,0.042827,270.000000,239.000000,31.000000,47.000000,0.000000,0.000000:
0000
0000
0000
0000
,
0000
0000
0000
0000
,
0000
0000
0000
0000
,
0000
0000
0000
0000
,
1002
0000
0103
0000
0010
0100
0001
0000
,
0010
0000
0000
0100
0000
0000
2000
0000
0000
0000
0010
0000
3010
0000
0000
0000
,
0102
0000
0013
0000
0100
1000
0001
0010
,
0002
0000
0000
0000
0000
0003
0000
0000
,
0100
0010
1000
0000
0100
1000
0010
0000
,
0100
0001
0010
0000
0001
0010
0100
0000
,
0010
0001
1000
0000
0010
1000
0001
0000
,
0100
0001
1000
0000
0100
1000
0001
1000
,
0020
0100
0000
0130
,
1000
0100
0010
0000
0001
0100
0010
0000
,
1000
0100
1000
0000
0001
0010
0001
0100
,
0020
0000
0000
0030
,
2010
0000
3100
0000
0010
0001
1000
0000
,
0010
0000
0000
1000
0000
0000
0200
0000
0000
0000
0000
0000
0310
0000
0000
0000
,
0012
0000
1003
0000
0010
1000
0100
0000
,
0010
0000
0001
2000
0000
0010
3010
0000
,
0210
0000
0301
0000
0010
0001
1000
0000
,
0100
0000
0000
1000
0000
0000
0020
0000
0000
0000
0000
0000
0130
0000
0000
0000
,
0102
0000
1003
0000
0010
0100
0001
0000
,
0010
0000
0100
1000
0001
0000
1001
0000
,
0200
0010
0000
0310
,
0002
0010
0000
0013
,
2000
0100
0000
3100
,
0020
0100
0000
0130
,
0201
0000
0310
0000
1000
0100
0010
0000
,
0001
0000
2000
0010
0000
0000
3010
0000
,
0120
0000
1030
0000
0100
0010
0001
0000
,
2002
0000
0000
3003
,
0110
0000
0001
0000
0000
0001
0010
0000
,
1100
0000
0010
0000
0000
0010
0100
0000
,
1010
0000
0001
0000
0000
0001
0010
0000
,
0001
0000
0000
0100
0000
0000
0010
0000
0000
0000
0000
0000
0010
0000
0000
0000
,
0210
0001
0000
0301
,
0120
1000
0000
1030
,
2010
0001
0000
3001
,
0100
0000
0000
0010
0000
0000
0220
0000
0000
0000
0000
0000
0330
0000
0000
0000
,
0002
0013
2000
3010
,
0002
0103
2000
3100
,
1000
0001
0100
0000
0001
1000
0100
0010
,
0002
0000
0000
0003
,
2010
0000
3001
0000
0010
0100
1000
0000
,
0010
0000
0000
0100
0000
0000
0002
0000
0000
0000
0000
0000
0013
0000
0000
0000
,
0201
0000
0310
0000
1000
0001
0010
0000
,
0001
0000
0100
0020
0000
0000
1030
0000
,
1002
0000
0103
0000
0010
1000
0001
0000
,
0100
0000
0000
0001
0000
0000
0020
0000
0000
0000
0000
0000
0130
0000
0000
0000
,
2100
0000
3001
0000
0100
0010
1000
0100
,
0010
0000
0000
0001
0000
0000
2002
0000
0000
0000
0000
0000
3003
0000
0000
0000
,
0110
0000
1000
0100
0000
0100
0010
0000
,
0011
0000
1000
0001
0000
0001
0100
0000
,
0110
0000
1000
0001
0000
0001
0010
0000
,
0100
0000
0000
1000
0000
0000
2002
0000
0000
0000
0000
0000
3003
0000
0000
0000
,
0101
0000
0010
1000
0000
0010
1000
0000
,
1100
0000
0010
0001
0000
1000
0001
0000
,
2010
3001
0012
0103
,
0010
0000
0000
1000
0000
0000
2200
0000
0000
0000
0000
0000
0000
0000
0000
0000
,
3300
0000
0000
0000
;

//---------------dance-single - ----------------
#NOTES:
     dance-single:
     :
     Hard:
     13:
     0.564097,0.616713,0.179875,0.325487,0.492514,461.000000,440.000000,21.000000,38.000000,0.000000,0.000000,0.564097,0.616713,0.179875,0.325487,0.492514,461.000000,440.000000,21.000000,38.000000,0.000000,0.000000:
// measure 0
0000
0000
0000
0000
,  // measure 1
0000
0000
0000
0000
,  // measure 2
0000
0000
0000
0000
,  // measure 3
0000
0000
0000
0000
,  // measure 4
0010
1000
0001
0100
0001
0010
0100
1000
,  // measure 5
0010
1000
0100
0010
1000
0010
0100
0001
,  // measure 6
0100
1000
0001
0000
0100
0001
1000
0000
0010
0100
0001
0000
0010
0100
1000
0001
,  // measure 7
0200
0000
0000
0300
,  // measure 8
0001
0000
0010
0001
0000
0010
0000
0010
0001
1000
0000
1000
0010
0100
0010
0000
,  // measure 9
1000
0000
0100
0000
1000
0000
0010
0100
0001
0000
0010
0001
0000
1000
0010
0000
,  // measure 10
1000
0000
0100
1000
0000
0100
0000
0100
1000
0010
0000
0010
0100
0000
0001
0000
,  // measure 11
0010
0000
0001
0000
0010
0000
0100
1000
0001
0100
0000
0010
0100
0000
0010
0000
,  // measure 12
0210
0001
1000
0301
,  // measure 13
1000
0000
0100
0000
0010
0000
0001
1000
0010
0000
0100
0000
0001
0000
0010
0100
,  // measure 14
1000
0010
0100
0001
0010
0100
0001
0100
,  // measure 15
0020
0001
1000
0031
,  // measure 16
0200
0000
0001
0000
0320
0000
1000
0000
0130
0000
0001
0000
0010
0000
0100
1000
,  // measure 17
0001
0000
0000
1000
0000
0000
1001
0000
0000
0000
0010
0000
0100
0010
0000
0010
,  // measure 18
2000
0000
0100
0000
3002
0000
0010
0000
1003
0000
0100
0000
0010
0100
0000
1000
,  // measure 19
0001
0010
1000
0020
0000
0001
0031
0000
,  // measure 20
0200
0000
0001
0000
0320
0000
1000
0000
0130
0000
0001
0000
1000
0100
0000
0010
,  // measure 21
0001
0000
0100
0000
0010
0000
0100
0000
0001
0000
0010
0000
0100
1000
0000
0100
,  // measure 22
2000
0000
0010
0000
3002
0000
0100
0000
0013
0000
0100
0000
1000
0001
0100
0000
,  // measure 23
0010
0000
1000
0000
0001
0000
0010
0000
0100
0000
0010
0000
0001
1000
0010
0000
,  // measure 24
0200
0001
0000
0301
,  // measure 25
0020
1000
0000
1030
,  // measure 26
2100
0001
0000
3001
,  // measure 27
0012
1000
0000
1003
,  // measure 28
0010
0000
0100
0000
0001
0000
1000
0000
0001
0000
0010
0000
1000
0000
0010
0001
,  // measure 29
0010
0000
0100
0000
1000
0000
0010
0000
0100
0000
0001
0000
0100
0010
0100
0000
,  // measure 30
0001
0000
1000
0000
0100
0000
1000
0010
0100
0000
0001
0000
0010
0100
0010
0100
,  // measure 31
2000
0000
0000
3000
,  // measure 32
0101
0000
0000
0000
0010
1000
0010
1000
0000
0001
0000
0001
0010
0000
0100
0000
,  // measure 33
2000
0000
0000
0000
3001
0100
0001
0100
0000
0010
0000
0010
1000
0000
0001
0000
,  // measure 34
0020
0000
0000
0000
0130
1000
0100
1000
0000
0010
0000
0010
0100
0000
0001
0000
,  // measure 35
0011
0000
0000
1100
0000
0000
2002
0000
0000
3003
0000
0000
0110
0000
0000
0000
,  // measure 36
1010
0000
0000
0000
0100
0001
0100
0001
0000
0010
0000
0100
0010
0000
0001
0000
,  // measure 37
2000
0000
0000
0000
3010
0100
0010
0100
0000
0001
0000
0010
0001
0000
1000
0000
,  // measure 38
0200
0000
0000
0000
0310
0001
0010
0001
0000
1000
0000
0010
0100
0000
0001
0000
,  // measure 39
1001
0000
0000
1010
0000
0000
0202
0000
0000
0000
0000
0000
0303
0000
0000
0000
,  // measure 40
1000
0000
0010
0000
1000
0000
0001
0010
0001
0000
1000
0000
0100
0000
1000
0001
,  // measure 41
1000
0000
0100
0000
1000
0000
0001
0010
0001
0000
0100
0000
0010
0000
0100
0001
,  // measure 42
0100
0000
0010
1000
0000
0000
0001
0000
0010
0100
0000
0000
1000
0000
0010
0100
0000
0000
0001
0000
1000
0001
0000
1000
,  // measure 43
0020
0000
0000
0030
,  // measure 44
2000
0000
0100
0000
3002
0000
0010
0000
0103
0000
0010
0000
1000
0001
0000
0010
,  // measure 45
0100
0000
1000
0000
0100
0000
0001
0000
0100
0000
1000
0000
0010
0100
0000
0001
,  // measure 46
0020
0000
0100
0000
2030
0000
0001
0000
3010
0000
0001
0000
0100
0010
0000
1000
,  // measure 47
0100
0000
1000
0000
0100
0000
0001
0000
1000
0000
0010
0000
0001
0100
0010
0000
,  // measure 48
2000
0000
0010
0000
3002
0000
1000
0000
0103
0000
0010
0000
1000
0100
0010
0000
,  // measure 49
0001
0000
0100
0000
1000
0000
0100
0000
0001
0000
0010
0000
0100
1000
0001
0000
,  // measure 50
0020
0000
1000
0000
0032
0000
0100
0000
1003
0000
0010
0000
1000
0001
0100
0000
,  // measure 51
0010
0000
0000
1001
0000
0000
0100
0010
0100
0000
0001
0000
0010
0100
1000
0000
,  // measure 52
0001
0000
0010
0000
0001
1000
0100
1000
0000
0010
0000
0010
0100
0000
0001
0000
,  // measure 53
1000
0000
0010
0000
1000
0100
1000
0100
0000
0010
0000
0010
0001
0000
0100
0000
,  // measure 54
0010
0000
1000
0000
0001
0100
0001
0100
0000
0010
0000
0010
1000
0000
0001
0000
,  // measure 55
0011
0000
0000
1100
0000
0000
2002
0000
0000
3003
0000
0000
0110
0000
0000
0000
,  // measure 56
1000
0000
0010
0000
1000
0001
0010
0001
0000
0100
0000
0100
0010
0000
1000
0000
,  // measure 57
0001
0000
0010
0000
0100
1000
0001
1000
0000
0010
0000
0010
0100
0000
0001
0000
,  // measure 58
1000
0000
0001
0000
0010
0100
0010
0100
0000
0010
0000
0010
0001
0000
0100
0000
,  // measure 59
0110
0000
0000
1001
0000
0000
0202
0000
0000
0000
0000
0000
0000
0000
0000
0000
,  // measure 60
0303
0000
0000
0000
;
