#TITLE:WAKE UP NOW;
#SUBTITLE:;
#ARTIST:Maozon feat. Chica;
#TITLETRANSLIT:;
#SUBTITLETRANSLIT:;
#ARTISTTRANSLIT:;
#GENRE:TROPICAL ELECRTO HOUSE;
#CREDIT:;
#BANNER:WAKE_UP_NOW_banner.png;
#BACKGROUND:WAKE_UP_NOW.png;
#LYRICSPATH:;
#CDTITLE:;
#MUSIC:WAKE UP NOW.ogg;
#OFFSET:0.300000;
#SAMPLESTART:78.900002;
#SAMPLELENGTH:15.000000;
#LASTBEATHINT:296.500000;
#SELECTABLE:YES;
#BPMS:0.000000=150.000000
;
#STOPS:196.000000=0.400000
;
#BGCHANGES:;
#KEYSOUNDS:;
#ATTACKS:;

//---------------dance-single - ----------------
#NOTES:
     dance-single:
     :
     Easy:
     6:
     0.244911,0.277541,0.075265,0.158893,0.000000,205.000000,196.000000,9.000000,19.000000,0.000000,0.000000,0.244911,0.277541,0.075265,0.158893,0.000000,205.000000,196.000000,9.000000,19.000000,0.000000,0.000000:
0000
0000
0000
0000
,
0000
0000
0000
0000
,
0000
0000
0000
0000
,
0000
0000
0000
0000
,
0000
0000
0000
0000
,
0010
0100
0010
0100
,
0001
0000
1000
0000
,
0100
0010
0100
0010
,
0001
0000
1001
0000
,
0100
0010
1000
0010
,
0100
0000
0001
0000
,
0010
0001
1000
0001
,
0010
0000
0100
0000
,
1000
0010
0100
0010
,
1000
0000
0001
0000
,
0010
0001
0100
0010
,
2002
0000
3003
0000
,
0100
0010
1000
0000
,
0100
1000
0001
0000
,
0100
0001
0010
0000
,
0001
0010
0100
0000
,
1000
0001
0100
0000
,
0001
1000
0010
0000
,
1000
0001
0010
0100
,
2000
0000
3001
0000
,
0100
0010
0100
0001
,
0020
0000
0130
0000
,
1000
0010
0100
0010
,
2000
0000
3001
0000
,
0001
0100
0010
0100
,
0001
0000
1001
0000
,
1000
0010
0100
0010
,
2002
0000
3003
0000
,
0100
0000
0100
0010
,
0100
0000
0001
0000
,
0010
0000
0001
1000
,
0001
0000
0100
0000
,
0010
1000
0100
0000
,
1000
0001
0010
0000
,
0001
0000
0100
0000
,
0010
0000
1000
0000
,
0100
1000
0100
0000
,
0010
0001
0010
0000
,
0001
0100
0001
0000
,
1000
0010
1000
0001
,
0001
0000
0000
0010
0000
0000
0002
0000
,
0000
0003
0000
0000
,
1000
0000
0000
0010
0000
0000
2000
0000
,
0000
3000
0000
0000
,
0110
0000
0000
1000
,
0001
0010
0001
1000
,
0000
0011
0000
0001
,
0100
0010
0100
0001
,
0000
1010
0000
0100
,
0010
1000
0001
0010
,
0100
1000
0000
0010
,
0100
0001
1000
0100
,
0010
0002
0003
1000
,
0001
0010
0001
0100
,
0010
0010
0000
0001
,
0100
0010
1000
0100
,
0010
0010
0000
0100
,
1000
0001
0010
0001
,
1000
0010
0000
0100
,
1000
0010
0001
0220
,
0000
0330
0000
0002
,
0000
0013
0100
0010
,
0001
1000
0000
0020
,
0000
1030
0010
0200
,
0000
0301
0010
0002
,
0000
1003
0100
0020
,
0000
0030
0000
0001
,
0000
1000
0000
0000
0001
0000
2000
0000
,
0000
0002
3003
0011
;

//---------------dance-single - ----------------
#NOTES:
     dance-single:
     :
     Medium:
     9:
     0.403804,0.493406,0.275973,0.167256,0.037633,338.000000,305.000000,33.000000,20.000000,0.000000,0.000000,0.403804,0.493406,0.275973,0.167256,0.037633,338.000000,305.000000,33.000000,20.000000,0.000000,0.000000:
0000
0000
0000
0000
,
0000
0000
0000
0000
,
0000
0000
0000
0000
,
0000
0000
0000
0000
,
0000
0000
0000
0000
,
0100
0001
0100
1000
,
0200
0000
0310
0000
,
1000
0010
0001
0010
,
1000
0000
1001
0000
,
0010
0000
0001
0000
0100
0010
1000
0000
,
0100
0000
1000
0000
0010
0100
0001
0000
,
1000
0000
0001
0000
0100
0010
0001
0000
,
0010
0000
1000
0000
0100
1000
0001
0000
,
0010
0000
0011
0000
0001
1000
0100
0000
,
1000
0000
1010
0000
0100
0001
1000
0000
,
0010
0100
0010
0000
1000
0100
0010
0001
,
0200
0000
0000
0300
,
0001
0000
0011
0000
1000
0001
0100
0000
,
0010
0000
1000
0000
0100
1000
0001
1000
,
0010
0000
0110
0000
1000
0001
0010
0000
,
0001
0000
0100
0000
0010
1000
0001
0010
,
0100
0000
1001
0000
0010
0001
1000
0000
,
0010
0000
0100
0000
0001
0010
0100
0010
,
0001
0000
0101
0000
0010
0100
0001
1000
,
0100
0000
0000
0110
0000
0000
1000
0001
1000
0002
0000
0000
,
0103
0000
0110
0000
0010
1000
0100
0000
,
1000
0000
0001
0010
0100
1000
0001
0000
,
1000
0000
1001
0000
0010
0100
0001
0010
,
0001
1001
0020
0030
,
0100
0010
1000
0000
0001
1000
0100
0000
,
1000
0000
0001
1000
0100
0010
0001
0000
,
0010
0000
1001
0000
0100
0010
0100
0010
,
0220
0000
0000
0330
,
0001
0000
0000
0000
0010
0000
0001
1000
,
0100
1000
0010
0100
,
0020
0000
0000
0000
1030
0000
0100
1000
,
0001
0010
0001
0100
,
0002
0000
0000
0000
0013
0000
0001
1000
,
0010
0100
0010
1000
,
0200
0000
0000
2300
0000
0000
3001
0000
,
0100
0000
0010
0000
0100
0001
1000
0000
,
0001
0000
0000
1000
0000
0000
0001
0000
0020
0000
0000
0000
0030
0000
0000
0000
,
0100
0000
0000
1000
0000
0000
0001
0000
0200
0000
0000
0000
0300
0000
0000
0000
,
0001
0000
0000
0010
0000
0000
0100
0000
2000
0000
0000
0000
3000
0000
0000
0000
,
0010
0000
0000
1000
0000
0000
0001
0000
0100
0000
0000
0000
0010
0000
0000
0000
,
1010
0000
0000
1100
0000
0000
2002
0000
,
0000
0000
3003
0000
,
0011
0000
0000
1001
0000
0000
0202
0000
,
0000
0000
0000
0000
0000
0303
0000
0000
,
0010
0000
0000
1000
,
1100
0000
0001
0000
0101
0000
0000
0010
,
0001
1000
0001
0000
0100
0000
0010
0000
,
1010
0000
0100
0000
0101
0000
0000
1000
,
0001
0010
0001
0000
1000
0000
0001
0000
,
0011
0000
1000
0000
1010
0000
0000
0100
,
0001
0010
0001
0000
1000
0000
0010
0000
,
0110
1000
1001
0010
,
0010
0000
1000
0001
0100
0000
0001
0010
,
0100
0000
0010
0100
1000
0000
0010
0000
,
1000
0000
0001
1000
0100
0000
1000
0010
,
0100
0000
0010
0100
0001
0000
0010
0000
,
1001
0000
0010
0100
0001
0000
0010
0000
,
0011
0000
1000
0000
1100
0000
0000
0010
,
1000
0001
0010
0000
0001
0000
0010
0001
,
0100
0010
1000
0100
0010
0001
0200
0000
,
0000
0010
0310
1000
,
0010
0000
0100
0000
0010
0000
0100
0001
,
0000
0000
0001
0000
0010
0000
0001
0000
1000
0000
0000
0000
0100
0000
0000
1000
,
0000
0000
0100
0000
0000
0000
0000
0000
1001
0000
0000
0000
0010
0000
0000
0001
,
0000
0010
0000
0000
1001
0000
0010
0000
,
0100
0000
0001
0010
0100
0000
1000
0000
,
0010
0000
1000
0000
0000
0000
1000
0000
0001
0000
0000
0000
0010
0000
0000
0001
,
0000
1000
0000
0010
1000
0001
0200
0000
,
0000
0020
0330
1001
;

//---------------dance-single - ----------------
#NOTES:
     dance-single:
     :
     Hard:
     13:
     0.660662,0.678433,0.418141,0.133805,0.627211,553.000000,503.000000,50.000000,16.000000,0.000000,0.000000,0.660662,0.678433,0.418141,0.133805,0.627211,553.000000,503.000000,50.000000,16.000000,0.000000,0.000000:
// measure 0
0000
0000
0000
0000
,  // measure 1
0000
0000
0000
0000
,  // measure 2
0000
0000
0000
0000
,  // measure 3
0000
0000
0000
0000
,  // measure 4
0000
0000
0000
0000
,  // measure 5
0012
0100
0010
0103
,  // measure 6
0010
1000
0100
0001
0100
1000
0001
0000
,  // measure 7
2010
0100
0010
3100
,  // measure 8
0010
1000
0010
0001
1000
0010
0100
0000
,  // measure 9
0001
0000
0010
0100
0000
0100
0000
1000
0010
0000
0100
0001
0000
0001
0000
0010
,  // measure 10
0001
0000
0100
0010
0000
0010
0000
1000
0100
0000
1000
0010
1000
0000
0001
0000
,  // measure 11
0010
0000
0001
0100
0000
0100
0000
0010
1000
0000
0100
1000
0000
1000
0000
0010
,  // measure 12
0100
0000
0001
0010
0000
0010
0000
0100
1000
0000
0001
0010
0001
0000
0100
0000
,  // measure 13
0001
0010
0100
1000
0100
0001
0100
1000
,  // measure 14
0010
1000
0010
0001
0010
0100
0001
1000
,  // measure 15
0001
0000
0100
0000
0010
0000
1000
0000
0001
0100
0001
0000
1000
0010
0100
0001
,  // measure 16
0020
0000
0100
0130
,  // measure 17
1000
0000
0001
0100
0000
0100
0000
0010
0100
0000
0001
1000
0000
1000
0000
0100
,  // measure 18
0010
0000
0001
0010
0000
0010
0000
0001
1000
0000
0010
0100
0010
0000
1000
0000
,  // measure 19
0001
0000
0010
0100
0000
0100
0000
1000
0010
0000
0100
0001
0000
0001
0000
0010
,  // measure 20
0100
0000
1000
0001
0000
0001
0000
0010
0001
0000
1000
0100
1000
0000
0010
0000
,  // measure 21
0100
0000
0001
0100
0000
0010
0000
1000
0100
0000
1000
0010
0000
0100
0000
0001
,  // measure 22
0010
0000
0001
1000
0000
0100
0000
0010
0001
0000
1000
0010
1000
0000
0001
0000
,  // measure 23
0100
0000
0010
1000
0000
0001
0000
0010
0100
0000
1000
0010
0000
0100
0000
0001
,  // measure 24
1000
0000
0000
0000
0000
0000
0001
0000
0000
0100
0000
0000
0000
0000
0000
0010
0000
0000
0000
0000
0000
1000
0000
0000
0001
0000
0000
0000
0010
0000
0000
0000
0100
0000
0000
0000
1000
0000
0000
0000
0000
0000
0001
0000
0000
0000
0000
0000
,  // measure 25
0100
0000
0000
0000
0110
0000
0000
0000
0001
0000
0100
0010
0000
1000
0000
0010
,  // measure 26
0100
0000
0001
0010
0000
0100
0000
0010
0001
0000
0100
0010
0100
0000
0001
0000
,  // measure 27
1000
0000
0010
0100
0000
0001
0000
0100
0001
0000
0010
0100
0000
1000
0000
0010
,  // measure 28
1000
0000
0001
1000
0000
0100
0000
0010
0000
0001
0000
1001
0000
0100
0010
0000
,  // measure 29
0100
0000
0001
0010
0000
0001
0000
0010
0100
0000
1000
0010
0000
0100
0000
0010
,  // measure 30
1000
0000
0001
0010
0000
0001
0000
0010
0100
0000
1000
0001
1000
0000
0010
0000
,  // measure 31
1000
0000
0000
0101
0000
0000
0010
0000
0000
0100
0010
0000
1000
0000
0001
0000
,  // measure 32
2002
0000
0000
3003
,  // measure 33
0110
0000
0000
0000
0010
1000
0001
0010
,  // measure 34
0001
0000
1100
0000
0001
0010
0100
0000
,  // measure 35
2000
0000
0000
3010
0001
0010
1000
0100
,  // measure 36
0010
0000
1001
0000
0100
0010
1000
0000
,  // measure 37
0002
0000
0000
0013
1000
0010
0001
0100
,  // measure 38
0010
0000
1001
0000
0100
0001
0010
0100
,  // measure 39
1000
0000
0001
0011
0000
1000
1010
0000
,  // measure 40
0001
0101
0000
1000
0010
0100
0010
1000
,  // measure 41
0100
0000
0000
1001
0000
0000
0010
0100
0010
0000
0000
0000
1001
0000
0000
0000
,  // measure 42
0010
0000
0000
0101
0000
0000
0010
0100
0010
0000
0000
0000
1010
0000
0000
0000
,  // measure 43
0100
0000
0000
1010
0000
0000
0100
0001
0100
0000
0001
0000
0010
0000
0000
0000
,  // measure 44
0011
0000
0000
1000
0000
0000
0010
0100
0001
0000
0010
0000
0100
0000
0000
0000
,  // measure 45
1100
0000
0010
0110
0000
0010
0022
0000
,  // measure 46
0000
0000
0000
0033
,  // measure 47
0101
0000
0010
0110
0000
1000
2020
0000
,  // measure 48
0000
0000
0000
0000
0000
3030
0000
0000
,  // measure 49
1001
0000
0000
0000
0010
0000
0100
0010
0100
0000
0000
0000
1100
0000
0000
0000
,  // measure 50
0011
0000
1100
0000
0101
0000
0010
1000
,  // measure 51
0001
0010
0000
0010
0100
0000
1000
0000
0001
0000
0100
0000
0110
0000
0000
0000
,  // measure 52
1001
0000
0011
0000
1010
0000
0100
0001
,  // measure 53
0010
0001
0000
0001
1000
0000
0100
0000
0010
0000
0001
0000
1001
0000
0000
0000
,  // measure 54
0101
0000
1010
0000
1100
0000
0010
0100
,  // measure 55
1000
0100
0000
0100
0001
0000
0010
0000
0100
0000
1000
0000
1100
0000
0000
0000
,  // measure 56
0101
0000
0000
0010
0001
0000
1000
0000
1001
0000
0000
0000
0110
0000
0000
0000
,  // measure 57
1001
0000
0000
0000
0000
0000
0000
0000
0000
0000
0000
0000
0010
0000
0000
0000
1000
0000
0000
0000
0001
0000
0000
0000
0020
0000
0000
0000
0000
0000
0000
0000
0000
0000
0000
0000
0031
0000
0000
0000
0000
0000
0100
0000
0000
0010
0000
0000
,  // measure 58
0000
1000
0000
0100
1000
0000
0010
0100
0000
0001
0000
0010
0001
0000
0010
0100
,  // measure 59
0000
1000
0000
0001
1000
0000
0010
0100
0010
0000
1000
0000
0100
0000
0010
0001
,  // measure 60
0000
0010
0000
0100
1000
0000
0010
0100
0000
0001
0000
0010
0001
0000
1000
0010
,  // measure 61
0000
0010
0000
1000
0001
0000
0010
0100
0010
0000
0001
0000
1000
0000
0000
0000
,  // measure 62
1100
0000
0001
0000
0011
0000
1000
0001
,  // measure 63
0010
0000
0100
0000
1000
0000
0001
0000
0200
0000
0000
0000
0301
0010
0001
0000
,  // measure 64
1000
0010
1000
0000
0001
1000
0001
1000
0001
0000
0100
0000
0000
0000
0001
0000
,  // measure 65
0100
1000
0001
0010
0100
0000
1010
0000
,  // measure 66
0100
0001
0010
0001
1000
0010
1000
0100
,  // measure 67
0010
0001
0000
0001
1000
0000
0010
0000
1000
0000
0100
0000
0010
0000
0000
0101
,  // measure 68
0000
0000
1000
0000
0010
0100
0010
0000
1000
0000
0001
0000
0010
0000
0000
1100
,  // measure 69
0000
0000
0001
0100
0000
0010
0000
0100
0000
0000
0001
0010
0001
0000
1000
0000
,  // measure 70
0010
1000
0001
0100
1000
0100
0010
1000
,  // measure 71
0100
0000
0010
0100
1000
0000
0010
0000
0100
0000
0001
0010
0001
0000
0000
1001
,  // measure 72
0000
0000
0100
0000
0000
0010
0100
0000
0001
0000
0010
0000
0200
0000
0000
0000
,  // measure 73
2300
0020
3030
0011
;
