#TITLE:Voice 2 Voice;
#SUBTITLE:;
#ARTIST:MAD CHILD;
#TITLETRANSLIT:;
#SUBTITLETRANSLIT:;
#ARTISTTRANSLIT:;
#GENRE:;
#CREDIT:;
#BANNER:Voice_2_Voice_banner.png;
#BACKGROUND:Voice_2_Voice.png;
#LYRICSPATH:;
#CDTITLE:;
#MUSIC:Voice 2 Voice.ogg;
#OFFSET:-0.520000;
#SAMPLESTART:20.660000;
#SAMPLELENGTH:15.000000;
#LASTBEATHINT:260.000000;
#SELECTABLE:YES;
#BPMS:0.000000=143.000000
;
#STOPS:
;
#BGCHANGES:;
#KEYSOUNDS:;
#ATTACKS:;

//---------------dance-single - ----------------
#NOTES:
     dance-single:
     :
     Easy:
     5:
     0.224470,0.274761,0.103035,0.180312,0.000000,183.000000,171.000000,12.000000,21.000000,0.000000,0.000000,0.224470,0.274761,0.103035,0.180312,0.000000,183.000000,171.000000,12.000000,21.000000,0.000000,0.000000:
0000
0000
0000
0000
,
0000
0000
0000
0000
,
0000
0000
0110
0000
,
0000
0000
0001
0000
,
0100
0000
0100
0000
,
0100
0000
0100
0000
,
0010
0000
0010
0000
,
0010
0000
0010
0000
,
1000
0100
1000
0000
,
0001
0100
0001
0000
,
0020
0000
0000
0030
,
0110
0000
0000
0000
,
1000
0001
0010
0001
,
1000
0010
0010
0000
,
0100
0001
1000
0100
,
0010
0001
0001
0000
,
1000
0001
0010
0100
,
1000
0010
0010
0000
,
1000
0001
0010
0100
,
0220
0000
0330
0000
,
0001
1000
0010
0100
,
0001
0010
0010
0000
,
0100
1000
0001
0010
,
0001
0100
0100
0000
,
0001
1000
0002
0000
,
1003
0001
2000
0000
,
3010
0100
0010
0100
,
0001
0000
1001
0000
,
0220
0000
0330
0000
,
0202
0000
0303
0000
,
1100
0000
0001
0000
,
0010
0000
0001
0000
,
1001
0000
0010
0000
,
0200
0000
0310
0000
,
0001
0000
0001
1000
,
0200
0000
0310
0010
,
0001
0000
0001
1000
,
0010
0000
0010
0100
,
0010
0000
1000
0100
,
1000
0001
0010
0100
,
2000
0000
3001
0000
,
0200
0000
0310
0000
,
0020
0000
1030
0000
,
0002
0000
0103
0000
,
1000
0000
0001
0000
,
0010
0000
0100
0000
,
1000
0001
1000
0001
,
2002
0000
3003
0000
,
0100
0010
0100
0001
,
1000
0100
0100
0000
,
1000
0010
1000
0001
,
0010
0100
0100
0000
,
0010
0001
0100
0010
,
1000
0001
0001
0000
,
1000
0010
0100
0001
,
0010
0100
0100
0000
,
0100
1000
0100
1000
,
0001
0100
0110
0000
,
0001
0010
0001
1000
,
0001
0010
0110
0000
,
0001
0100
0020
0000
,
1030
0100
0020
0000
,
0032
0000
2003
0000
,
3010
0010
0010
0010
,
1001
0000
0000
0000
;

//---------------dance-single - ----------------
#NOTES:
     dance-single:
     :
     Medium:
     11:
     0.402328,0.439617,0.128794,0.223243,0.184605,328.000000,313.000000,15.000000,26.000000,0.000000,0.000000,0.402328,0.439617,0.128794,0.223243,0.184605,328.000000,313.000000,15.000000,26.000000,0.000000,0.000000:
0000
0000
0000
0000
,
0000
0000
0000
0000
,
0000
0000
0000
0000
0000
0000
0000
0000
0100
0000
0000
0010
0000
0000
0100
0000
,
0000
0000
0000
0000
0000
0000
0001
0000
0010
0000
0001
0000
0000
0000
0000
1000
0000
0000
0100
0000
0000
1000
0000
0000
,
0002
0010
0000
0013
,
2000
0010
0000
3010
,
0002
0100
0000
0103
,
2000
0100
0000
3100
,
0010
0000
0100
0000
0010
1000
0100
0000
,
0010
0000
0001
0000
0100
0001
0010
0000
,
2002
0000
0000
3003
,
0110
0000
0000
0000
,
1000
0000
0010
0100
0010
1000
0100
0000
,
0010
0000
0001
0010
0000
0001
1000
0000
,
0010
0000
0100
0001
0100
0010
1000
0000
,
0001
0000
0000
0000
1000
0000
0100
0000
0010
0000
0000
0100
0000
0000
0010
0000
,
0001
0000
1000
0001
0100
0010
1000
0000
,
0001
0000
0100
0010
0000
0100
0001
0000
,
1000
0000
0001
0010
0100
1000
0100
0000
,
0202
0000
0000
0000
0303
0000
0000
0000
0010
0000
0000
0010
0000
0000
0010
0000
,
1000
0000
0001
1000
0100
0010
0100
0000
,
1000
0000
0001
0100
0000
0010
0100
0000
,
0001
0000
1000
0010
0100
0010
1000
0000
,
0001
0000
0000
0000
1000
0000
0000
0000
0010
0000
0000
0100
0000
0000
0010
0000
,
1000
0000
0000
0000
0100
0000
0010
0000
0001
0000
0000
1000
0000
0000
0001
0000
,
0100
0000
0000
0000
0000
0000
0010
0000
0000
0100
0000
0000
0001
0000
1000
0000
0001
0000
1000
0000
0000
0000
0000
0000
,
0220
0330
2002
3003
,
0010
0100
0010
0100
0010
0100
0010
0000
0000
0110
0000
0000
,
2002
0000
3003
0100
,
2002
0000
3003
0010
,
0110
0000
0001
0100
1000
0100
0001
0000
,
1000
0100
0001
0100
1000
0000
0010
0000
,
0100
0000
0000
0010
0000
0000
0100
0000
0001
0000
0000
0010
0000
0000
0001
0000
,
1000
0000
0000
0100
0000
0000
1000
0000
0010
0000
0000
0100
0000
0000
0010
0000
,
1000
0010
0001
0010
1000
0001
1000
0001
,
0020
0000
0000
0000
0000
0000
0031
0100
0001
0100
0000
0000
,
0010
0000
0000
0100
0000
0000
0010
0000
1000
0000
0000
0100
0000
0000
1000
0000
,
0001
0000
0000
0000
0000
0000
0000
0000
0000
0010
0000
0000
0000
0000
0000
0000
0000
0000
0001
0000
0000
0000
0000
0000
1000
0000
0000
0000
0010
0000
0000
0000
1000
0000
0000
0000
0010
0000
0000
0000
0000
0000
0000
0000
0000
0000
0000
0000
,
0100
0000
0000
0010
0000
0000
0100
0000
0001
0000
0000
0000
0011
0000
0000
0000
,
1000
0000
1001
0000
0001
0100
0010
0000
,
0210
0000
0001
0000
,
0320
0000
0000
0000
1030
0000
0000
0100
,
0020
0000
1000
1000
,
0230
0000
0001
0301
,
0012
0000
1000
1003
,
2000
0000
0010
3010
,
0001
1000
0001
1000
0000
0000
0010
0100
0010
0100
0000
0000
,
1001
0000
0000
0000
,
0010
0001
0010
0001
0010
0000
0001
0000
,
1000
0010
1000
0010
1000
0000
0010
0000
,
0100
0001
0100
0001
0100
0000
0010
0000
,
1000
0100
1000
0100
0010
0000
0100
0000
,
1000
0001
0010
0001
1000
0000
0010
0000
,
0100
0001
0010
0001
0100
0000
0010
0000
,
1000
0100
0010
0100
1000
0000
0001
0000
,
0010
0000
0001
0000
1000
0000
0001
0000
0010
0000
0000
0001
0000
0000
1000
0000
,
0020
0000
0130
0001
0100
0010
1000
0000
,
0100
0000
1000
0000
0100
0000
0000
0000
0010
0000
0000
0001
0000
0000
1000
0000
,
0002
0000
0013
0100
1000
0100
0010
0000
,
0001
0000
0000
0000
1000
0000
0010
0000
0100
0000
0000
0010
0000
0000
1000
0000
,
0200
0000
0000
0000
1300
0000
0001
0000
1000
0000
0000
0010
0000
0000
0100
0000
,
0001
0000
0000
1000
0000
0000
0001
0000
0000
0000
0000
0000
0010
0000
0100
0000
0010
0000
0100
0000
0000
0000
0000
0000
,
1000
0000
1000
0001
0000
0001
0100
0000
0100
0010
0000
0010
,
0100
0000
0010
0000
1000
0000
0001
0000
0010
0000
0100
0000
,
1001
0000
0000
0000
;

//---------------dance-single - ----------------
#NOTES:
     dance-single:
     :
     Hard:
     15:
     0.711434,0.714378,0.540935,0.120208,0.768471,580.000000,517.000000,63.000000,14.000000,0.000000,0.000000,0.711434,0.714378,0.540935,0.120208,0.768471,580.000000,517.000000,63.000000,14.000000,0.000000,0.000000:
// measure 0
0000
0000
0000
0000
,  // measure 1
0000
0000
0000
0000
,  // measure 2
0000
0000
0000
0000
0000
0000
0000
0000
0110
0000
0000
0011
0000
0000
1100
0000
,  // measure 3
0000
0000
0000
0000
0000
0000
0001
0000
0010
0000
0100
0000
0000
0000
0000
1010
0000
0000
0010
0000
0000
0000
0000
0000
,  // measure 4
0101
0000
0000
0010
0100
0000
0001
0000
0010
0000
0100
0000
1000
0000
0100
0000
,  // measure 5
1000
0000
0000
1000
0010
0000
0100
0000
0001
0000
0010
0000
0100
0000
1000
0000
,  // measure 6
1001
0000
0000
0001
0100
0000
0010
0000
1000
0000
0001
0000
0010
0000
0100
0000
,  // measure 7
1000
0000
0000
1000
0010
0000
0100
0000
0101
0000
0000
0000
1100
0000
0000
0000
,  // measure 8
0110
0000
0000
0100
1000
0000
0010
0000
1000
0001
0100
0000
0010
0000
0100
0000
,  // measure 9
0001
0000
0000
0010
0100
0000
0010
0000
0001
1000
0010
0000
0100
0000
0001
0000
,  // measure 10
2002
0000
0000
3003
,  // measure 11
0110
0000
0000
0000
,  // measure 12
0001
0000
1000
0100
0010
0000
0100
1000
0000
0010
0000
0010
1000
0000
0010
0000
,  // measure 13
1000
0000
0100
0000
1000
0010
0000
0100
0000
0001
0000
0010
0001
0000
0100
0000
,  // measure 14
0010
0000
1000
0001
0100
0000
0001
1000
0000
0001
0000
1000
0001
0000
0100
0000
,  // measure 15
0010
0100
0010
0000
1000
0000
0100
0010
0100
0000
1000
0100
0000
0010
0100
0000
,  // measure 16
1000
0000
0010
0100
0001
0000
0100
0010
0000
0100
0000
0001
0010
0000
0001
0000
,  // measure 17
0100
0000
0001
0000
0010
0000
0001
0100
0010
0100
0000
0100
0000
0100
0001
0000
,  // measure 18
0010
0000
0100
1000
0100
0000
1000
0010
0000
0100
0000
0010
1000
0000
0001
0000
,  // measure 19
0010
0100
0010
0001
0010
0100
1000
0000
0001
0000
0000
1010
0000
0000
0011
0000
,  // measure 20
1000
0000
0001
0010
0100
0000
0010
0001
0000
1000
0000
0100
1000
0000
0010
0000
,  // measure 21
0100
0000
0001
0000
1000
0010
0000
0100
0000
0010
0000
1000
0001
0000
0010
0000
,  // measure 22
0001
0000
1000
0100
0010
0000
0100
1000
0000
0010
0000
0100
0001
0000
0010
0000
,  // measure 23
0001
1000
0001
0000
0010
0000
0100
1000
0010
0000
0100
0010
0000
0100
0010
0000
,  // measure 24
1000
0000
0001
0100
0010
0000
0100
0001
0010
0000
0000
0110
0000
0000
1001
0000
,  // measure 25
1000
0000
0000
0000
0000
0000
0010
0000
0000
0100
0000
0000
0010
0000
0000
0100
0000
0000
0010
0000
0000
0000
0000
0000
1000
0000
0000
0000
0100
0000
0000
0000
0010
0000
0000
0000
0001
0000
0000
0000
0000
0000
0000
0000
0000
0000
0000
0000
,  // measure 26
1000
0000
0010
0100
0001
0000
0010
0001
0000
0100
0000
0001
0010
0000
0100
0000
,  // measure 27
1000
0010
0001
1000
0100
0001
0010
1000
0001
0100
0000
0000
,  // measure 28
0110
0000
2000
0000
3002
0000
1003
0010
,  // measure 29
0110
0000
0002
0000
2003
0000
3010
0010
,  // measure 30
0100
0000
0001
0010
0001
0010
0001
0000
1000
0010
1000
0010
1000
0000
0000
0000
,  // measure 31
0001
0100
0001
0100
0001
0000
0100
0000
0010
1000
0010
1000
0010
0000
0000
0000
,  // measure 32
1100
0000
0000
0110
0000
0000
0011
0000
1001
0000
0000
0110
0000
0000
1001
0000
,  // measure 33
0011
0000
0000
0110
0000
0000
1100
0000
1001
0000
0000
0110
0000
0000
1001
0000
,  // measure 34
0010
0010
0010
0100
0010
0110
0110
0100
,  // measure 35
0001
0000
0000
0010
0000
0000
0100
0000
0000
0010
0000
0000
0000
0000
0000
0000
0000
0000
0100
0000
0000
0000
0000
0000
1000
0000
0000
0000
0001
0000
0000
0000
0010
0000
0000
0000
0100
0000
0000
0000
0000
0000
0000
0000
0000
0000
0000
0000
,  // measure 36
1000
0000
0000
1010
0000
0000
1010
0000
0110
0000
0000
0101
0000
0000
0110
0000
,  // measure 37
0001
0000
0000
0000
0000
0000
0000
0000
0000
0011
0000
0000
0000
0000
0000
0000
0000
0000
0011
0000
0000
0000
0000
0000
1000
0000
0000
0000
0100
0000
0000
0000
0010
0000
0000
0000
0001
0000
0000
0000
0010
0000
0000
0000
0100
0000
0000
0000
,  // measure 38
1000
0000
0000
0110
0000
0000
0110
0000
0101
0000
0000
0000
1100
0000
0000
0000
,  // measure 39
1000
0000
0010
0000
0100
0000
0010
0000
0000
0100
0000
0000
0001
0000
0000
0011
0000
0000
1000
0000
0000
1100
0000
0000
,  // measure 40
0002
0010
1000
0013
,  // measure 41
2100
0000
0001
0000
0100
0000
3001
0100
,  // measure 42
0120
1000
0100
1030
,  // measure 43
0210
0301
0011
1100
,  // measure 44
1002
0010
1000
0103
,  // measure 45
0010
0000
0000
0100
0000
0000
0001
0000
0010
0000
0100
0000
1000
0000
0000
0110
0000
0000
0001
0000
0000
0100
0000
0000
,  // measure 46
0001
0010
1000
0001
0100
1000
0010
0100
0001
1000
0100
0010
,  // measure 47
0220
0000
0000
0330
0000
0000
0000
0000
,  // measure 48
0001
1000
0001
1000
0001
0000
1000
0010
0000
0100
0010
0000
1000
0000
0001
0000
,  // measure 49
1000
0000
0100
0000
1000
0000
0010
0100
0000
0001
0000
0010
0001
0000
1000
0000
,  // measure 50
0010
0100
0010
0100
0010
0000
1000
0100
0000
1000
0001
0000
0010
0000
0100
0000
,  // measure 51
1000
0001
0100
0010
0100
0000
0010
0100
0001
0000
0010
0001
0000
1000
0001
0000
,  // measure 52
0100
0001
0100
0001
0100
0000
0010
0100
0000
0010
1000
0000
0100
0000
1000
0000
,  // measure 53
0010
0000
0100
0000
0010
0000
1000
0001
0010
0001
0010
0001
0000
1000
0010
0000
,  // measure 54
1000
0100
1000
0100
1000
0000
0010
0100
0000
0001
0010
0000
0001
0000
1000
0000
,  // measure 55
0001
0010
0001
0100
0001
0000
1000
0100
1000
0000
0000
1010
0000
0000
0101
0000
,  // measure 56
0001
0000
0010
0100
1000
0000
0010
0100
0000
0001
0100
0001
0010
0000
0100
0000
,  // measure 57
1000
0000
0010
0000
1000
0100
0000
0100
1000
0010
0000
0010
0100
0000
0001
0000
,  // measure 58
0010
0000
0001
0100
0010
0000
1000
0100
0000
1000
0001
1000
0010
0000
0100
0000
,  // measure 59
0001
0010
0100
0000
1000
0000
0010
0100
0001
0000
0010
0001
0000
1000
0001
0000
,  // measure 60
0100
0000
0010
0100
0001
0000
1000
0100
1000
0000
0000
0011
0000
0000
1010
0000
,  // measure 61
0100
0000
0000
0000
0000
0000
0001
0000
0000
0010
0000
0000
0100
0000
0000
0000
0000
0000
1000
0000
0000
0010
0000
0000
0100
0000
0000
0000
0001
0000
0000
0000
0010
0000
0000
0000
0200
0000
0000
0000
0000
0000
0000
0000
0000
0000
0000
0000
,  // measure 62
1300
0100
0001
0100
1000
0001
0100
1000
0100
0001
0010
0100
,  // measure 63
0110
0000
1001
0000
0110
0000
0011
0000
0110
0000
1100
0000
,  // measure 64
1001
0000
0000
0000
;
