#TITLE:Virus Funk;
#SUBTITLE:;
#ARTIST:Nhato;
#TITLETRANSLIT:;
#SUBTITLETRANSLIT:;
#ARTISTTRANSLIT:;
#GENRE:PROGRESSIVE DISCO;
#CREDIT:;
#BANNER:Virus Funk_banner.png;
#BACKGROUND:Virus Funk.png;
#LYRICSPATH:;
#CDTITLE:;
#MUSIC:Virus Funk.ogg;
#OFFSET:-0.010000;
#SAMPLESTART:101.809998;
#SAMPLELENGTH:14.500000;
#LASTBEATHINT:261.000000;
#SELECTABLE:YES;
#BPMS:0.000000=132.000000
;
#STOPS:
;
#BGCHANGES:;
#KEYSOUNDS:;
#ATTACKS:;

//---------------dance-single - ----------------
#NOTES:
     dance-single:
     :
     Easy:
     5:
     0.200403,0.239957,0.065629,0.139462,0.000000,171.000000,163.000000,8.000000,17.000000,0.000000,0.000000,0.200403,0.239957,0.065629,0.139462,0.000000,171.000000,163.000000,8.000000,17.000000,0.000000,0.000000:
0000
0000
0000
0000
,
0000
0000
0000
0000
,
0000
0000
0000
0000
,
0000
0000
0000
0000
,
0000
0000
0000
0000
,
0001
0000
0010
0001
,
1000
0100
1000
0000
,
0010
0000
0100
0000
,
0220
0000
0330
0000
,
0001
0100
0001
0000
,
1000
0100
1000
0000
,
0010
0000
0010
0100
,
0010
0000
0110
0000
,
1000
0100
1000
0000
,
0001
0100
0001
0000
,
1000
0000
0010
0010
,
0100
0010
1000
0001
,
0010
0100
1000
0100
,
0020
0000
0030
0000
,
0001
0100
0010
0100
,
0001
1000
0100
0000
,
1000
0010
0100
0010
,
1000
0001
0010
0000
,
0101
0000
0010
1000
,
0100
0010
0100
0000
,
1000
0001
0010
0001
,
0100
0010
0100
0010
,
2000
0000
3100
0000
,
0002
0000
0103
0000
,
0010
0000
0010
0100
,
0010
0000
1010
0000
,
1000
0001
0010
0000
,
0001
1000
0010
0000
,
0100
0010
0100
0001
,
1000
0100
0010
0001
,
0020
0000
0030
0000
,
0200
0000
0000
0300
,
2000
0000
0000
3000
,
0020
0000
0000
0030
,
0200
0000
0000
0300
,
0002
0000
0000
0003
,
2000
0000
0000
3000
,
0020
0000
0030
0000
,
0110
0000
0000
0000
,
1000
0000
0001
0100
,
0010
1000
0100
0010
,
0001
0100
0010
0100
,
0010
0000
1100
0000
,
0001
0100
1000
0100
,
0001
0000
0010
0000
,
1000
0010
0100
0000
,
0001
0010
0100
0000
,
1001
0000
0010
0100
,
0001
0010
0100
0000
,
1000
0010
0100
0010
,
2000
0000
3001
0000
,
0100
0010
1000
0010
,
0200
0000
0301
0000
,
0010
0001
1000
0100
,
1000
0000
0101
0000
,
0010
0010
0100
0001
,
2000
0000
3100
0000
,
1000
0010
0100
0001
,
0010
0100
0010
0100
,
2000
0000
0000
3000
,
0001
0000
0000
0000
;

//---------------dance-single - ----------------
#NOTES:
     dance-single:
     :
     Medium:
     9:
     0.338693,0.399928,0.123055,0.188684,0.032815,289.000000,274.000000,15.000000,23.000000,0.000000,0.000000,0.338693,0.399928,0.123055,0.188684,0.032815,289.000000,274.000000,15.000000,23.000000,0.000000,0.000000:
0000
0000
0000
0000
,
0000
0000
0000
0000
,
0000
0000
0000
0000
,
0000
0000
0000
0000
,
0000
0000
0000
0000
,
1000
1000
0000
0000
0001
0001
0000
0000
,
0100
0000
0000
0000
0010
0000
0000
0100
0000
0000
0000
0000
0001
0000
0000
0000
,
1000
1000
0000
0000
0010
0010
0000
0000
,
0100
0001
0010
0100
,
1000
0000
0010
1000
0000
0000
0010
0000
,
0100
0000
0001
0100
0000
0000
0001
0000
,
0010
0001
0010
0000
0100
1000
0100
0000
,
1000
0001
1000
0000
0110
0000
0000
0000
,
0001
0000
0100
0001
0000
0000
0100
0000
,
0010
0000
1000
0010
0000
0000
1000
0000
,
0001
0010
0100
1000
,
0002
0100
0100
0103
,
2000
0010
0010
3010
,
0100
0010
0100
0110
,
0001
0000
0101
0000
1000
0010
1000
0000
,
0001
0000
0000
0010
0000
0000
0001
0000
0000
0000
0000
0000
1000
0000
0000
0000
,
0100
0000
1100
0000
1000
0001
1000
0000
,
0010
0000
0000
0100
0000
0000
0010
0000
0000
0000
0000
0000
0110
0000
0000
0000
,
0200
0000
0301
0000
0010
0001
0010
0000
,
0001
0000
0000
1000
0000
0000
0010
0000
0000
0000
0000
0000
0100
0000
0000
0000
,
0010
0000
1010
0000
1000
0100
1000
0000
,
0002
0010
0010
0013
,
0100
0000
0010
0100
0000
0000
0010
0000
,
1000
0000
0001
1000
0000
0000
0001
0000
,
1000
0010
1000
0000
0001
0100
0001
0000
,
0100
0010
0100
0000
2002
0000
3003
0000
,
0010
0000
0100
0010
0000
0000
0100
0000
,
0001
0000
1000
0001
0000
0000
1000
0000
,
0001
1000
0100
0010
,
0002
1000
0010
1003
,
0200
0000
0310
0010
,
2000
0000
3100
1000
,
0002
0000
0013
0001
,
0200
0000
0310
1000
,
0001
0000
0000
0010
0001
0000
1000
0000
,
1001
0000
0010
0010
,
0200
0000
0000
0301
0000
1000
0100
0000
,
2000
0010
0001
3010
,
0002
0100
1000
0103
,
0010
0100
0120
1000
,
0100
1030
0200
0001
,
0010
0000
0301
0000
1000
0001
1000
0000
,
0010
0100
0010
0100
0020
0000
1030
0000
,
0001
0000
0011
0000
0001
1000
0100
0000
,
1000
0010
0100
0000
0001
0000
1001
0000
,
0100
0010
0100
0000
0010
0100
0010
0000
,
1000
0001
0100
0001
1000
0000
0110
0000
,
0020
0000
1030
0000
0001
0010
0100
0000
,
1000
0001
1000
0000
0010
0100
0010
0000
,
1000
0100
0010
0000
0001
0100
0010
0000
,
1000
0000
0000
0010
0000
0000
1000
0000
0002
0000
0000
0000
0103
0000
0000
0000
,
0010
0000
0000
0000
2010
0000
0000
0000
0001
0000
0000
0000
3010
0000
0000
0200
,
0000
0001
0310
0001
,
1000
0010
0100
0000
0001
0010
0100
0000
,
1000
0010
0100
0001
0020
0000
0031
0000
,
1000
0000
1001
0000
0010
0100
0010
0000
,
1000
0000
0000
0010
0000
0000
0100
0000
0001
0000
0000
0010
0000
0000
0100
0000
,
1000
0001
1000
0001
0100
0010
0100
0000
,
0002
0000
0013
0100
1000
0010
0100
0000
,
0010
0100
0010
0100
0010
0100
0010
0000
,
1001
0000
0000
0000
;

//---------------dance-single - ----------------
#NOTES:
     dance-single:
     :
     Hard:
     13:
     0.554332,0.639884,0.336350,0.229702,0.283026,473.000000,432.000000,41.000000,28.000000,0.000000,0.000000,0.554332,0.639884,0.336350,0.229702,0.283026,473.000000,432.000000,41.000000,28.000000,0.000000,0.000000:
0000
0000
0000
0000
,
0000
0000
0000
0000
,
0000
0000
0000
0000
,
0000
0000
0000
0000
,
0000
0000
0000
0000
,
1000
1000
0001
0000
0011
0000
1001
0000
,
0100
0000
0010
0000
0100
0001
0000
1000
0010
0100
0010
0000
1000
0000
0000
0000
,
0001
0000
0010
0001
0010
0000
0100
0000
1000
0000
0010
0000
1000
0000
0001
0010
,
0000
0000
0000
0000
0001
0000
0100
0000
0010
0000
1000
0001
1000
0000
0100
0000
,
1000
0010
1000
0200
0000
0010
0310
0000
,
0001
0010
0100
0020
0000
0001
0031
1000
,
0100
1000
0010
0100
0000
0010
1000
0001
,
0010
0001
0100
0010
1000
0001
1001
0000
,
0100
0010
1000
0002
0000
0010
0013
0000
,
0100
1000
0001
0200
0000
0010
0310
0010
,
1000
0000
0000
0100
0000
0000
1000
0000
0000
0001
0000
0000
0010
0000
0100
0000
,
1000
1000
0010
0010
0100
0100
0001
0001
,
0010
0000
0010
0000
0100
0000
0100
0000
1000
0000
1000
0000
0001
1000
0001
1000
,
0010
0000
0200
0000
0010
0000
0000
0000
0301
0000
1000
0010
1000
0000
0000
0000
,
0011
0000
0000
0000
0100
0000
0010
0000
1000
0000
0001
1000
0000
0010
0100
0000
,
0001
0000
0000
0101
0000
0000
1100
0000
0000
1010
0000
0000
1002
0000
0000
0000
,
0013
0000
0100
0000
1000
0000
0001
0000
0100
0000
0010
1000
0000
0010
0100
0000
,
0001
0000
0010
0001
0000
1000
0100
0000
1000
0100
0010
0001
1000
0000
0000
0000
,
2001
0000
0000
0000
3010
0000
0100
0000
0001
0000
0010
0100
0000
1000
0001
0000
,
0100
0000
0000
0110
0000
0000
1010
0000
0000
0101
0000
0000
1002
0000
0000
0000
,
0103
0000
0010
0000
1000
0000
0100
0000
0010
0000
0100
1000
0000
0001
0010
0000
,
0011
0110
1100
1001
,
1000
0010
0001
2000
0000
0100
3100
0000
,
0001
0010
1000
0002
0000
0100
0103
0000
,
1000
0100
0010
0011
0000
0001
0010
1100
,
0000
1000
0010
0100
0001
1000
1001
0000
,
0001
0100
1000
0002
0000
0010
0013
0000
,
1000
0100
0001
2000
0000
0010
3010
0000
,
0001
0000
0000
0011
0000
0000
1001
0000
0000
1100
0000
0000
1000
0000
0010
0000
,
1010
0010
0110
0010
0011
0010
0110
0010
,
2000
0000
0000
0000
0000
0000
3001
0000
0010
0000
0000
0100
0000
0000
1000
0000
,
0020
0000
1000
0000
0100
0000
1030
0001
,
0020
0000
0000
0000
0000
0000
0031
0000
0100
0000
0010
0000
0000
1000
0000
0000
,
0002
0000
0010
0000
1000
0000
0103
0010
,
0200
0000
0000
0000
1300
0000
0100
0000
0001
0000
0000
0010
0000
0000
0001
0000
,
2000
0000
0100
0000
0001
0000
3010
0100
,
0002
0000
0013
0001
0000
1001
1000
0100
,
0020
0000
0001
0000
0130
1000
0001
0100
,
0020
0000
1000
0000
0130
0001
1000
0100
,
0010
0000
0000
0011
0000
0000
1000
0000
0010
0000
0010
0000
0100
0000
0100
0000
,
0001
0001
1000
1000
0001
0010
0100
1000
,
0001
0000
0010
0000
0100
0000
1000
0000
0001
0010
0001
0010
0100
1000
0100
1000
,
0001
0000
0001
0000
1001
0000
1000
0000
0010
0100
0010
0100
0020
0000
0000
0000
,
2030
0000
0000
0000
3100
0000
0010
0001
0000
0100
0010
0000
1000
0001
1000
0000
,
0010
0000
0000
0110
0000
0000
1001
0000
0000
0100
0000
0000
0001
0000
0010
0001
,
0000
0000
1000
0000
0010
0000
1000
0100
0000
0000
1000
0000
0010
0000
0100
0000
,
0001
1000
0001
1000
0010
0100
0110
0000
,
2000
0000
0000
0000
3010
0000
0100
0000
0001
0000
0010
0001
0000
1000
0100
0000
,
1000
0000
0001
0100
0000
0010
1000
0000
0100
0000
1000
0000
0010
0000
0100
0000
,
0001
0000
0010
0000
0001
1000
0001
0000
1000
0000
0010
0000
1000
0001
1000
0000
,
0010
0000
0000
0110
0000
0000
1100
0000
0200
0000
0001
0000
0301
0000
0000
0000
,
0021
0000
0000
0000
0130
0000
1000
0000
0001
0000
1000
0000
0100
0000
1000
0020
,
0000
0000
0000
0100
0000
0000
0100
0000
0000
1000
0000
0000
1030
0000
0000
0000
,
1001
0000
0001
0000
0100
0000
0001
0010
0001
0000
0100
0000
0010
0000
1000
0002
,
0000
0000
0000
0010
0000
0000
0010
0000
1000
0000
1000
0000
1003
0000
0000
0000
,
0110
0000
0000
0000
1001
0000
0000
0000
0100
0010
0100
0000
0010
0100
0010
0000
,
1000
0000
0010
0000
0100
0001
0000
1000
0010
0000
0100
0000
0110
0000
0000
0000
,
0001
0000
0010
0001
0010
0000
0100
0000
1000
0000
0010
0000
1000
0100
1000
0000
,
0010
0000
0100
0001
0000
1000
0010
0000
1000
0001
1000
0001
0100
0000
0010
0000
,
1000
1000
0001
0001
0010
0010
0100
0100
,
1001
0000
0000
0000
;

//---------------dance-single - ----------------
#NOTES:
     dance-single:
     :
     Challenge:
     15:
     0.686762,0.746532,0.393775,0.344553,0.602968,586.000000,538.000000,48.000000,42.000000,0.000000,0.000000,0.686762,0.746532,0.393775,0.344553,0.602968,586.000000,538.000000,48.000000,42.000000,0.000000,0.000000:
// measure 0
0000
0000
0000
0000
,  // measure 1
0000
0000
0000
0000
,  // measure 2
0000
0000
0000
0000
,  // measure 3
0000
0000
0000
0000
,  // measure 4
0000
0000
0000
0000
,  // measure 5
0011
1001
1000
0000
1010
1001
0002
0000
,  // measure 6
0103
0000
0010
0000
1000
0100
0000
0010
0100
1000
0001
0100
0010
0000
0000
0000
,  // measure 7
1010
1001
1000
0000
0101
1001
0002
0000
,  // measure 8
0013
0000
0100
0000
1000
0010
0000
0100
0010
1000
0100
0010
0100
1000
0001
0100
,  // measure 9
0001
0010
1000
0002
0000
0103
1100
0000
,  // measure 10
1000
0010
0001
2000
0000
3100
0101
0000
,  // measure 11
0010
0100
1000
1010
0010
0100
0101
0001
,  // measure 12
0010
0000
0100
0000
1000
0001
0000
1000
0001
0010
0100
1000
0020
0000
0000
0000
,  // measure 13
1030
0100
0001
2000
0000
3010
0011
0000
,  // measure 14
0001
0100
1000
0002
0000
0013
1010
1000
,  // measure 15
0001
0000
0000
0110
0000
0000
1000
0000
0001
0000
0001
0000
1000
0100
1000
0000
,  // measure 16
0010
0010
1000
1000
0100
0100
0001
0001
,  // measure 17
0020
0032
0203
2300
3020
0032
0203
2300
,  // measure 18
3010
0000
0000
0000
0010
0000
0000
0000
0010
0100
0001
1000
0010
0000
0000
0000
,  // measure 19
0110
0000
0000
0000
0001
0100
0001
0000
1000
0010
0100
0010
1000
0010
0100
0000
,  // measure 20
0001
0000
0000
1010
0000
0000
1100
0000
0000
0010
0001
0000
1000
0001
1000
0000
,  // measure 21
0001
0000
0100
0000
0110
0000
0000
0000
0001
0010
0100
0010
0001
0010
0100
0000
,  // measure 22
1000
0000
1000
0010
0100
0000
0001
0010
0001
0100
0010
1000
0200
0000
0000
0000
,  // measure 23
0310
0000
0001
0000
1000
0100
0010
0000
0001
1000
0010
1000
0001
1000
0010
0000
,  // measure 24
0100
0000
0000
0011
0000
0000
1100
0000
0000
0010
0100
0000
0010
1000
0100
0000
,  // measure 25
0010
0000
0001
0000
1000
0010
1000
0000
0001
0100
0010
1000
0001
0100
0010
0000
,  // measure 26
2020
3030
0202
0303
0022
0033
2200
3300
,  // measure 27
0001
0000
0010
0000
1000
0000
0001
0100
0000
1000
0010
0000
1000
0001
0100
0000
,  // measure 28
0010
0000
1000
0000
0001
0000
0010
0100
0000
1000
0010
0000
0100
0001
1000
0000
,  // measure 29
0001
0010
1100
0010
0001
1000
0101
0010
,  // measure 30
1000
0000
0001
0000
0110
0000
1000
0000
0010
1000
0100
0010
0002
0000
0000
0000
,  // measure 31
1003
0000
0100
0000
0001
0000
1000
0010
0000
0001
0100
0000
0010
1000
0001
0000
,  // measure 32
0010
0000
1000
0000
0001
0000
0100
1000
0000
0001
0100
0000
0010
1000
0001
0000
,  // measure 33
0011
0000
0000
1000
0100
0000
1000
0010
0100
0000
0100
0000
0010
0000
0010
0000
,  // measure 34
1000
1100
0001
0011
0100
0110
1000
1001
,  // measure 35
0020
0000
0000
0000
0000
0000
0130
0000
0001
0010
0000
0100
1000
0000
0010
0000
,  // measure 36
0200
0000
0001
0000
1000
0000
0301
0020
,  // measure 37
1000
0000
0000
0000
0001
0000
0000
0000
1030
0000
0010
0001
0000
1000
0010
0000
,  // measure 38
0200
0000
0001
0000
1000
0000
0301
0020
,  // measure 39
1000
0000
0000
0000
0031
0000
1000
0010
0100
0000
0000
0001
0010
0000
0100
0000
,  // measure 40
2000
0000
0010
0000
0100
0000
3010
0100
,  // measure 41
0002
0000
0000
0000
0013
0000
2000
0000
0000
0000
3010
0000
0001
0100
0010
0000
,  // measure 42
1000
0100
1000
0010
0100
0001
0010
0100
,  // measure 43
0010
0001
0100
0010
1000
0001
0110
0000
,  // measure 44
1001
0000
0000
0010
1000
0000
0001
0010
0100
0000
0100
0000
0001
0000
0001
0000
,  // measure 45
0010
0010
1000
1000
0200
2300
3020
0032
,  // measure 46
1003
0010
0100
0001
1000
0100
0010
0001
0010
0100
1000
0001
0100
0010
1000
0001
,  // measure 47
0100
0000
0100
0000
0010
1000
0001
0100
0001
0010
0100
0000
2000
0000
3000
0000
,  // measure 48
0011
0000
0000
0000
0100
1000
0100
0000
1000
0000
0010
0100
0001
0100
0010
0000
,  // measure 49
1000
0000
0000
0011
0000
0000
0101
0000
0000
1010
0000
0000
0100
0010
0100
0001
,  // measure 50
0000
0001
0010
0000
0100
1000
0100
1000
0000
1000
0010
0000
0100
0010
0100
0000
,  // measure 51
0001
0000
0010
0100
1000
0000
0001
0010
0100
1000
0100
0010
0200
0000
0000
0000
,  // measure 52
1300
0000
0010
0000
1000
0010
0100
0010
1000
0000
0001
0010
0000
0001
0100
0001
,  // measure 53
0010
0000
0000
0101
0000
0000
1010
0000
0000
1100
0000
0010
0100
0010
0100
0000
,  // measure 54
0001
0010
0100
0000
1000
0010
0100
0000
0001
0000
0001
1000
0100
0010
0001
0000
,  // measure 55
0101
0000
0000
1010
0000
0000
1100
0000
1000
0001
0010
0100
0010
0000
0000
0000
,  // measure 56
0011
0000
0001
0000
1000
0010
0100
0000
0001
0010
0100
0010
0001
0010
0100
0020
,  // measure 57
0001
0000
0000
0001
0000
0000
0100
0000
0000
1000
0000
0000
0130
0000
0000
0000
,  // measure 58
1000
0000
0010
0100
0001
0000
0010
0100
1000
0100
0010
0100
1000
0010
0100
0020
,  // measure 59
1000
0000
0000
0100
0000
0000
0100
0000
0001
0000
0031
0000
0110
0000
0000
0000
,  // measure 60
1001
0000
0000
0000
0010
0001
1000
0000
0010
1000
0010
1000
0001
0010
0001
0100
,  // measure 61
0010
0000
0000
0010
1000
0000
0001
0010
0001
0000
0010
0000
0200
0000
0000
0000
,  // measure 62
1300
0010
0100
0000
0001
0010
0100
0000
1000
0001
0100
0010
1000
0001
0010
0100
,  // measure 63
1000
0000
0000
0010
1000
0000
0001
0010
0001
0100
0010
1000
0100
0010
0001
0000
,  // measure 64
0010
0000
0010
0000
0100
0000
0100
0000
1000
0001
0010
0100
1000
0001
0010
0100
,  // measure 65
1000
0000
0000
0000
;
