#TITLE:Victory of the Century;
#SUBTITLE:;
#ARTIST:BEMANI Sound Team "TAG";
#TITLETRANSLIT:;
#SUBTITLETRANSLIT:;
#ARTISTTRANSLIT:TAG;
#GENRE:;
#CREDIT:;
#BANNER:Victory of the Century_banner.png;
#BACKGROUND:Victory of the Century.png;
#LYRICSPATH:;
#CDTITLE:;
#MUSIC:Victory of the Century.ogg;
#OFFSET:-0.500000;
#SAMPLESTART:0.500000;
#SAMPLELENGTH:12.000000;
#SELECTABLE:YES;
#DISPLAYBPM:180.000000;
#BPMS:0.000000=180.000000
,336.000000=360.000000
,339.000000=180.000000
;
#STOPS:44.000000=1.000000,
333.000000=0.333000,
333.500000=0.333000,
334.500000=0.167000,
335.500000=0.167000
;
#BGCHANGES:;
#KEYSOUNDS:;
#ATTACKS:;

//---------------dance-single - ----------------
#NOTES:
     dance-single:
     :
     Easy:
     7:
     0.352050,0.536694,0.254056,0.262525,0.000000,291.000000,261.000000,30.000000,31.000000,0.000000,0.000000,0.352050,0.536694,0.254056,0.262525,0.000000,291.000000,261.000000,30.000000,31.000000,0.000000,0.000000:
0000
0000
0000
0000
,
0000
0000
0000
0000
,
0000
0000
0000
0000
,
0000
0000
0000
0000
,
0010
0000
0000
0001
0000
0000
0202
0000
,
0000
0000
0303
0000
,
1000
0000
0000
0100
0000
0000
2020
0000
,
0000
0000
3030
0000
,
0001
0010
0001
0100
,
0010
1000
0100
0010
,
0001
0001
1000
1000
,
0220
0330
0000
0000
1000
0000
0000
0000
0000
0000
1000
0000
0000
0000
0000
0000
,
1000
0000
0100
0000
0000
0100
0000
0000
,
0100
0010
0001
1000
,
0001
0100
0010
1000
,
0001
1000
0010
0100
,
0001
0010
0001
1000
,
0100
1000
0010
0100
,
0010
1000
0100
0001
,
0100
1000
0001
0010
,
1000
0220
0000
0000
,
0330
0001
0010
1000
,
0010
0001
0100
1000
,
0000
1000
0100
0001
,
0100
1000
0001
0010
,
0000
1000
0001
0010
,
0100
1000
0001
1000
,
0000
0010
0010
0100
,
0100
0001
0010
2200
,
3300
0000
0001
0000
0000
1000
0000
0000
,
0012
0000
1000
1000
,
1003
0000
0010
0000
0000
0100
0000
0000
,
1020
0000
0100
0100
,
0130
0000
0001
0000
0000
1000
0000
0000
,
0201
0000
0010
0010
,
0310
0000
0001
0000
0000
0010
0000
0000
,
2100
0000
0010
0010
,
3010
0100
0000
0100
,
0001
0100
0010
0100
,
0000
0001
0000
0001
,
0010
1000
0010
0001
,
0000
1000
0010
1000
,
0000
0001
0010
0001
,
0000
1000
0001
0010
,
0100
1000
0001
1000
,
0010
0220
0000
0330
,
0000
0220
0000
0330
,
0000
1001
0000
1001
,
1001
1001
0000
0000
,
0000
0000
0010
0000
0100
0001
0000
1000
,
0000
0100
0000
0000
0100
0000
1000
0000
,
0001
0000
0100
0000
0010
1000
0000
0001
,
0000
2000
0000
0000
3001
0000
0010
0000
,
0001
0000
1001
0000
0000
0100
0000
0010
,
0000
1000
0001
0000
0000
0010
0000
0000
,
0010
0202
0000
0000
,
0303
0010
0010
1000
,
0010
0000
0001
0000
0000
0010
0000
1000
,
0000
0200
0000
0000
1300
0000
1000
0000
,
0100
0000
0001
0000
0000
0001
0000
0100
,
0000
0220
0000
0000
0330
0000
1000
0000
,
0010
0110
0000
0001
,
0010
0110
0000
1000
,
0001
0000
2002
0000
0000
0000
0000
3003
,
0000
0000
0220
0000
0000
0000
0000
0330
,
0000
1000
0010
0100
,
0001
0010
0100
1000
,
0001
1000
0010
0100
,
0001
0010
1000
0010
,
0001
0100
0010
1000
,
0001
1000
0100
0010
,
0001
1000
0010
0100
,
0001
0011
0000
1100
,
0000
0001
0100
0010
,
0100
0001
1000
0010
,
0100
0010
1000
0100
,
0001
1000
0010
0001
,
1001
0100
0001
0010
,
0001
1000
0100
0010
,
0100
2000
0000
3010
,
0001
0010
1000
0100
,
0001
0110
0000
0001
,
0010
1100
0000
0010
,
1000
0000
0101
1100
0001
1000
0001
1000
,
0220
0000
0330
0000
;

//---------------dance-single - ----------------
#NOTES:
     dance-single:
     :
     Medium:
     13:
     0.652078,0.644033,0.347210,0.220182,0.055046,539.000000,498.000000,41.000000,26.000000,0.000000,0.000000,0.652078,0.644033,0.347210,0.220182,0.055046,539.000000,498.000000,41.000000,26.000000,0.000000,0.000000:
0000
0000
0000
0000
,
0000
0000
0000
0000
,
0000
0000
0000
0000
,
0000
0000
0000
0000
,
1010
0000
0000
0011
0000
0000
1001
0000
,
0001
0010
0100
0010
0100
1000
0001
0000
,
0011
0000
0000
1100
0000
0000
0201
0000
,
0010
0001
0010
0301
,
1000
0010
1000
0010
0100
0001
0100
0001
,
1000
0100
1000
0100
0010
0001
0010
0001
,
1000
0100
0001
1000
0010
0001
1000
0000
,
2002
3003
0000
0000
0010
0000
0000
1000
0000
0000
0001
0000
0000
1000
0000
0000
,
0001
0000
0010
0000
0001
0000
0000
0100
0000
0000
0010
0000
0000
0001
0000
0000
,
0010
0000
1000
0000
0001
0000
1000
0100
0000
0000
1000
0000
0000
0000
0001
0000
,
0010
0000
0100
0000
0010
0000
0001
1000
0000
0000
0100
0000
0000
0000
0010
0000
,
0100
0000
1000
0000
0010
0000
0100
0001
0000
0000
0100
0000
0000
0000
0001
0000
,
0010
0000
0100
0000
1000
0000
0010
0100
0000
0000
0001
0000
0000
0000
0010
0000
,
0001
0000
1000
0000
0010
0000
1000
0100
0000
0000
0010
0000
0001
0000
0010
0000
,
0100
0000
1000
0000
0001
0000
0010
0001
0000
0000
0001
0000
1000
0000
0100
0000
,
0001
0000
0100
0000
1000
0000
0001
0010
0000
0000
1000
0000
0010
0000
0001
0000
,
0010
1000
0010
0001
0100
0010
1000
0100
,
1001
0000
0010
0100
0001
1000
0010
0000
,
1000
0001
0010
0001
1000
0010
0100
0001
,
0010
0000
0010
0100
1000
0010
0100
0000
,
0100
0010
1000
0010
0001
0010
1000
0100
,
0100
0000
0010
0100
1000
0001
1000
0000
,
0010
0100
0001
1000
0010
1000
0100
0010
,
0010
0000
0001
0010
0100
1000
0001
1000
,
0010
0000
0010
0100
0001
1000
0100
0010
,
0010
0000
0011
0000
1000
1100
0000
0001
,
0101
0000
1000
0010
0001
0010
1000
0010
,
0001
0000
0110
0000
0001
0011
0000
1000
,
1010
0000
1000
0100
0001
0100
1000
0100
,
0001
0000
0100
1000
0010
0100
0000
0100
,
0001
0000
0010
0001
0100
0001
0010
0001
,
0100
0000
0001
1000
0010
0100
0000
0100
,
0010
0000
1000
0100
0010
0100
1000
0100
,
0001
0000
0002
0000
0100
0100
0203
0000
,
1300
0000
1000
0010
0001
0010
1000
0000
,
1001
0000
0002
0000
0010
0010
0023
0000
,
1030
0000
0010
0001
0010
1000
0010
0000
,
0101
0000
0010
1000
0100
0000
1000
0001
,
0010
0000
0001
1000
0010
0000
0100
0010
,
1000
0000
0001
0000
0001
0010
0100
0000
,
0100
1000
0010
0000
0010
1000
0100
0010
,
0001
1001
0000
1001
,
0000
1001
0000
1001
,
0000
0000
0110
0000
0110
0000
1000
0001
,
1000
0001
1000
0000
0020
0000
0000
0000
0000
0000
0130
0000
0100
0000
0010
0000
,
1000
0000
1100
0000
0001
0010
0000
0001
,
0000
0101
0000
1000
0001
0010
0100
1000
,
0010
0100
0010
0000
1000
0100
0000
0101
,
0000
0010
0100
0001
0100
1000
0100
0010
,
0100
0000
0002
0000
0013
0100
1000
0100
,
0010
0000
0102
0000
1003
0010
0000
1000
,
0010
0100
0002
0000
0000
1000
1000
0000
,
0103
0000
0001
1000
0100
1000
0001
0010
,
0100
0000
1001
0000
1000
0010
0000
0101
,
0000
1100
0000
0010
0100
0010
1000
0010
,
0100
0001
0010
0000
0010
0001
0000
0101
,
0000
1100
0000
1000
0010
0100
0010
1000
,
0001
0010
0011
0000
1000
0100
1000
0001
,
0100
0010
1010
0000
1000
0001
0010
0001
,
1000
0000
2002
0000
0000
0000
0000
3003
,
0000
0000
0220
0000
0000
0000
0000
0330
,
0000
0000
0001
0010
0001
0100
0010
1000
,
0100
0010
0001
0010
0100
1000
0000
1000
,
0001
0000
0100
0010
1000
0001
0010
0100
,
1000
0010
0100
1000
0100
0010
0000
0010
,
1000
0000
0001
0010
0001
0100
0001
0010
,
0001
1000
0010
1000
0100
1000
0010
0010
,
0000
0100
0020
0000
1030
0100
1000
0100
,
0001
0100
1000
0000
1000
0001
0010
1000
,
0010
0001
0100
0010
1000
0100
0010
0100
,
1000
0001
0100
0010
1000
0001
0000
0001
,
0010
0000
0001
0100
0010
1000
0100
0010
,
0001
1000
0001
0010
0001
1000
0000
1000
,
0010
0000
0100
1000
0100
0010
0100
0001
,
0100
0001
0010
0100
0010
1000
0010
0001
,
0010
0000
0000
0000
1001
0000
0000
0000
0100
0000
0010
0000
1000
0000
0000
0100
,
0000
0010
0100
1000
0001
0010
0100
1000
,
0001
0000
1001
0000
0010
0100
0001
0010
,
0100
0000
1010
0000
0100
0001
0010
0100
,
1000
0000
0000
0000
0022
0033
2200
3300
0200
0300
0002
0003
0200
0300
0020
0030
,
2002
0000
3003
0000
;

//---------------dance-single - ----------------
#NOTES:
     dance-single:
     :
     Hard:
     17:
     0.933960,1.004793,0.474239,0.313336,0.766404,772.000000,716.000000,56.000000,37.000000,0.000000,0.000000,0.933960,1.004793,0.474239,0.313336,0.766404,772.000000,716.000000,56.000000,37.000000,0.000000,0.000000:
// measure 0
0000
0000
0000
0000
,  // measure 1
0000
0000
0000
0000
,  // measure 2
0000
0000
0000
0000
,  // measure 3
0000
0000
0000
0000
,  // measure 4
0011
0000
0100
0110
0000
1000
1100
0000
,  // measure 5
0001
0010
0001
0010
0100
1000
0100
1000
0001
1000
0001
0000
1001
0000
0000
0000
,  // measure 6
1010
0000
0010
0110
0000
0001
0101
0000
,  // measure 7
1001
0000
0000
0000
0110
0000
0000
0000
1000
0100
0010
0001
1000
0100
0010
0001
,  // measure 8
1000
0010
1000
0010
0100
0001
0100
0001
,  // measure 9
0010
0001
0010
0001
1000
0100
1000
0100
,  // measure 10
0010
0001
0100
0000
0010
1000
0100
0000
1000
0001
0010
0100
0010
0001
1000
0100
,  // measure 11
0020
0030
0000
0000
0001
0100
0000
0001
0100
0000
0010
1000
0000
0010
1000
0000
,  // measure 12
0001
0000
1001
0000
1000
0010
0000
1000
0010
0000
0100
0001
0000
0100
0001
0000
,  // measure 13
1000
0000
1001
0000
0010
0100
0000
0001
1000
0000
0010
1000
0000
0100
1000
0000
,  // measure 14
0001
0000
0010
0000
0001
0100
0000
0010
1000
0000
0010
0100
0000
0001
0010
0000
,  // measure 15
0001
0000
1000
0000
0010
1000
0000
0100
1000
0000
0010
0100
0000
0010
1000
0000
,  // measure 16
0100
0000
0010
0000
0001
1000
0000
0001
1000
0000
0010
0100
0000
0010
0100
0000
,  // measure 17
0001
0000
1001
0000
1000
0100
0000
0010
0100
0000
1000
0100
0000
0010
0100
0000
,  // measure 18
1000
0000
1001
0000
0001
0100
0000
0010
0100
0000
0010
0001
0000
0010
0100
0000
,  // measure 19
0001
0000
0011
0000
1000
0001
0000
0010
0001
0000
1000
0100
0000
1000
0010
0000
,  // measure 20
0100
0000
0010
0000
1000
0001
0010
0100
2000
0000
0000
0000
3001
0100
0010
1000
,  // measure 21
0002
0000
0000
0000
1003
0000
0010
0000
1000
0100
0010
0100
1000
0000
0001
0000
,  // measure 22
0100
0010
1000
0010
0100
0000
0001
0000
1000
0000
0001
0000
0010
0001
1000
0001
,  // measure 23
0010
0000
0010
0000
0001
0000
0100
0000
0001
0010
0100
0010
0001
0000
1000
0000
,  // measure 24
0010
0100
0001
0100
0010
0000
1000
0000
0001
0000
1000
0000
0100
0010
0001
0010
,  // measure 25
0100
0000
1000
0000
1000
0000
0010
0000
1000
0001
0100
0001
1000
0000
0001
0000
,  // measure 26
0010
0001
1000
0001
0010
0000
0001
0000
1000
0000
0100
0000
0010
0100
1000
0100
,  // measure 27
0020
0000
0001
0000
0031
0000
0100
0000
0001
1000
0010
0000
1000
0000
0001
0000
,  // measure 28
1000
0010
0100
0000
0010
0000
1000
0000
0110
0000
0000
0000
0001
0000
0010
0000
,  // measure 29
0110
0000
2000
0000
3010
0110
0000
0001
,  // measure 30
0011
0000
0000
0000
1000
0100
0001
0000
1000
0010
0001
0000
0001
0010
1000
0000
,  // measure 31
0001
0100
1000
0000
0020
0000
0000
0000
0130
0000
0101
0000
0000
0000
1000
0000
,  // measure 32
1100
0000
0000
0000
0001
0010
1000
0000
0001
0100
1000
0000
1000
0100
0001
0000
,  // measure 33
1000
0010
0001
0000
0010
0000
0000
0000
0001
0000
0101
0000
0000
0000
1000
0000
,  // measure 34
1010
0000
0000
0000
0100
0010
2000
0000
3010
0100
2000
0000
3100
0010
2000
0000
,  // measure 35
3010
1000
0200
0000
1300
0000
0000
0000
0001
0000
0011
0000
0000
0000
0100
0000
,  // measure 36
1100
0000
0000
0000
0010
0100
0002
0000
0103
0010
0002
0000
0013
0100
0002
0000
,  // measure 37
0013
0100
1000
0000
0001
0000
0000
0000
1000
0000
0100
0000
0010
0000
0000
0000
,  // measure 38
1100
0000
0001
0010
1000
0010
0001
1000
,  // measure 39
0010
0100
0010
0000
1000
0000
0000
0000
0001
0000
0010
0000
0100
0000
0000
0000
,  // measure 40
0011
0000
1000
0010
0001
0010
1000
0001
,  // measure 41
0010
0100
0010
0000
0002
0000
0000
0000
0013
0000
0100
0000
0010
0000
0000
0000
,  // measure 42
0011
2000
3020
0032
,  // measure 43
0013
0000
1100
0000
1000
0100
0011
0000
,  // measure 44
1000
0010
0101
0000
0001
0000
0110
0000
,  // measure 45
1000
1010
1010
0011
,  // measure 46
0011
1100
1100
0101
,  // measure 47
0101
0000
0000
0000
0001
0000
0010
0000
0100
0000
1000
0000
0010
0100
0001
1000
,  // measure 48
0100
0010
0001
0010
0200
0000
0000
0000
0000
0000
1300
0000
1000
0000
0001
0000
,  // measure 49
0010
0100
0101
0000
1000
0010
0100
0010
,  // measure 50
1000
0000
0001
0000
0010
0000
0001
0100
0010
0000
1000
0010
0100
0000
0001
0000
,  // measure 51
1000
0100
0110
0000
1000
0001
0010
0001
,  // measure 52
1000
0000
0010
0000
0100
0000
0001
0010
0100
0000
1000
0100
0010
0000
0001
0100
,  // measure 53
0010
1000
1010
0000
0100
0001
1000
0100
,  // measure 54
0010
0001
0010
1000
0100
0001
0010
0001
,  // measure 55
0100
0000
1000
0000
0001
0000
0010
0001
0100
0000
0010
1000
0100
0000
1000
0010
,  // measure 56
0100
0000
0010
0100
1000
0000
0100
0000
0001
0000
0010
0000
0001
1000
0100
0010
,  // measure 57
0001
1000
1100
0000
0001
0010
0100
0010
,  // measure 58
0001
0000
1000
0000
0001
0000
0100
0010
0001
0000
1000
0100
0001
0000
0010
0100
,  // measure 59
1000
0100
0010
0000
0001
0101
0000
1010
,  // measure 60
0000
0000
1100
0000
0000
0000
0010
0100
0001
0000
1000
0001
0100
0000
0001
0000
,  // measure 61
0100
0010
1010
0000
0001
1000
0010
0100
,  // measure 62
1000
0010
0110
0000
0001
0010
0100
0001
,  // measure 63
1000
0000
0010
0000
0001
0010
0100
0000
0010
0100
1000
0000
0001
1000
0010
1000
,  // measure 64
0001
0000
0100
0000
0010
1000
0001
0000
1000
0100
0010
0000
0100
0010
0001
1000
,  // measure 65
0001
0000
1000
0000
1000
0010
0000
1000
0010
0000
0100
0001
0000
0010
0001
0000
,  // measure 66
1000
0001
1000
0000
0001
0010
0000
0100
1000
0000
0010
0000
0100
0000
0010
0000
,  // measure 67
1000
0001
0010
0000
0001
0100
0000
0001
0100
0000
0010
1000
0000
0010
1000
0000
,  // measure 68
0100
1000
0100
0000
1000
0001
0000
0010
0001
0000
0100
0000
0220
0000
0000
0000
,  // measure 69
0330
0000
0001
0000
0001
0010
0100
0000
0010
0100
1000
0000
0100
0010
0001
0000
,  // measure 70
1000
0100
0010
0000
0001
0010
0000
0100
1000
0000
0010
0000
1000
0000
1100
0000
,  // measure 71
0000
0000
0001
0100
0020
0000
0000
0000
1030
0000
0001
0000
1000
0000
0001
0000
,  // measure 72
0001
0000
0010
0000
0002
0000
0000
0000
1003
0000
0100
0010
0200
0000
0000
0000
,  // measure 73
1300
0001
1000
0000
0001
0010
0000
0001
0100
0000
0010
1000
0000
0100
1000
0000
,  // measure 74
0010
1000
0010
0000
0100
0001
0000
1000
0100
0000
1000
0000
0010
0000
0100
0000
,  // measure 75
0001
0000
1000
0000
0100
1000
0000
0010
0100
0000
0001
0010
0001
0000
1000
0000
,  // measure 76
0100
0000
0010
0000
0001
1000
0000
0100
0010
0000
0100
0000
1000
0001
1000
0001
,  // measure 77
1000
0000
0010
0000
0010
0100
0001
0000
1000
0100
0010
0000
0100
1000
0010
0000
,  // measure 78
0100
0010
0001
0000
0010
1000
0010
1000
0100
0000
1000
0000
1000
0001
1000
0001
,  // measure 79
0010
0000
0001
0000
2200
0000
3300
0000
0000
0000
0001
0000
0100
0000
0010
0100
,  // measure 80
0000
0000
0001
0000
1000
0100
0010
0000
0100
0010
0001
0000
1000
0001
0010
0100
,  // measure 81
1000
0000
0001
0000
0011
0000
0000
0000
1000
0000
0001
0010
0001
0100
0010
1000
,  // measure 82
0001
0010
0100
1000
0002
0000
0000
0000
0103
0000
0010
1000
0001
0100
0010
1000
,  // measure 83
0010
0100
1000
0000
0022
0033
2020
3030
0200
0300
2200
3300
0002
0000
0020
0033
,  // measure 84
2200
0000
0000
3300
;
