#TITLE:Verflucht;
#SUBTITLE:;
#ARTIST:Tyrfing;
#TITLETRANSLIT:;
#SUBTITLETRANSLIT:;
#ARTISTTRANSLIT:;
#GENRE:HARD NRG;
#CREDIT:;
#BANNER:Verflucht_banner.png;
#BACKGROUND:Verflucht.png;
#LYRICSPATH:;
#CDTITLE:;
#MUSIC:Verflucht.ogg;
#OFFSET:0.748000;
#SAMPLESTART:88.570000;
#SAMPLELENGTH:12.000000;
#LASTBEATHINT:301.000000;
#SELECTABLE:YES;
#BPMS:0.000000=180.000000
,76.000000=90.000000
,92.000000=180.000000
,188.000000=90.000000
,204.000000=180.000000
;
#STOPS:
;
#BGCHANGES:;
#KEYSOUNDS:;
#ATTACKS:;

//---------------dance-single - ----------------
#NOTES:
     dance-single:
     :
     Easy:
     8:
     0.339768,0.324324,0.043243,0.207568,0.000000,275.000000,270.000000,5.000000,24.000000,0.000000,0.000000,0.339768,0.324324,0.043243,0.207568,0.000000,275.000000,270.000000,5.000000,24.000000,0.000000,0.000000:
0000
0000
0000
0000
,
0000
0000
0000
0000
,
0000
0000
0000
0000
,
1000
0001
1000
0010
,
0100
0010
0100
0001
,
0010
0001
1000
0100
,
0010
0100
1000
0001
,
0100
0010
1000
0001
,
0010
0001
0100
0010
,
1000
0100
1000
0001
,
0100
0010
0100
0110
,
2000
0010
0000
3010
,
0002
0100
0000
0103
,
2000
0100
0000
3100
,
0002
0010
0000
0013
,
1000
0010
1000
0010
,
0100
0001
0100
0001
,
1000
0100
1000
0100
,
0010
0001
0010
0001
,
2000
0000
0000
0000
0200
0000
0000
3300
,
0020
0000
0000
0000
0002
0000
0000
0033
,
0200
0000
0000
0000
0020
0000
0000
0330
,
2000
0000
0000
0000
0002
0000
0000
3003
,
1000
1000
1000
1000
,
0001
0001
0001
0001
,
0100
0100
0100
0100
,
0010
0010
0010
0010
,
1000
0001
1000
0001
,
0100
0010
0100
0010
,
1000
0100
0010
0001
,
1000
0010
0001
0010
,
0100
0010
1000
0001
,
0010
0001
1000
0100
,
1000
0010
0100
0001
,
0100
0010
0001
1000
,
0001
0010
0100
0010
,
1000
0010
0001
0010
,
0100
1000
0100
0010
,
0100
0001
0100
0110
,
0010
1000
0001
0100
,
0001
0010
0100
1000
,
0010
0010
0100
0100
,
0001
1000
0001
1000
,
0010
0100
0010
1000
,
0100
0010
0100
0001
,
0010
0010
0010
0010
,
2002
0000
0000
3003
,
0200
0000
0000
0300
0020
0000
0000
0030
,
2000
0000
0000
3000
0002
0000
0000
0003
,
0020
0000
0000
0030
0002
0000
0000
0003
,
2000
0000
0000
3000
0200
0000
0000
0300
,
0010
0001
0010
0001
,
1000
0100
1000
0100
,
0010
0100
0010
0100
,
1000
0001
1000
0001
,
1000
1000
0100
0100
,
0010
0010
0001
0001
,
1000
0100
0010
0001
,
2200
0000
0000
3300
,
0001
0000
0100
0000
0001
0010
0001
0000
,
1000
0100
1000
0010
,
1000
0000
0100
0000
1000
0010
1000
0000
,
0001
0100
0001
0100
,
0010
0000
1000
0000
0010
1000
0010
0000
,
0100
0001
0100
0001
,
0010
0000
0001
0000
0010
0001
0010
0000
,
0100
1000
0010
0001
,
1000
0000
0010
0000
0100
0001
0100
0000
,
0001
0010
0100
1000
,
0010
0000
0100
0000
0001
0010
0100
0000
,
1000
0010
0100
0001
,
0010
0000
0001
0000
1000
0100
0010
0000
,
0001
0100
0010
1000
,
0001
0100
0001
0010
,
0100
1000
0010
0100
,
1001
0000
0000
0000
;

//---------------dance-single - ----------------
#NOTES:
     dance-single:
     :
     Medium:
     12:
     0.617761,0.583784,0.069189,0.190270,0.000000,500.000000,492.000000,8.000000,22.000000,0.000000,0.000000,0.617761,0.583784,0.069189,0.190270,0.000000,500.000000,492.000000,8.000000,22.000000,0.000000,0.000000:
0000
0000
0000
0000
,
0000
0000
0000
0000
,
0000
0000
0000
0000
,
1000
0100
1000
0010
0100
0001
0100
0000
,
0001
0010
0001
0100
0010
1000
0010
0000
,
1000
0010
0100
0001
0010
0100
1000
0000
,
0001
0100
0010
1000
0100
0010
0001
0000
,
1000
0010
0100
0010
1000
0001
0100
0000
,
0001
0100
0010
0100
0001
1000
0010
0000
,
0100
0010
0100
0001
0100
0010
0100
0000
,
0010
0100
0010
1000
0010
0100
0010
0000
,
1000
0100
1000
0001
1000
0100
1000
0010
,
0100
0001
0100
0010
0100
1000
0100
0000
,
0001
0010
0001
1000
0001
0010
0001
0100
,
0010
1000
0010
0100
0010
0001
0010
0000
,
1000
0100
0010
0100
1000
0001
0010
0100
,
1000
0010
0100
0010
1000
0001
0010
0000
,
0001
0010
0100
0010
0001
1000
0100
0010
,
0001
0100
0010
0100
0001
1000
0100
0000
,
0020
0001
0000
0031
2000
0100
0000
3100
,
2000
0010
0000
3010
0200
0001
0000
0301
,
0020
0001
0000
0130
0200
0010
0000
1300
,
2000
0100
0000
3001
0002
0010
0000
1003
,
1000
0100
0010
0100
0010
0001
1000
0000
,
0001
0010
0100
0010
0100
1000
0001
0000
,
1000
0010
0100
0010
1000
0001
0100
0000
,
0001
0010
0100
0010
0001
1000
0100
0010
,
0001
0100
0010
0100
0001
1000
0100
0000
,
1000
0010
0100
0001
1000
0010
0100
0010
,
1000
0100
0010
0100
1000
0001
0010
0100
,
0010
0001
0010
0001
1000
0100
1100
0000
,
1000
0001
0100
0001
0010
0100
1000
0000
,
0010
0100
1000
0100
0010
0100
0001
0000
,
0010
0001
0100
0010
1000
0100
1000
0000
,
0010
1000
0001
0100
0001
0010
0100
0000
,
1000
0010
0100
0010
1000
0001
0100
0000
,
0001
0100
0010
0100
0001
1000
0010
0000
,
1000
0001
1000
0001
0100
0010
0100
0010
,
1000
0100
0010
0001
0100
0000
0110
0000
,
0001
0010
0100
0010
0100
1000
0001
0000
,
1000
0100
0010
0100
0010
0001
1000
0000
,
0001
0100
0010
1000
0100
0010
0100
0000
,
1000
0010
0100
0001
0010
0100
0010
0000
,
0001
0100
0001
0100
0010
1000
0010
1000
,
0001
0010
0001
0010
0100
1000
0100
1000
,
0001
0100
0010
1000
0001
0100
0010
1000
,
0100
0010
0001
1000
0010
0100
0001
1000
,
0002
0000
0203
0000
,
0320
0000
0000
0000
2030
0000
0000
3000
,
0220
0000
0000
0330
2002
0000
0000
3003
,
0202
0000
0000
0303
2020
0000
0000
3030
,
0001
0010
0001
0010
0100
1000
0100
0000
,
1000
0010
1000
0010
0100
0001
0100
0000
,
0010
1000
0010
1000
0001
0100
0001
0000
,
1000
0100
1000
0100
0010
0001
0010
0000
,
0001
0100
0010
1000
0001
0100
0010
1000
,
0100
0010
0001
1000
0100
0010
0001
0000
,
1000
0010
0100
0001
1000
0010
0100
0001
,
2002
0000
0000
3003
,
0100
0010
0100
0001
0010
0001
0100
0000
,
0010
0100
0010
1000
0100
1000
0010
0000
,
0100
0001
0100
0010
1000
0010
0100
0000
,
0010
1000
0010
0100
0001
0100
0010
0000
,
1000
0010
0100
0010
1000
0100
0010
0000
,
0001
0100
0010
0100
0001
0010
0100
0000
,
1000
0001
1000
0001
0100
0010
0100
0000
,
0001
1000
0001
1000
0010
0100
0010
0000
,
1000
0010
0100
1000
0100
0001
0010
0000
,
0001
0100
0010
0001
0010
1000
0100
0000
,
1000
0100
0001
0100
1000
0010
1000
0000
,
0001
0100
1000
0100
0001
0010
0001
0000
,
1000
0010
1000
0010
1000
0100
1000
0100
,
0010
0001
0010
0001
0010
0100
0010
0100
,
1000
0100
0010
0001
1000
0100
0010
0001
,
0010
0001
0100
0010
1000
0100
0010
0001
,
0011
0000
0000
0000
;

//---------------dance-single - ----------------
#NOTES:
     dance-single:
     :
     Hard:
     17:
     0.969884,1.037838,0.025946,0.181622,1.241081,785.000000,782.000000,3.000000,21.000000,0.000000,0.000000,0.969884,1.037838,0.025946,0.181622,1.241081,785.000000,782.000000,3.000000,21.000000,0.000000,0.000000:
// measure 0
0000
0000
0000
0000
,  // measure 1
0000
0000
0000
0000
,  // measure 2
0000
0000
0000
0000
,  // measure 3
1000
0010
1000
0000
0001
0000
0100
0000
0001
0000
0010
0000
0100
0000
1000
0000
,  // measure 4
0010
0100
0010
0000
1000
0000
0001
0000
0010
0000
0001
0000
0100
0000
0010
0000
,  // measure 5
1000
0001
1000
0000
0001
0000
0010
0000
0100
0000
0010
0000
0001
0000
1000
0000
,  // measure 6
0010
0000
0100
0000
0001
0010
0000
0100
1000
0000
0010
0000
0100
0000
0001
0000
,  // measure 7
1000
0010
0100
0000
0001
0000
0010
0000
0001
0000
1000
0000
0100
0000
1000
0000
,  // measure 8
0001
0010
0100
0000
1000
0000
0010
0000
0100
0000
0001
0000
0010
0000
0001
0000
,  // measure 9
0100
0010
1000
0000
0001
0000
0010
0000
0001
0000
0100
0000
0010
0000
1000
0000
,  // measure 10
0001
0000
0001
0000
1000
0000
1000
0000
0010
0100
0010
0100
0020
0000
0000
0000
,  // measure 11
1030
0000
0010
0000
1000
0010
0000
1000
0010
0000
1000
0010
0000
1000
0010
0000
,  // measure 12
0100
0000
0001
0000
0100
0001
0000
0100
0001
0000
0100
0001
0000
0100
0001
0000
,  // measure 13
1000
0000
0010
0000
1000
0001
0000
1000
0010
0000
1000
0001
0000
1000
0010
0000
,  // measure 14
0100
0000
0010
0000
1000
0010
0000
0100
0010
0000
1000
0010
0000
0100
0001
0000
,  // measure 15
1000
0000
0010
0000
0100
0001
0000
1000
0100
0000
0010
0001
0000
1000
0010
0000
,  // measure 16
0100
0000
0001
0000
0010
0001
0000
0100
0010
0000
1000
0100
0000
0010
0100
0000
,  // measure 17
0010
0001
0010
0001
1000
0100
1000
0100
,  // measure 18
1000
0100
0010
0001
1000
0100
0010
0001
1000
0010
0100
0000
0001
0010
0100
0000
,  // measure 19
1000
0100
1000
0100
1000
0100
1000
0100
1000
0010
1000
0010
0002
0000
0003
0000
,  // measure 20
0001
0100
0001
0100
0001
0100
0001
0100
0010
1000
0010
0010
1000
0010
1000
1000
,  // measure 21
0100
0010
0100
0010
1000
0001
1000
0001
1000
0010
0100
0001
2002
0000
3003
0000
,  // measure 22
0001
0010
0001
0100
0001
1000
0001
1000
0010
0100
1000
0100
0001
0010
0110
0000
,  // measure 23
1000
0100
1000
0100
1000
0010
1000
0010
0100
0001
0100
0001
1000
0000
0010
0100
,  // measure 24
0001
0010
0001
0010
0001
0100
0001
0100
0020
0000
0000
0000
0130
0000
0010
0100
,  // measure 25
0001
0010
0100
0010
0001
0010
0100
0010
0001
0000
1000
0010
0100
0000
0001
1000
,  // measure 26
0010
0100
0010
1000
0010
0100
0010
1000
0010
0000
1000
0001
1000
0000
0100
0010
,  // measure 27
0001
0010
0001
1000
0010
0100
0001
1000
0020
0000
0000
0000
0230
0000
0000
0000
,  // measure 28
0301
0010
0001
0010
0100
1000
0100
1000
0002
0000
0000
0000
2003
0000
0000
0000
,  // measure 29
3001
0010
0100
1000
0001
0010
0100
1000
0001
0000
0100
0010
1000
0000
0001
0100
,  // measure 30
0010
0000
0100
0000
0001
0100
0000
0010
1000
0000
0001
0000
1001
0000
0000
0000
,  // measure 31
0100
0000
0010
0000
0100
0001
0000
0100
0010
0000
0100
0001
0000
0100
0010
0000
,  // measure 32
1000
0000
0001
0000
1000
0010
0000
1000
0001
0000
1000
0010
0000
1000
0001
0000
,  // measure 33
0010
0000
0100
0000
0010
0001
0000
0010
0100
0000
0010
0001
0000
0010
0100
0000
,  // measure 34
1000
0000
0001
0000
0100
0010
0000
0100
0001
0000
0010
0001
0000
0100
0010
0000
,  // measure 35
1000
0000
0100
0000
1000
0010
0000
0100
0010
0000
0100
0001
0000
0010
0001
0000
,  // measure 36
0010
0000
0100
0000
1000
0100
0000
0010
0100
0000
0010
0001
0000
0100
0001
0000
,  // measure 37
1000
0000
0100
0000
0010
0001
0000
0100
0010
0000
1000
0100
0000
1000
0001
0000
,  // measure 38
0100
0000
0010
0000
0100
0000
0010
0000
1000
0001
1000
0001
2000
0000
0000
0000
,  // measure 39
3001
0000
0010
0000
0001
0100
0000
0001
0010
0000
0001
0100
0000
0001
0010
0000
,  // measure 40
0100
0000
1000
0000
0100
0010
0000
0100
1000
0000
0100
0010
0000
0100
1000
0000
,  // measure 41
0010
0000
0100
0000
1000
0100
0000
0010
0100
0000
1000
0100
0000
0001
0100
0000
,  // measure 42
0010
0000
1000
0000
0010
0100
0000
0010
1000
0000
0010
0100
0000
0010
1000
0000
,  // measure 43
0001
0000
0100
0000
0001
0010
0000
0100
0010
0000
0001
0100
0000
0010
1000
0000
,  // measure 44
0010
0000
0100
0000
1000
0100
0000
0001
0010
0000
0100
1000
0000
0010
1000
0000
,  // measure 45
0001
0010
0100
1000
0001
0100
0010
1000
,  // measure 46
0001
0010
0001
0010
0100
1000
0100
1000
0001
0010
0001
0100
0010
1000
0100
1000
,  // measure 47
0002
0010
0000
0013
2000
0100
0000
3100
,  // measure 48
0020
0001
0000
0031
0200
1000
0000
1300
,  // measure 49
0001
0010
0001
0100
0001
0010
0001
0100
0010
1000
0010
0100
0010
1000
0010
0000
,  // measure 50
1000
0100
1000
0010
1000
0100
1000
0010
0100
0001
0100
0010
0100
0001
0010
0000
,  // measure 51
0100
1000
0100
1000
0100
0010
0100
0010
0001
0010
0001
0010
0100
0000
1000
0001
,  // measure 52
1000
0000
0001
1000
0001
0010
0100
1000
0001
0000
0000
0000
0001
0000
0010
0001
,  // measure 53
1000
0000
0010
1000
0001
0100
0001
0100
0010
0000
1000
0100
0010
0000
0001
0100
,  // measure 54
0001
0010
0001
0010
0100
1000
0100
1000
0001
0000
0100
0000
1000
0000
0100
0000
,  // measure 55
0001
1000
0001
1000
0010
0100
0010
0100
0002
0000
0000
0000
0023
0000
0000
0000
,  // measure 56
0031
0100
0010
1000
0001
0100
0010
1000
0002
0000
0000
0000
2003
0000
0000
0000
,  // measure 57
3001
0100
0010
0100
0001
1000
0100
0010
0001
0000
1000
0010
0100
0000
0001
1000
,  // measure 58
0010
0100
0001
1000
0010
0100
0001
1000
0001
0010
1000
0010
0002
0000
0003
0000
,  // measure 59
1000
0000
0010
0000
1000
0001
0000
1000
0010
0000
1000
0100
0000
1000
0010
0000
,  // measure 60
0100
0000
0001
0000
1000
0010
0000
0100
0001
0000
0010
0001
0000
1000
0100
0000
,  // measure 61
0010
0000
0001
0000
0010
0100
0000
0010
0001
0000
0010
0100
0000
0010
0001
0000
,  // measure 62
1000
0000
0010
0000
0100
0001
0000
0010
0001
0000
1000
0100
0000
1000
0010
0000
,  // measure 63
0100
0000
0001
0000
0100
0010
0000
0100
0001
0000
0100
0010
0000
0100
1000
0000
,  // measure 64
0100
0000
0001
0000
0010
0001
0000
1000
0100
0000
1000
0010
0000
0100
0001
0000
,  // measure 65
1000
0000
0100
0000
0001
0100
0000
1000
0100
0000
0001
0100
0000
1000
0100
0000
,  // measure 66
0010
0000
0010
0000
0100
0000
0100
0000
1000
0001
1000
0001
2000
0000
0000
0000
,  // measure 67
3010
0000
0100
0000
0001
0010
0000
0001
0100
0000
0010
1000
0000
0100
1000
0000
,  // measure 68
0001
0000
1000
0000
0010
0100
0000
0001
0010
0000
0100
1000
0000
0001
0100
0000
,  // measure 69
0010
0000
0100
0000
0001
0010
0000
0100
1000
0000
0010
0100
0000
0010
1000
0000
,  // measure 70
0001
0000
0001
0000
1000
0000
1000
0000
0010
0100
0010
0100
0020
0000
0000
0000
,  // measure 71
1030
0000
0100
0000
1000
0000
0010
0000
0100
0001
1000
0001
0100
0000
0010
1000
,  // measure 72
0001
0000
0100
0000
0001
0000
0010
0000
0100
1000
0001
1000
0100
0000
1000
0010
,  // measure 73
1000
0100
1000
0010
0100
0001
0010
0001
0100
0000
0010
0100
0010
0000
1000
0001
,  // measure 74
1000
0100
1000
0100
0010
0001
0010
0001
1000
0010
1000
0010
0100
0001
0100
0001
,  // measure 75
0010
0000
0000
0000
;

//---------------dance-double - ----------------
#NOTES:
     dance-double:
     :
     Hard:
     17:
     0.969884,1.037838,0.025946,0.172973,1.241081,785.000000,782.000000,3.000000,20.000000,0.000000,0.000000,0.969884,1.037838,0.025946,0.172973,1.241081,785.000000,782.000000,3.000000,20.000000,0.000000,0.000000:
00000000
00000000
00000000
00000000
,
00000000
00000000
00000000
00000000
,
00000000
00000000
00000000
00000000
,
00100000
10000000
00100000
00000000
01000000
00000000
00010000
00000000
00100000
00000000
00001000
00000000
00010000
00000000
00000010
00000000
,
00000100
00000001
00000100
00000000
00000010
00000000
00001000
00000000
00000100
00000000
00010000
00000000
00001000
00000000
01000000
00000000
,
00100000
10000000
01000000
00000000
10000000
00000000
00010000
00000000
00100000
00000000
01000000
00000000
10000000
00000000
00010000
00000000
,
00100000
00000000
00001000
00000000
00010000
00000010
00000000
00001000
00000001
00000000
00000010
00000000
00000100
00000000
00001000
00000000
,
00000001
00000100
00000010
00000000
00001000
00000000
00000100
00000000
00010000
00000000
00001000
00000000
00100000
00000000
01000000
00000000
,
10000000
00010000
10000000
00000000
00100000
00000000
01000000
00000000
00001000
00000000
00100000
00000000
00010000
00000000
00100000
00000000
,
00000100
00001000
00000100
00000000
00000010
00000000
00000001
00000000
00001000
00000000
00000010
00000000
00010000
00000000
00001000
00000000
,
00010000
00000000
00010000
00000000
00001000
00000000
00001000
00000000
00010000
00100000
00010000
10000000
02000000
00000000
00000000
00000000
,
13000000
00000000
00100000
00000000
10000000
00010000
00000000
00100000
00010000
00000000
10000000
01000000
00000000
10000000
00100000
00000000
,
01000000
00000000
00010000
00000000
00100000
00001000
00000000
00100000
00010000
00000000
01000000
00010000
00000000
00100000
00001000
00000000
,
00010000
00000000
00000010
00000000
00001000
00000100
00000000
00010000
00000100
00000000
00001000
00000001
00000000
00000010
00000100
00000000
,
00000010
00000000
00000001
00000000
00001000
00000010
00000000
00000100
00000001
00000000
00001000
00000001
00000000
00000010
00000100
00000000
,
00000010
00000000
00000001
00000000
00000100
00000010
00000000
00001000
00000100
00000000
00010000
00001000
00000000
00100000
00001000
00000000
,
01000000
00000000
00010000
00000000
10000000
00100000
00000000
10000000
01000000
00000000
00100000
00010000
00000000
10000000
00100000
00000000
,
01000000
00010000
10000000
00100000
01000000
00001000
00010000
00001000
,
00010000
00000100
00010000
00000100
00001000
00000000
00000010
00000000
00000100
00000001
00000100
00000001
00000010
00000000
00000001
00000000
,
00001000
00000010
00001000
00000010
00001000
00000010
00001000
00000010
00000100
00000001
00000100
00000001
00000200
00000000
00000000
00000000
,
00000310
00001000
00000010
00001000
00000100
00010000
00000100
00010000
00001000
00010000
01000000
00010000
00001000
00000100
00001000
00010000
,
00001000
00100000
00001000
00100000
00010000
01000000
00010000
01000000
00100000
10000000
00100000
10000000
20020000
00000000
30030000
00000000
,
01000000
00100000
10000000
00100000
01000000
00010000
00100000
00001000
00010000
00000010
00000100
00001000
00010000
01000000
11000000
00000000
,
10000000
00100000
10000000
00100000
01000000
00010000
01000000
00010000
10000000
00010000
10000000
00010000
00100000
00000000
00001000
00010000
,
00001000
00010000
00001000
00010000
00000010
00000100
00000010
00000100
00000001
00000000
00000000
00000000
00000001
00000000
00001000
00000010
,
00000100
00000001
00000100
00000001
00001000
00000010
00001000
00000010
00010000
00000100
00010000
00000100
00001000
00000000
00000001
00000010
,
00000001
00001000
00000001
00001000
00000010
00000100
00000010
00000100
00000010
00000000
00010000
00001000
00010000
00000000
00001000
00010000
,
00001000
00100000
00001000
00100000
00010000
01000000
00010000
01000000
00200000
00000000
00000000
00000000
20300000
00000000
00000000
00000000
,
31000000
10000000
01000000
10000000
00010000
00100000
00010000
00100000
00002000
00000000
00000000
00000000
01003000
00000000
00010000
01000000
,
00100000
01000000
00100000
01000000
00010000
10000000
00010000
10000000
00100000
00000000
01000000
00001000
01000000
00000000
00010000
00100000
,
00010000
00000000
00100000
00000000
00001000
00010000
00000000
00010000
00000010
00000000
00000100
00000000
00000101
00000000
00000000
00000000
,
00000001
00000000
00001000
00000000
00000010
00001000
00000000
00000100
00010000
00000000
00001000
00010000
00000000
00001000
00100000
00000000
,
00010000
00000000
10000000
00000000
01000000
10000000
00000000
00010000
00100000
00000000
00010000
01000000
00000000
00100000
10000000
00000000
,
00010000
00000000
01000000
00000000
00001000
00100000
00000000
00001000
00010000
00000000
00000100
00000010
00000000
00000100
00001000
00000000
,
00000001
00000000
00000010
00000000
00000001
00001000
00000000
00000100
00001000
00000000
00000100
00010000
00000000
00001000
00100000
00000000
,
00010000
00000000
10000000
00000000
01000000
00100000
00000000
01000000
10000000
00000000
00010000
00100000
00000000
00010000
01000000
00000000
,
00100000
00000000
10000000
00000000
00100000
01000000
00000000
00010000
00100000
00000000
00001000
00010000
00000000
00001000
01000000
00000000
,
00100000
00000000
01000000
00000000
00001000
00010000
00000000
00000010
00000100
00000000
00000001
00000100
00000000
00000010
00001000
00000000
,
00000001
00000000
00000001
00000000
00001000
00000000
00001000
00000000
00000010
00000100
00000010
00000100
00000020
00000000
00000000
00000000
,
00001030
00000000
00000100
00000000
00010000
00000010
00000000
00010000
00001000
00000000
00000010
00000001
00000000
00001000
00000100
00000000
,
00001000
00000000
00000010
00000000
00010000
00000100
00000000
00100000
00001000
00000000
01000000
00100000
00000000
10000000
00100000
00000000
,
10000000
00000000
01000000
00000000
10000000
00010000
00000000
00100000
00010000
00000000
01000000
00100000
00000000
01000000
00001000
00000000
,
00010000
00000000
00000010
00000000
00001000
00000100
00000000
00000010
00000001
00000000
00001000
00000100
00000000
00001000
00000010
00000000
,
00000100
00000000
00000001
00000000
00000010
00000001
00000000
00001000
00000010
00000000
00000100
00000010
00000000
00000100
00001000
00000000
,
00010000
00000000
00001000
00000000
00100000
00010000
00000000
10000000
01000000
00000000
10000000
00100000
00000000
10000000
01000000
00000000
,
10000000
00100000
10000000
00100000
01000000
00010000
01000000
00010000
,
00100000
00001000
00100000
00001000
00010000
00000100
00010000
00000100
00001000
00000001
00001000
00000001
00000100
00000010
00000100
00000000
,
00000020
00001000
00000000
00000031
00000200
00010000
00000000
00001300
,
00020000
01000000
00000000
00130000
20000000
00100000
00000000
31000000
,
10000000
00010000
10000000
00010000
01000000
00100000
01000000
00100000
10000000
00100000
01000000
00010000
00100000
01000000
10000000
00000000
,
00010000
01000000
00100000
01000000
00010000
00100000
00001000
00010000
00000010
00001000
00000100
00001000
00000001
00000010
00000001
00000000
,
00001000
00000010
00001000
00000010
00000100
00000001
00000100
00000001
00010000
00000100
00010000
00000100
00001000
00000000
00000100
00010000
,
00001000
00100000
00001000
00100000
00010000
01000000
00010000
01000000
00100000
00000000
00000000
00000000
10000000
00000000
01000000
10000000
,
00100000
10000000
00100000
10000000
00010000
01000000
00010000
01000000
00001000
00000000
00100000
00010000
00100000
00000000
00001000
00010000
,
00000100
00010000
00000100
00010000
00000010
00001000
00000010
00001000
00000002
00000000
00000000
00000000
00002003
00000000
00000000
00000000
,
00003010
00000100
00000010
00000100
00000001
00001000
00000001
00001000
00000200
00000000
00000000
00000000
00020300
00000000
00000000
00000000
,
01030000
10000000
01000000
10000000
00010000
00100000
00010000
00100000
00002000
00000000
00000000
00000000
00003020
00000000
00000000
00000000
,
00000031
00000100
00000001
00000100
00000010
00001000
00000010
00001000
00000100
00000000
00010000
00001000
00010000
00000000
00001000
00000000
,
00100000
00010000
10000000
01000000
00100000
00010000
10000000
01000000
10000000
00000000
00010000
00100000
00001000
00000000
00010000
00001000
,
00010000
00000000
00000010
00000000
00000100
00000001
00000000
00001000
00000010
00000000
00000100
00000001
00000000
00000010
00000100
00000000
,
00010000
00000000
00000010
00000000
00010000
00000100
00000000
00001000
00000100
00000000
00010000
00001000
00000000
01000000
00100000
00000000
,
01000000
00000000
00010000
00000000
10000000
00100000
00000000
01000000
00100000
00000000
10000000
00010000
00000000
00100000
00001000
00000000
,
00010000
00000000
00000010
00000000
00001000
00000100
00000000
00010000
00001000
00000000
00000010
00000001
00000000
00001000
00000100
00000000
,
00001000
00000000
00000001
00000000
00001000
00000010
00000000
00010000
00000100
00000000
00010000
00001000
00000000
00100000
00001000
00000000
,
01000000
00000000
00100000
00000000
10000000
00100000
00000000
01000000
00010000
00000000
10000000
01000000
00000000
10000000
00100000
00000000
,
01000000
00000000
00010000
00000000
01000000
00100000
00000000
01000000
10000000
00000000
01000000
00010000
00000000
00100000
00010000
00000000
,
00100000
00000000
00001000
00000000
00010000
00000000
00000100
00000000
00001000
00000100
00000010
00000001
00000020
00000000
00000000
00000000
,
00000031
00000000
00000100
00000000
00000001
00001000
00000000
00000010
00000100
00000000
00000010
00010000
00000000
00000100
00001000
00000000
,
00000100
00000000
00010000
00000000
00001000
00100000
00000000
00001000
00010000
00000000
00100000
10000000
00000000
01000000
10000000
00000000
,
00100000
00000000
01000000
00000000
00001000
00010000
00000000
00001000
00100000
00000000
00000100
00001000
00000000
00000010
00000100
00000000
,
00000001
00000000
00000001
00000000
00001000
00000000
00001000
00000000
00000100
00010000
00001000
00010000
00000200
00000000
00000000
00000000
,
00010300
00000000
00100000
00000000
01000000
00000000
10000000
00000000
01000000
00010000
01000000
00010000
00100000
00000000
00001000
00010000
,
00000010
00000000
00000100
00000000
00001000
00000000
00000100
00000000
00000010
00001000
00000001
00001000
00000010
00000000
00000100
00000001
,
00000010
00000001
00000010
00000001
00001000
00000100
00001000
00000100
00010000
00000000
00001000
00010000
00001000
00000000
00010000
01000000
,
10000000
00100000
01000000
00010000
01000000
00001000
00100000
00010000
00100000
00001000
00010000
00000010
00000100
00000001
00000010
00000100
,
00001000
00000000
00000000
00000000
;

//---------------dance-double - ----------------
#NOTES:
     dance-double:
     :
     Medium:
     12:
     0.601699,0.518919,0.043243,0.129730,0.000000,487.000000,482.000000,5.000000,15.000000,0.000000,0.000000,0.601699,0.518919,0.043243,0.129730,0.000000,487.000000,482.000000,5.000000,15.000000,0.000000,0.000000:
00000000
00000000
00000000
00000000
,
00000000
00000000
00000000
00000000
,
00000000
00000000
00000000
00000000
,
00001000
00000010
00000100
00000000
00000001
00000000
00000010
00000000
,
00000001
00001000
00000100
00000000
00010000
00000000
00001000
00000000
,
00100000
00010000
10000000
00000000
01000000
00000000
10000000
00000000
,
00100000
10000000
01000000
00100000
00002000
00000000
00013000
00000000
,
00000010
00000100
00000001
00000000
00000010
00000000
00000001
00000000
,
00001000
00000010
00010000
00000000
00000100
00000000
00001000
00000000
,
00000100
00010000
00001000
00000000
01000000
00000000
00010000
00000000
,
10000000
00100000
01000000
00010000
00100000
00001000
00020000
00000000
,
00030010
00000100
00000010
00001000
00000001
00000010
00000100
00000000
,
00001000
00000100
00010000
00000100
00001000
00010000
00100000
00000000
,
01000000
10000000
00100000
10000000
00010000
00100000
01000000
00000000
,
00100000
00001000
00010000
00000100
00001000
00000001
00000100
00000000
,
00000010
00001000
00000001
00000010
00000100
00010000
00001000
00000000
,
00010000
01000000
10000000
00010000
10000000
00100000
01000000
00000000
,
00100000
10000000
00100000
01000000
00001000
00010000
00001000
00000000
,
00010000
00000010
00000100
00001000
00000100
00000001
00000010
00000000
,
00000002
00001000
00000000
00001003
00000100
00000010
00001010
00000000
,
00020000
00000100
00000000
00030100
00001000
00000100
00010000
00001000
,
00200000
00010000
00000000
00310000
10000000
01000000
10010000
00000000
,
02000000
00100000
00000000
03100000
00100000
10000000
01000000
00100000
,
00010000
10000000
00010000
01000000
00100000
10000000
01000000
00000000
,
00100000
00001000
00010000
00001000
00000100
00000000
00000010
00000000
,
00001000
00000001
00000010
00000100
00001000
00000000
00000001
00000000
,
00000100
00000010
00000100
00000010
00001000
00000001
00001000
00000000
,
00000001
00000100
00000010
00001000
00000100
00010000
00001000
00000000
,
00100000
00010000
10000000
01000000
00100000
01000000
10000000
00000000
,
00010000
00100000
01000000
10000000
00010000
00100000
01000000
00000000
,
00100000
00001000
00010000
00000100
00001000
00000010
00000200
00000000
,
00000301
00000010
00000001
00001000
00000100
00010000
00001000
00000000
,
01000000
00100000
10000000
00010000
00100000
01000000
10000000
00000000
,
00100000
01000000
00010000
10000000
00100000
01000000
00001000
00000000
,
00010000
00000010
00001000
00000010
00010000
00000100
00001000
00000000
,
00000001
00000010
00000100
00000010
00000001
00001000
00000100
00000000
,
00001000
00000010
00010000
00000010
00001000
00000100
00010000
00000000
,
00001000
01000000
00010000
01000000
00001000
00010000
00100000
00000000
,
10000000
01000000
00010000
01000000
10000000
00100000
02000000
00000000
,
03010000
00100000
00001000
00100000
00010000
01000000
00010000
00000000
,
10000000
00100000
01000000
00010000
00100000
00001000
00010000
00000000
,
00000010
00001000
00000100
00001000
00000001
00000010
00000100
00000000
,
00001000
00000001
00000010
00000100
00010000
00001000
00010000
00000000
,
00001000
00100000
00010000
00100000
00001000
01000000
00100000
00000000
,
10000000
01000000
10000000
00010000
00100000
00010000
01000000
00000000
,
00001000
00010000
00001000
00100000
00001000
00010000
00001000
00000100
,
00000010
00001000
00000001
00000010
00000100
00001000
00000001
00000000
,
00000020
00000100
00000000
00000130
00002000
00000001
00000000
00003001
,
00000020
00010000
00000000
00010030
00002000
01000000
00000000
01003000
,
00010000
10000000
01000000
10000000
00010000
00100000
01000000
00000000
,
10000000
00100000
01000000
00001000
00010000
00000100
00011000
00000000
,
00010000
00001000
00010000
00001000
00000010
00000100
00000010
00000000
,
00000001
00000100
00000001
00000100
00000010
00000000
00001010
00000000
,
00000100
00010000
00000100
00010000
00001000
00100000
00001000
00000000
,
01000000
00100000
10000000
00010000
00100000
01000000
10000000
00000000
,
00100000
10000000
00100000
10000000
00010000
01000000
00010000
01000000
,
00001000
00100000
00010000
00100000
00001000
00000000
00010000
00000010
,
00001000
00000100
00001000
00000001
00000010
00000100
00001000
00000000
,
00002002
00000000
00000000
00000000
00000000
00003003
00000000
00000000
,
00000010
00000100
00000001
00000100
00000010
00001000
00000100
00000000
,
00010000
00001000
00100000
00001000
00010000
00100000
01000000
00000000
,
00100000
10000000
01000000
10000000
00010000
00100000
00001000
00000000
,
00010000
00000010
00001000
00000100
00000010
00000001
00001000
00000000
,
00000010
00010000
00001000
00000100
00000010
00000100
00001000
00000000
,
00010000
00001000
00010000
01000000
10000000
00100000
10000000
00000000
,
00010000
10000000
00100000
01000000
00001000
00010000
00001000
00000000
,
00010000
00000010
00001000
00000001
00000100
00000010
00000200
00000000
,
00000301
00000010
00000001
00001000
00000100
00010000
00000100
00000000
,
00010000
00001000
00100000
01000000
10000000
00010000
10000000
00000000
,
00100000
10000000
01000000
00100000
00010000
01000000
00001000
00000000
,
00010000
00000100
00001000
00000100
00010000
00000010
00000100
00000000
,
00000001
00000010
00000100
00001000
00000010
00000100
00001000
00000000
,
00010000
00001000
01000000
00010000
10000000
00100000
01000000
00000000
,
00100000
10000000
00010000
01000000
00001000
00100000
00010000
00000000
,
00000100
00001000
00000100
00000001
00000010
00000100
00001000
00000100
,
00010000
00000000
00000000
00000000
;

//---------------dance-double - ----------------
#NOTES:
     dance-double:
     :
     Easy:
     8:
     0.337297,0.389189,0.060541,0.233514,0.000000,273.000000,266.000000,7.000000,27.000000,0.000000,0.000000,0.337297,0.389189,0.060541,0.233514,0.000000,273.000000,266.000000,7.000000,27.000000,0.000000,0.000000:
00000000
00000000
00000000
00000000
,
00000000
00000000
00000000
00000000
,
00000000
00000000
00000000
00000000
,
00010000
00001000
00100000
00010000
,
10000000
01000000
10000000
00010000
,
00100000
00001000
00010000
00000010
,
00000100
00000001
00000010
00000100
,
00001000
00000001
00000100
00000010
,
00010000
00001000
00000100
00001000
,
00010000
01000000
00100000
00010000
,
10000000
00100000
20020000
30030000
,
01000000
00001000
00010000
00001000
,
00100000
00001000
00010000
00000100
,
00000010
00000001
00001000
00000100
,
00010000
00001000
01000000
00010000
,
10000000
00100000
10000000
00010000
,
00100000
01000000
00010000
00001000
,
00000100
00000010
00000100
00000001
,
00001000
00000000
00000001
00000000
00000100
00000010
00001000
00000000
,
00000002
00000000
00000023
00000000
,
00000230
00000000
00002300
00000000
,
00023000
00000000
00230000
00000000
,
02300000
00000000
23000000
00000000
,
30010000
00100000
00010000
10000000
,
01000000
10000000
00010000
00000000
,
00100000
00001000
00010000
00000100
,
00010000
00000010
00001000
00000000
,
00000001
00000010
00000100
00000010
,
00000001
00001000
00000100
00000000
,
00010000
00001000
00100000
00010000
,
10000000
00010000
02200000
03300000
,
10000000
01000000
10000000
00010000
,
00100000
00001000
00010000
00000010
,
00000100
00000001
00001000
00000010
,
00010000
00001000
00010000
00000100
,
00010000
01000000
10000000
00100000
,
01000000
00001000
00010000
00001000
,
00000100
00000001
00000010
00000001
,
00001000
00000100
00022000
00033000
,
00001000
00100000
00010000
10000000
,
01000000
10000000
00010000
01000000
,
00001000
00100000
00001000
00010000
,
00000100
00001000
00000001
00000010
,
00000001
00001000
00000100
00010000
,
00000010
00000100
00001000
00010000
,
00001000
01000000
00100000
10000000
,
00010000
00100000
10010000
00000000
,
02000000
00000000
03020000
00000000
,
00230000
00000000
00302000
00000000
,
00023000
00000000
00030020
00000000
,
00000230
00000000
00000302
00000000
,
00001003
00000010
00000100
00000001
,
00001000
00000100
00010000
00000000
,
00001000
00100000
00010000
10000000
,
01000000
10000000
00010000
00000000
,
00100000
00001000
00010000
00000100
,
00001000
00000001
00000010
00000100
,
00001000
00000010
00010000
00000100
,
00002002
00000000
00000000
00003003
,
00000010
00000100
00000010
00001000
,
00000100
00010000
00001000
00100000
,
00010000
10000000
01000000
00100000
,
01000000
10000000
00010000
00100000
,
00001000
00010000
00000010
00000100
,
00000001
00001000
00000001
00000010
,
00000100
00001000
00000010
00010000
,
00001000
00010000
00022000
00033000
,
00001000
00000000
00100000
00000000
00010000
10000000
00010000
00000000
,
10000000
00000000
00100000
00000000
01000000
00010000
01000000
00000000
,
00001000
00000000
00010000
00000000
00000010
00000100
00000010
00000000
,
00001000
00000001
00001000
00000000
00000200
00000000
00000000
00000000
,
00000310
00000000
00000001
00000000
00001000
00000100
00001000
00000000
,
00000100
00000000
00010000
00000000
00001000
00100000
00001000
00000000
,
01000000
00100000
10000000
00010000
,
00100000
00001000
00010000
00000010
,
00000110
00000000
00000000
00000000
;
