#TITLE:Vampire Killer;
#SUBTITLE:;
#ARTIST:浅田 靖;
#TITLETRANSLIT:;
#SUBTITLETRANSLIT:;
#ARTISTTRANSLIT:Yasushi Asada;
#GENRE:;
#CREDIT:;
#BANNER:Vampire_Killer_banner.png;
#BACKGROUND:Vampire_Killer.png;
#LYRICSPATH:;
#CDTITLE:;
#MUSIC:Vampire Killer.ogg;
#OFFSET:-0.480000;
#SAMPLESTART:7.980000;
#SAMPLELENGTH:12.000000;
#LASTBEATHINT:240.500000;
#SELECTABLE:YES;
#BPMS:0.000000=128.000000
;
#STOPS:
;
#BGCHANGES:;
#KEYSOUNDS:;
#ATTACKS:;

//---------------dance-single - ----------------
#NOTES:
     dance-single:
     :
     Easy:
     6:
     0.230685,0.284964,0.146800,0.328141,0.021588,187.000000,170.000000,17.000000,38.000000,0.000000,0.000000,0.230685,0.284964,0.146800,0.328141,0.021588,187.000000,170.000000,17.000000,38.000000,0.000000,0.000000:
0000
0000
0000
0000
,
0000
0000
0000
0000
,
1000
0000
0001
0000
,
2002
0000
0000
0000
0000
3003
0000
0000
,
0010
0000
0000
0100
0000
0000
0010
0000
0000
0000
0000
0000
1000
0000
0000
0000
,
0001
0010
0001
0000
,
0010
0000
0000
0100
0000
0000
0010
0000
0000
0000
0000
0000
0001
0000
0000
0000
,
1000
0010
0220
0330
,
1000
0000
0000
0001
0000
0000
1000
0000
0000
0000
0000
0000
0010
0000
0000
0000
,
1000
0100
0010
0000
,
0001
0000
0000
0100
0000
0000
0010
0000
0000
0000
0000
0000
1000
0000
0000
0000
,
0001
1000
2002
3003
,
0010
0010
0010
0010
,
1000
0000
0001
0000
0010
0001
0010
0000
,
0100
0100
0100
0100
,
1000
0000
0001
0000
0100
0010
0100
0000
,
0002
0000
0023
0000
,
0230
0000
1300
0010
,
2000
0000
3020
0000
,
0230
0000
0301
0010
,
0001
2002
0000
3003
,
0100
0110
1000
1001
,
0022
0000
0033
0000
,
1000
1100
0001
0011
,
1000
0001
1000
0001
,
0010
0001
0200
0300
,
0010
1000
0001
1000
,
0010
0100
0002
0003
,
0020
0000
0230
0000
,
2300
0000
3002
0000
,
2003
0000
3200
0000
,
0320
0000
0031
0000
,
1000
2002
0000
3003
,
0010
0110
0100
0010
,
2002
0000
3003
0000
,
0010
0011
1000
1100
,
0001
0000
0010
0001
,
1000
0000
0010
1000
,
0001
0000
0000
1000
0000
0000
0002
0000
0000
0000
0000
0000
0003
0000
0000
0000
,
1000
0100
0010
0001
,
0020
0000
0031
1000
,
0010
1000
0001
0000
,
1000
0001
0010
0000
,
0001
0010
0100
1000
,
0020
0000
1030
0001
,
0020
0000
0130
1000
,
0001
0000
1000
0100
,
1000
0000
0001
0010
,
0001
0100
0010
1000
,
0001
1000
2002
3003
,
0100
0000
0100
0010
,
1000
0001
0010
0100
,
2000
0000
3010
0100
,
0001
0010
1001
0000
,
0100
1000
0100
0001
,
0100
0010
0200
0300
,
1001
0000
0000
0000
,
0000
0000
0000
0020
,
0000
0000
0000
0000
,
0000
0000
0000
0000
,
0030
0000
0000
0000
;

//---------------dance-single - ----------------
#NOTES:
     dance-single:
     :
     Medium:
     9:
     0.371317,0.388588,0.138164,0.181341,0.138164,301.000000,285.000000,16.000000,21.000000,0.000000,0.000000,0.371317,0.388588,0.138164,0.181341,0.138164,301.000000,285.000000,16.000000,21.000000,0.000000,0.000000:
0000
0000
0000
0000
,
0000
0000
0000
0000
,
0001
0000
0000
0100
0000
0000
1001
0000
0000
0000
0000
0000
0110
0000
0000
0000
,
1000
0010
1000
0001
0020
0000
0030
0000
,
0001
0000
0000
0100
0000
0000
1010
0000
0000
0000
1000
0000
0010
0000
0100
0000
,
0001
0000
0000
0010
0000
0000
0001
0000
1000
0000
0100
0000
1000
0000
0000
0000
,
0010
0000
0000
0100
0000
0000
0101
0000
0000
0000
0010
0000
1000
0000
0000
0000
,
0001
0000
0000
1000
0000
0000
0100
0000
1000
0000
0001
0000
0010
0000
0000
0000
,
0001
0000
0000
0010
0000
0000
0110
0000
0000
0000
1000
0000
0010
0000
0000
0000
,
0100
0000
0000
0001
0000
0000
1000
0000
0010
0000
0100
0000
0001
0000
0000
0000
,
1000
0000
0000
0100
0000
0000
0011
0000
0000
0000
0010
0000
0100
0000
0000
0000
,
1000
0000
0000
0001
0000
0000
1000
0000
0100
0000
0010
0000
0002
0000
0000
0000
,
0003
0000
0100
0000
0000
0010
0000
0000
0100
0000
0010
0000
0100
0000
0000
0000
,
0001
0000
0000
1000
0000
0000
0100
0000
1000
0000
0010
0000
1000
0000
0000
0000
,
0000
0000
0001
0000
0000
0010
0000
0000
0001
0000
0100
0000
0001
0000
0000
0000
,
1000
0000
0000
0001
0000
0000
0010
0000
0100
0000
1000
0000
0001
0000
0000
0000
,
1000
0000
0000
0010
0000
0000
0100
0000
0020
0000
0000
0000
0130
0000
0000
0000
,
0001
0000
0000
0010
0000
0000
0100
0000
0020
0000
0000
0000
0130
0000
0000
0000
,
1000
0000
0000
0010
0000
0000
0100
0000
0002
0000
0000
0000
0013
0000
0000
0000
,
0001
0000
0000
1000
0000
0000
0001
0000
0010
0000
0000
0100
0000
0000
1000
0000
,
0010
0100
0200
0000
0000
0000
0300
0000
,
0001
0010
0001
0000
1000
0010
1000
0000
,
0001
0010
0020
0000
0000
0000
0030
0000
,
0100
1000
0100
0000
0010
0001
0010
0000
,
0000
0000
0100
0000
0000
1000
0000
0000
0010
0000
0100
0000
0010
0000
0000
0000
,
1000
0000
0000
0001
0000
0000
1000
0000
0100
0000
0010
0000
0001
0000
0000
0000
,
0000
0000
0100
0000
0000
0001
0000
0000
0010
0000
0100
0000
1000
0000
0000
0000
,
0010
0000
0000
0100
0000
0000
0010
0000
1000
0000
0001
0000
1000
0000
0000
0000
,
0001
0000
0000
1000
0000
0000
0100
0000
1000
0000
0000
0000
1010
0000
0000
0000
,
0100
0000
0000
0001
0000
0000
0010
0000
0001
0000
0000
0000
0101
0000
0000
0000
,
0010
0000
0000
1000
0000
0000
0100
0000
1000
0000
0000
0001
0000
0000
0010
0000
,
0001
0000
0000
0100
0000
0000
0010
0000
1000
0000
0000
0100
0000
0000
0010
0000
,
0001
1000
2000
0000
0000
0000
3000
0000
,
0010
0100
0010
0000
1000
0001
1000
0000
,
0100
0010
0020
0000
0000
0000
0030
0000
,
0001
0100
0001
0000
1000
0010
1000
0000
,
0001
0000
0100
0010
0100
0010
1000
0000
,
0100
0000
1000
0010
0100
0010
1000
0000
,
0001
0000
0000
0010
0000
0000
2002
0000
0000
0000
3003
0000
0000
0000
0000
0000
,
0200
0000
0310
1000
0010
1000
0100
0000
,
0010
0000
0000
0001
0000
0000
1000
0000
0000
0000
0010
0000
0100
0000
0000
0000
,
0002
0000
0013
0100
1000
0000
0001
0000
,
1000
0000
0000
0010
0000
0000
0220
0000
0000
0000
0330
0000
0000
0000
0000
0000
,
0001
1000
0100
1000
0010
0100
0001
0000
,
0020
0000
0031
1000
0000
1000
0001
0000
,
1000
0000
0010
0100
0010
0100
0001
0000
,
0010
0000
0001
1000
0001
0000
1000
0000
,
0100
1000
0010
0000
0100
0001
0010
0000
,
1001
0010
1001
0100
,
1010
0000
0011
0000
0100
0020
0000
0030
,
1000
0100
1000
0002
0000
0000
0013
0000
,
0001
0010
0100
1000
0100
0010
0001
0000
,
0200
0000
0310
1000
0001
0010
0100
0000
,
1000
0010
1000
0000
0001
0010
0001
0000
,
1000
0100
1000
0000
0001
0010
0001
0000
,
0100
0000
0010
0000
0100
0000
0000
0000
0001
0000
0000
1000
0000
0000
1001
0000
,
0000
0000
0000
0000
,
0000
0000
0000
0220
,
0000
0000
0000
0000
,
0000
0000
0000
0000
,
0330
0000
0000
0000
;

//---------------dance-single - ----------------
#NOTES:
     dance-single:
     :
     Hard:
     15:
     0.667384,0.725364,0.250423,0.267694,0.721046,541.000000,512.000000,29.000000,31.000000,0.000000,0.000000,0.667384,0.725364,0.250423,0.267694,0.721046,541.000000,512.000000,29.000000,31.000000,0.000000,0.000000:
// measure 0
0000
0000
0000
0000
,  // measure 1
0000
0000
0000
0000
,  // measure 2
0100
0000
0000
0010
0000
0000
1001
0000
0000
0000
0000
0000
0110
0000
0000
0000
,  // measure 3
0001
0000
0001
0000
1000
0000
1000
0000
0001
0010
0100
1000
0002
0000
0000
0000
,  // measure 4
1003
0010
0000
0100
0001
0000
0011
0000
0000
0000
1000
0000
0001
0100
0001
0100
,  // measure 5
0010
0000
1000
0100
0000
0100
1000
0000
0010
0100
0001
0000
0010
0000
0100
0000
,  // measure 6
1000
0100
0000
0010
0001
0000
1100
0000
0000
0000
0001
0000
0010
0001
0100
0001
,  // measure 7
1000
0000
0010
0100
0000
0100
0010
0000
1000
0001
1000
0000
0020
0000
0000
0000
,  // measure 8
0130
0001
0000
1000
0100
0000
0110
0000
0000
0000
1000
0000
0001
0010
0100
0010
,  // measure 9
0001
0000
1000
0001
0000
0001
0010
0000
0100
1000
0010
0000
1000
0000
0001
0000
,  // measure 10
0010
0001
0000
0010
1000
0000
0110
0000
0000
0000
0010
0000
0001
1000
0100
1000
,  // measure 11
0010
0000
0100
0001
0000
0001
0100
0000
0010
1000
0100
0000
1000
0000
0010
0000
,  // measure 12
1000
0000
0001
0000
0010
0001
0000
0001
0010
0100
0010
0001
1000
0000
0010
0000
,  // measure 13
1000
0000
0100
1000
0000
1000
0010
0000
0100
0010
0100
0001
0000
0001
0100
0000
,  // measure 14
0010
0000
1000
0000
0001
0010
0000
0010
0001
1000
0100
1000
0010
0000
0100
0000
,  // measure 15
0001
0000
1000
0100
0000
0100
0010
0000
0100
1000
0001
1000
0000
0010
0100
0000
,  // measure 16
0002
0000
0000
0023
0000
0000
1030
0000
0010
0001
0010
0200
0000
0000
1300
0000
,  // measure 17
0020
0000
0000
0032
0000
0000
0013
0000
1000
0100
1000
0020
0000
0000
0000
0000
,  // measure 18
0230
0000
0000
0302
0000
0000
0103
0000
1000
0100
1000
0200
0000
0000
0310
0000
,  // measure 19
1000
0000
0000
0011
0000
0000
0100
0000
0001
0000
0000
1100
0000
0000
0010
0000
,  // measure 20
1000
0001
1000
0001
0000
0000
0010
0100
0010
0000
0000
0000
0110
0000
0000
0000
,  // measure 21
0001
0000
0001
0000
0010
0100
0000
0000
1000
0000
1000
0000
0010
0100
0000
0000
,  // measure 22
0001
1000
0001
1000
0000
0000
0100
0010
0100
0000
0000
0000
0110
0000
0000
0000
,  // measure 23
1000
0000
1000
0000
0100
0010
0000
0000
0001
0000
0001
0000
0100
0010
0000
0000
,  // measure 24
1000
0000
0001
0000
0010
0100
0000
0100
0010
0001
0010
0100
1000
0000
0010
0000
,  // measure 25
1000
0000
0001
0100
0000
0100
0010
0000
1000
0100
1000
0001
0000
0100
0010
0000
,  // measure 26
1000
0000
0100
0000
0010
0001
0000
0001
1000
0010
0100
0010
1000
0000
0001
0000
,  // measure 27
0010
0000
0001
0100
0000
0100
0010
0000
1000
0010
0100
0001
0000
0010
0001
0000
,  // measure 28
2000
0000
0000
3200
0000
0000
0301
0000
0200
0000
0000
2300
0000
0000
3010
0000
,  // measure 29
0020
0000
0000
0032
0000
0000
0013
0000
1000
0010
0100
0002
0000
0000
0000
0000
,  // measure 30
0023
0000
0000
0230
0000
0000
0301
0000
0100
1000
0010
2000
0000
0000
3001
0000
,  // measure 31
0100
0000
0000
1010
0000
0000
0001
0000
0010
0000
0000
0101
0000
0000
1000
0000
,  // measure 32
0010
0100
0010
0100
0000
0000
0001
0010
0001
0000
1000
0000
1001
0000
0000
0000
,  // measure 33
0010
0000
0010
0000
0100
1000
0000
0000
0010
0000
0010
0000
0100
0001
0000
0000
,  // measure 34
0100
0010
0100
0010
0000
0000
1000
0100
1000
0000
0001
0000
1001
0000
0000
0000
,  // measure 35
0100
0000
0100
0000
0010
0001
0000
0000
0100
0000
0100
0000
0010
1000
0000
0000
,  // measure 36
0001
0000
0100
0010
0100
0000
0001
0000
0010
0100
0010
0000
0001
0000
1000
0000
,  // measure 37
0010
0000
0100
0000
0110
0000
0000
0000
0001
1000
0100
1000
0001
0000
0100
0000
,  // measure 38
0101
0000
0000
1100
0000
0000
0022
0000
0000
0000
0033
0000
0000
0000
1000
0000
,  // measure 39
0010
0100
0010
0000
1000
0100
1000
0000
0001
0010
0100
1000
0001
0000
1000
0000
,  // measure 40
0010
0100
0010
1000
0000
0000
0001
0010
0100
0010
0000
0000
0001
0000
1000
0000
,  // measure 41
1001
0000
0100
0010
1000
0001
0010
0001
,  // measure 42
1100
0000
0000
0011
0000
0000
2020
0000
0000
0000
3030
0000
0100
0000
0010
0000
,  // measure 43
1000
0100
0010
0000
0001
0100
0010
0000
1000
0001
0010
0100
1000
0000
0001
0000
,  // measure 44
0100
0000
0010
0000
1000
0000
0001
0000
0010
0000
0001
1000
0001
0000
0100
0000
,  // measure 45
0010
0000
1000
0000
0100
1000
0100
0000
1000
0010
0100
0010
1000
0000
0001
0000
,  // measure 46
0020
0000
0000
0000
0031
0000
0100
0000
0010
0000
1000
0100
0010
0001
1000
0000
,  // measure 47
0010
0100
0101
0000
1000
0010
1100
0000
,  // measure 48
0011
0000
0000
0000
1000
0001
0010
0100
2000
0000
0000
0000
3010
0100
0001
1000
,  // measure 49
0010
0000
0100
0000
0101
0000
0000
0000
0010
0001
0100
0000
0010
0000
1000
0000
,  // measure 50
0001
0000
0010
0000
0001
1000
0100
0000
1000
0000
0010
0000
0100
0000
0010
0000
,  // measure 51
1000
0100
1000
0000
0100
0010
0100
0000
0010
0001
0010
0100
1000
0000
0001
0000
,  // measure 52
0200
0000
0010
0000
0310
0000
1000
0010
1000
0000
0100
0000
0010
0000
0001
0000
,  // measure 53
0100
0000
0001
0010
0001
0000
1000
0000
0010
0100
0010
1000
0020
0000
0000
0000
,  // measure 54
1030
0100
1000
0000
0100
0000
1000
0000
0100
0000
0000
0000
1000
0000
0000
0000
0001
0010
0001
0000
0010
0000
0001
0000
0010
0000
0000
0000
0001
0000
0000
0000
,  // measure 55
1000
0001
1000
0000
0001
0000
1000
0000
0010
0000
0000
0000
0100
0000
0000
0000
0110
0000
0000
0000
0000
0000
1001
0000
0000
0000
0000
0000
0010
0000
0000
0000
,  // measure 56
0100
0001
0010
0001
0000
0100
1000
0000
0010
0100
0010
1000
0000
0100
1000
0000
,  // measure 57
0001
0100
0010
1000
0001
0010
0100
1000
0001
0010
0100
0000
2002
0000
0000
0000
,  // measure 58
0000
0000
0000
0000
,  // measure 59
0000
0000
0000
0000
,  // measure 60
3003
0000
0000
0000
;
