#TITLE:ボルテ体操第一;
#SUBTITLE:;
#ARTIST:Kaoru feat.FG75;
#TITLETRANSLIT:VOLTEX taisou dai ichi;
#SUBTITLETRANSLIT:;
#ARTISTTRANSLIT:;
#GENRE:;
#CREDIT:;
#BANNER:VOLTEX_taisou_dai_ichi_banner.png;
#BACKGROUND:VOLTEX_taisou_dai_ichi.png;
#LYRICSPATH:;
#CDTITLE:;
#MUSIC:VOLTEX taisou dai ichi.ogg;
#OFFSET:-0.600000;
#SAMPLESTART:11.990000;
#SAMPLELENGTH:12.000000;
#LASTBEATHINT:321.999817;
#SELECTABLE:YES;
#BPMS:0.000000=100.000000
,10.500000=95.000000
,11.000000=90.000000
,12.000000=87.500000
,18.000000=200.000000
,230.000000=100.000000
,246.000000=200.000000
,278.000000=100.000000
,280.000000=200.000000
,296.000000=100.000000
,304.000000=200.000000
,317.000000=400.000000
,320.000000=200.000000
;
#STOPS:130.000000=0.150000,
130.500000=0.150000,
131.000000=0.150000,
131.500000=0.150000,
132.000000=0.150000,
132.500000=0.150000,
133.000000=0.300000,
312.750000=0.300000,
313.750000=0.300000,
314.750000=0.300000,
315.750000=0.300000,
316.000000=0.900000,
317.000000=1.500000,
319.000000=0.150000
;
#BGCHANGES:;
#KEYSOUNDS:;
#ATTACKS:;

//---------------dance-single - ----------------
#NOTES:
     dance-single:
     :
     Easy:
     7:
     0.263341,0.297587,0.099196,0.355451,0.000000,223.000000,211.000000,12.000000,43.000000,0.000000,0.000000,0.263341,0.297587,0.099196,0.355451,0.000000,223.000000,211.000000,12.000000,43.000000,0.000000,0.000000:
0000
0000
0000
0000
,
0000
0000
0000
0000
,
0000
0000
0000
0000
,
0000
0000
0000
0000
,
0000
0000
0010
0000
,
0010
0000
0010
0000
,
0010
0000
0100
0000
,
0100
0000
0220
0000
,
0330
0000
0001
1000
,
0001
1000
0001
1000
,
0001
1000
0001
1000
,
0001
1000
0001
1000
,
0001
0000
1000
0100
,
1000
0100
1000
0100
,
1000
0000
0001
0010
,
0001
0010
0001
0010
,
0001
0000
1000
0001
,
1000
0001
1000
0001
,
1000
0000
0010
0100
,
0010
0100
0010
0100
,
0010
0000
1000
0000
,
0100
0000
0010
0000
,
0001
0000
0100
0000
,
0010
0000
2002
0000
,
3003
0000
0010
0001
,
0010
0001
0010
0001
,
1000
0000
0010
1000
,
0010
1000
0010
1000
,
0001
0000
0100
0001
,
0100
0001
0100
0001
,
0010
0000
0100
1000
,
0100
1000
0100
1000
,
0010
0000
0000
0000
0200
0000
0000
0300
,
0000
0000
0001
0000
,
0010
0000
0100
0000
,
1000
0000
0010
0000
,
0100
0000
0001
0000
,
0220
0330
1000
0100
,
1000
0000
0001
0010
,
0001
0000
2000
0000
,
3002
0000
0203
0000
,
0000
0000
0300
0000
0020
0030
0020
0030
,
0020
0030
0000
0000
2000
3000
2000
3000
,
2000
3000
0000
0000
0002
0003
0002
0003
,
0002
0003
0000
0000
0200
0300
0200
0300
,
0110
0000
2000
0000
,
3200
0000
0320
0000
,
0032
0000
0103
0010
,
1000
0001
2002
0000
,
3003
0000
0010
0000
,
0001
0000
1000
0000
,
0010
0000
0200
0301
,
0100
0000
0020
1030
,
0010
0000
2000
3100
,
1000
0000
0002
0103
,
0001
0000
1010
0000
,
0011
0000
2002
0000
,
0000
3003
0100
0010
,
0100
0010
1000
0001
,
0020
0030
0100
1000
,
0001
1000
0100
0010
,
0220
0330
0000
0000
0001
0000
0000
0000
,
0010
0000
0100
0000
,
1000
0000
0010
0000
,
0100
0000
0001
1000
,
2002
3003
1000
0100
,
1000
0010
0200
0000
,
0302
0000
0013
0100
,
1000
0100
0020
0000
,
0031
0000
1001
0000
,
0220
0000
0330
0000
,
1000
0000
0001
0000
,
1000
0000
0001
0000
,
0010
0100
1000
0001
,
0100
0010
1000
0001
,
0010
0100
1000
0000
,
0100
1000
0100
0001
,
0100
1000
0100
0001
,
0100
0010
0100
0010
,
0100
0010
0000
0010
,
0010
0000
0000
0000
;

//---------------dance-single - ----------------
#NOTES:
     dance-single:
     :
     Medium:
     12:
     0.482989,0.562109,0.181859,0.347185,0.012399,409.000000,387.000000,22.000000,42.000000,0.000000,0.000000,0.482989,0.562109,0.181859,0.347185,0.012399,409.000000,387.000000,22.000000,42.000000,0.000000,0.000000:
// measure 0
0000
0000
0000
0000
,  // measure 1
0000
0000
0000
0000
,  // measure 2
0001
1000
0010
0001
,  // measure 3
0220
0330
0000
0000
,  // measure 4
0000
0000
0110
0001
,  // measure 5
1000
0001
0100
0000
0010
0000
1000
0000
,  // measure 6
0100
0010
0001
0000
1000
0100
1000
0000
,  // measure 7
0001
0100
0001
0000
0010
0100
0010
0100
,  // measure 8
0010
0000
1001
0000
1000
0001
0100
0000
,  // measure 9
0001
1000
0100
0000
1000
0001
0010
0000
,  // measure 10
0001
1000
0010
0000
1000
0001
0100
0000
,  // measure 11
0001
1000
0100
0000
1000
0010
0100
0010
,  // measure 12
2000
0000
0000
0000
3001
0010
0100
0000
,  // measure 13
0010
0001
0100
0000
0001
0100
0010
0000
,  // measure 14
0100
0010
1000
0000
0100
1000
0010
0000
,  // measure 15
0100
0010
1000
0000
0100
0000
1000
0000
,  // measure 16
2002
3003
0010
0100
,  // measure 17
1000
0001
0010
0100
,  // measure 18
1000
0010
1000
0100
,  // measure 19
0010
0001
0100
0001
,  // measure 20
2002
0000
3003
0000
0010
0100
0010
0000
,  // measure 21
1000
0000
0100
0000
0010
0001
0010
0000
,  // measure 22
0001
0000
0100
0000
0010
1000
0010
0000
,  // measure 23
1000
0100
0010
0001
,  // measure 24
0220
0000
0330
0000
1000
0010
1000
0000
,  // measure 25
0001
0000
0001
0000
1000
0100
1000
0000
,  // measure 26
0001
0000
0001
0000
1000
0010
0100
0000
,  // measure 27
0010
0100
0001
0000
0010
0001
1000
0001
,  // measure 28
0020
0000
0000
0000
0031
0000
1000
0100
,  // measure 29
1000
0000
0001
0000
0010
0000
0001
0100
,  // measure 30
0001
0000
1000
0000
0010
0100
0001
0000
,  // measure 31
0010
0100
1000
0000
0001
0000
1000
0000
,  // measure 32
0220
0330
2002
0000
,  // measure 33
0000
3003
0100
0010
,  // measure 34
0100
0010
0100
0001
0010
0000
0001
0000
,  // measure 35
1000
0100
0010
0100
1000
0000
0010
0000
,  // measure 36
0100
0001
1000
0001
0100
0000
0010
0000
,  // measure 37
1000
0100
0010
0001
0010
0000
0001
0000
,  // measure 38
1000
0001
1000
0000
0010
0000
1000
0000
,  // measure 39
0001
0100
0001
0000
0010
0000
0100
0000
,  // measure 40
1000
0001
1000
0000
0010
0000
0100
0000
,  // measure 41
2002
3003
0020
2030
,  // measure 42
3020
0000
0130
0001
0100
0020
0000
2030
,  // measure 43
0000
3010
0100
0000
0002
0000
0023
0000
,  // measure 44
0230
0000
1300
0001
1000
0000
0010
0100
,  // measure 45
0010
1000
0001
1000
0020
0100
0032
0010
,  // measure 46
0003
0010
0100
1000
0020
0000
0130
0002
,  // measure 47
0000
0103
0010
0100
0001
0000
1000
0001
,  // measure 48
0010
0100
1000
0000
0001
0000
1000
0000
,  // measure 49
0220
0000
0330
0000
1000
0000
0000
0010
,  // measure 50
0100
0000
0000
0000
0001
0000
0000
0000
0010
0000
0000
0100
0000
0000
1000
0000
,  // measure 51
0001
0000
1000
0000
0010
0000
0000
1000
,  // measure 52
0001
0000
0000
0000
0010
0000
0000
0000
0001
0000
0000
1000
0000
0000
0100
0000
,  // measure 53
1000
0000
1010
0000
0100
0000
0001
0010
,  // measure 54
0000
0000
0001
0000
1000
0000
0000
0000
0100
0000
0000
0010
0000
0000
0001
0000
,  // measure 55
1000
0000
0001
0000
0010
0001
1000
0000
,  // measure 56
0010
1000
0001
0000
0200
0000
2300
0000
,  // measure 57
3020
0000
0031
0000
0001
1000
0001
1000
,  // measure 58
0100
0010
0100
0010
0100
1000
0010
0001
,  // measure 59
0220
0000
0330
0000
1000
1000
0100
0100
,  // measure 60
0010
0010
0001
0000
0001
0010
0100
1000
,  // measure 61
2002
0000
0000
3003
0000
0000
0000
0000
0001
0000
0000
0000
0100
0000
0010
0000
,  // measure 62
1000
0000
0100
0000
1000
0000
0100
0010
,  // measure 63
0001
0000
1000
0000
0010
0000
1000
0001
,  // measure 64
0100
0000
0001
0000
0010
0001
1000
0001
,  // measure 65
0200
0000
0000
0000
0310
0000
1000
0100
,  // measure 66
0010
0000
0100
0000
1000
0000
0001
0100
,  // measure 67
0010
0000
0100
0000
0001
1000
0001
0000
,  // measure 68
1000
0100
0010
0001
0100
0000
0010
0100
,  // measure 69
0001
1000
0001
0000
0220
0000
0330
0000
,  // measure 70
0011
0000
1000
0000
,  // measure 71
1010
0000
0001
0000
,  // measure 72
0100
0000
0010
0000
0100
0010
0100
0000
,  // measure 73
0001
0010
0100
1000
,  // measure 74
1001
0000
0010
0000
1000
0010
0100
0001
,  // measure 75
0020
0000
0230
0000
1300
0100
0001
0100
,  // measure 76
1000
0010
0100
0010
1000
0001
0010
0001
,  // measure 77
1000
0001
0010
0100
1000
0001
1000
0001
,  // measure 78
0100
1001
0010
1001
,  // measure 79
0110
1001
0000
0100
,  // measure 80
0110
0000
0000
0000
;

//---------------dance-single - ----------------
#NOTES:
     dance-single:
     :
     Hard:
     15:
     0.738063,0.892761,0.413315,0.710902,0.326519,625.000000,575.000000,50.000000,86.000000,0.000000,0.000000,0.738063,0.892761,0.413315,0.710902,0.326519,625.000000,575.000000,50.000000,86.000000,0.000000,0.000000:
// measure 0
0000
0000
0000
0000
,  // measure 1
0000
0000
0000
0000
,  // measure 2
0001
1000
0010
0001
,  // measure 3
0220
0330
0000
0000
,  // measure 4
0000
0000
0000
0000
0000
0000
0000
0000
1001
0000
0000
0000
0010
0000
0000
1000
,  // measure 5
0001
0000
0010
0000
0100
0000
0010
0000
0001
0000
0000
0000
1000
0000
0000
0010
,  // measure 6
0100
0000
0010
0000
1000
0000
0001
0000
0010
0000
0100
1000
0100
0000
0010
0000
,  // measure 7
0100
0000
1000
0001
1000
0000
0010
0000
0100
0000
0001
0000
0010
0000
1000
0000
,  // measure 8
0010
0000
0001
0100
0010
0000
0000
0000
0010
0000
1000
0000
0010
0000
1000
0000
,  // measure 9
0001
0010
0001
0010
0100
1000
0100
1000
,  // measure 10
0010
0000
0100
0000
0001
0000
0010
0001
0010
0000
0001
0000
0010
0000
0001
0000
,  // measure 11
1000
0010
1000
0010
0100
0001
0100
0001
,  // measure 12
1000
0000
0010
0100
0010
0000
0000
0000
1000
0000
0100
0000
0001
0000
0100
0000
,  // measure 13
1000
0000
0100
0000
0001
0000
0100
1000
0001
0000
0100
0000
1000
0000
0100
0000
,  // measure 14
0001
0000
0100
0000
1000
0000
0100
0010
1000
0000
0001
0000
0010
0000
0100
1000
,  // measure 15
0001
1000
0001
1000
0010
0000
0110
0000
,  // measure 16
2002
3003
0011
1001
,  // measure 17
1010
0000
1000
0100
1100
0000
0101
0000
,  // measure 18
1100
0000
0010
0001
1001
0000
1010
0000
,  // measure 19
1001
0000
0010
0001
1001
0000
0101
0000
,  // measure 20
2002
0000
3003
0000
0100
0010
0100
0001
,  // measure 21
0010
0000
0100
0000
1000
0000
0010
1000
0010
0000
0100
0000
0001
0000
1000
0000
,  // measure 22
0100
0000
0010
0000
0001
0000
1000
0100
1000
0000
0010
0000
1000
0000
0010
0000
,  // measure 23
1000
0100
0001
1000
0010
0001
1000
0001
,  // measure 24
2002
0000
0000
0000
3003
0000
0000
0000
0010
0000
0100
0010
0100
0000
0010
0000
,  // measure 25
0100
0000
0010
0100
0010
0000
0100
0000
0001
0000
0010
0001
0010
0000
0001
0000
,  // measure 26
0010
0000
0001
0010
0001
0000
0010
0000
0001
0000
1000
0100
1000
0000
0001
0000
,  // measure 27
0010
0001
0010
0000
0100
0000
1000
0000
0010
0000
0100
0010
0100
0000
0010
0000
,  // measure 28
0220
0000
0000
0000
0330
0000
0000
0000
1000
0000
0100
1000
0100
0000
1000
0000
,  // measure 29
0001
0010
0001
0000
1000
0000
0010
0000
1000
0000
0100
1000
0100
0000
1000
0000
,  // measure 30
0001
0100
0001
0000
0010
0000
0001
0000
1000
0000
0001
0010
0001
0000
1000
0000
,  // measure 31
0010
0100
0010
0000
1000
0000
0100
0000
0010
0000
0100
0000
1000
0000
0100
0000
,  // measure 32
0010
0000
0000
0010
0001
0000
0100
0000
0202
0000
0303
0000
2200
0000
3300
0000
,  // measure 33
0010
0000
0000
0000
0110
0000
0000
0000
1000
0000
0100
0000
1000
0001
0000
1000
,  // measure 34
0001
0000
1000
0000
0010
0100
0000
0010
0100
0000
0001
0000
0010
0001
0000
0010
,  // measure 35
0001
0000
1000
0000
0100
1000
0000
0100
1000
0000
0010
0000
1000
0001
0000
0010
,  // measure 36
0001
0000
0100
0000
0010
1000
0000
0001
0010
0000
0001
0000
1000
0010
0000
1000
,  // measure 37
0001
0100
1000
0100
0001
0000
1010
0000
,  // measure 38
0001
0010
0100
1000
0010
0000
1100
0000
,  // measure 39
1000
0000
0010
0000
0001
0000
0010
0000
1000
0000
0001
0000
0010
0001
0000
1000
,  // measure 40
0100
1000
0010
0100
0001
0010
0010
0010
,  // measure 41
0001
1000
1001
0000
0200
0010
0302
0010
,  // measure 42
0203
2300
3200
0302
0203
1000
0302
0010
,  // measure 43
2003
3020
0032
0023
2030
0001
3020
0100
,  // measure 44
2030
3200
0302
0203
1300
0001
0010
0011
,  // measure 45
0000
1000
0010
0100
0002
0010
0203
1000
,  // measure 46
0302
0023
2030
3020
0032
0100
0023
1000
,  // measure 47
0030
1000
0100
0001
0200
2300
3020
0230
,  // measure 48
0301
0000
1000
0010
1000
0000
0001
0000
0220
0000
0000
0000
0000
0000
0000
0000
,  // measure 49
0330
0000
0000
0000
0101
0000
0000
0010
,  // measure 50
0011
0000
0000
1000
0000
0000
0110
0000
0001
0000
0000
1001
0000
0000
0010
0000
,  // measure 51
0001
1000
0010
0000
2000
3200
0320
0031
,  // measure 52
0002
0000
0003
0000
0002
0023
0230
1300
,  // measure 53
2000
0000
3000
0000
0110
0000
1000
0010
,  // measure 54
1000
0000
0001
0010
0001
0000
0000
0000
0100
0000
0000
0110
0000
0000
0001
0000
,  // measure 55
1000
0000
0100
0010
0100
0000
0000
0000
2000
0000
3200
0000
0320
0000
0230
0000
,  // measure 56
2300
3001
1000
0001
0020
0230
0320
0032
,  // measure 57
0023
0130
0110
0000
1002
0100
0100
0103
,  // measure 58
2010
0001
0001
3001
0021
0001
0100
0130
,  // measure 59
2100
0000
0100
0000
0001
0000
3001
0000
0100
0010
1000
0000
0001
0010
0100
0000
,  // measure 60
1000
0001
0100
0010
1000
0100
0010
0000
0001
0100
0010
0000
0100
0001
0010
0100
,  // measure 61
2002
0000
0000
0000
3003
0000
0000
0000
0010
0000
1000
0000
0001
0010
0000
0001
,  // measure 62
0100
0000
1000
0000
0100
0000
0001
0000
1000
0000
0100
0000
0010
0001
0000
1000
,  // measure 63
0001
0000
0010
0000
1000
0000
0010
0000
0001
0000
0100
0000
0010
0100
0000
0010
,  // measure 64
1000
0000
0100
0000
0010
0000
0100
0000
1000
0000
0010
0100
0010
0100
0010
0000
,  // measure 65
1000
0000
0001
1000
0002
0000
0000
0000
0013
0000
0100
0000
1000
0001
0000
1000
,  // measure 66
0010
0000
0001
0000
0010
0000
1000
0000
0001
0000
0010
0000
0100
1000
0000
0001
,  // measure 67
1000
0000
0100
0000
0001
0000
0100
0000
1000
0000
0010
0000
1000
0001
0000
0010
,  // measure 68
0001
0000
0100
0000
0010
0000
1000
0000
0001
0000
0010
0100
1000
0000
0001
0000
,  // measure 69
1000
0010
0100
0000
0001
0000
1000
0000
2002
0000
0000
0000
3003
0000
0000
0000
,  // measure 70
0110
0000
0000
0000
,  // measure 71
1001
0000
0000
0000
,  // measure 72
0010
0000
0100
0010
0100
0000
0001
0000
1000
0000
0100
0000
1000
0000
0001
0000
,  // measure 73
0010
0000
0001
1000
0001
0000
0100
0000
0010
0000
1000
0000
0100
0000
1000
0000
,  // measure 74
0002
0023
2030
3002
2003
3020
0032
0203
,  // measure 75
2300
3002
0023
0230
0302
1003
1001
0000
,  // measure 76
0100
0000
0010
0000
1000
0100
1000
0000
0010
0000
0100
0000
0001
0010
0001
0000
,  // measure 77
1000
0000
0010
0000
0100
0001
0100
0000
0001
0000
0010
0000
0100
1000
0100
0000
,  // measure 78
1100
0101
0011
1010
,  // measure 79
1001
0110
0000
1010
,  // measure 80
0011
0000
0000
0000
;
