#TITLE:V2;
#SUBTITLE:;
#ARTIST:TAKA;
#TITLETRANSLIT:;
#SUBTITLETRANSLIT:;
#ARTISTTRANSLIT:;
#GENRE:PROGRESSIVE;
#CREDIT:;
#BANNER:V2_banner.png;
#BACKGROUND:V2.png;
#LYRICSPATH:;
#CDTITLE:;
#MUSIC:V2.ogg;
#OFFSET:-0.790000;
#SAMPLESTART:2.390000;
#SAMPLELENGTH:12.000000;
#LASTBEATHINT:316.000000;
#SELECTABLE:YES;
#BPMS:0.000000=150.000000
;
#STOPS:
;
#BGCHANGES:;
#KEYSOUNDS:;
#ATTACKS:;

//---------------dance-single - ----------------
#NOTES:
     dance-single:
     :
     Easy:
     7:
     0.305368,0.350767,0.189502,0.128861,0.000000,282.000000,257.000000,25.000000,17.000000,0.000000,0.000000,0.305368,0.350767,0.189502,0.128861,0.000000,282.000000,257.000000,25.000000,17.000000,0.000000,0.000000:
0000
0000
0000
0000
,
0000
0000
0000
0000
,
0001
1000
0010
0100
,
0020
0000
0000
0030
,
1000
0100
0010
0001
,
0200
0000
0000
0300
,
0010
1000
0001
0100
,
0002
0000
0000
0003
,
0010
0001
1000
0100
,
1000
0010
0100
0001
,
0010
0001
1000
0001
,
1010
0000
0101
0000
,
0100
0010
1000
0001
,
1000
0001
0010
0100
,
1000
0010
0100
0010
,
1000
0010
0100
0001
,
0010
0001
1000
0001
,
1001
0000
0110
0010
,
1000
0010
0100
0001
,
0100
0001
1000
0100
,
0020
0000
0031
0000
,
0200
0000
1300
0000
,
1010
0000
0101
0000
,
0001
0010
0100
1000
,
2002
0000
0000
3003
,
0010
0010
0010
0010
,
0220
0000
0000
0330
,
0100
0100
0100
0100
,
2001
0000
3010
0000
,
0001
0001
0001
0001
,
0010
1000
0010
0001
,
0100
1000
0100
0001
,
0100
0010
0100
0001
,
2002
0000
0000
0000
0000
3003
0000
0000
,
0100
0010
0100
0001
,
1000
0010
0100
0010
,
1000
0001
0100
0010
,
1000
0010
0100
0001
,
0010
0001
0100
0010
,
2000
0000
0000
3000
,
0001
0000
0010
0000
,
0002
0000
0000
0003
,
0100
0000
0010
0000
,
2000
0000
0000
0000
0000
3000
0000
0000
,
0010
0000
0110
0000
,
0001
0001
0001
0001
,
1000
1000
1000
1000
,
0010
0010
0010
0010
,
0100
0100
0100
0100
,
0001
0100
1000
0100
,
0001
0100
1000
0100
,
0010
1000
0010
0001
,
0010
1000
0010
0001
,
0010
0010
0100
0100
,
0001
0001
1000
1000
,
0100
1000
0010
0001
,
0100
1000
0010
0001
,
0010
0010
0100
0100
,
0001
0001
1000
1000
,
1001
0000
0110
0000
,
1001
0000
0110
0000
,
0001
0100
0010
1000
,
0010
0100
0001
0010
,
2002
0000
0000
3003
,
0110
0001
0110
1000
,
0010
0100
0010
0100
,
1001
0010
1001
0100
,
0001
1000
0001
1000
,
1010
0100
0011
0100
,
0010
1000
0001
0010
,
0011
0100
1010
0100
,
0001
0000
0001
1000
0001
0000
0001
0000
,
1000
0000
1000
0001
1000
0000
1000
0000
,
0010
0000
0010
0100
0010
0000
0010
0000
,
0100
0000
0100
0001
0100
0000
0100
0000
,
0010
0000
0010
1000
0010
0000
0010
0000
,
1000
0000
1001
0000
0001
1000
0001
1000
,
0000
0010
0000
0000
0000
0000
0000
0000
;

//---------------dance-single - ----------------
#NOTES:
     dance-single:
     :
     Medium:
     12:
     0.518693,0.526151,0.151601,0.136441,0.000000,479.000000,459.000000,20.000000,18.000000,0.000000,0.000000,0.518693,0.526151,0.151601,0.136441,0.000000,479.000000,459.000000,20.000000,18.000000,0.000000,0.000000:
0000
0000
0000
0000
,
0000
0000
0000
0000
,
0010
0100
0010
0100
0010
0100
0001
1000
,
0200
0000
0000
0300
,
0010
0001
0010
0001
0010
0001
1000
0100
,
0020
0000
0000
0030
,
0001
0100
0001
0100
0010
1000
0010
1000
,
0200
0000
0000
0300
,
1000
0100
0001
0100
1000
0100
0001
0000
,
0010
0001
0100
0010
1000
0100
0010
0000
,
0001
0100
0010
1000
0100
0010
0001
0000
,
0100
0010
0100
0010
1000
0001
1000
0000
,
0001
0010
0100
1000
0001
0010
0100
0000
,
1000
0010
0100
0001
1000
0010
0100
0000
,
0001
1000
0100
0000
1000
0010
0100
0010
,
1000
0010
0100
0010
0100
0001
0010
0001
,
0010
0100
1000
0100
0010
0100
1000
0000
,
0001
0100
0020
0000
0130
0001
0010
0001
,
0100
0001
0010
0001
1000
0100
0010
0100
,
1000
0100
0010
0001
0100
0010
1000
0000
,
1002
0000
0013
0100
,
2100
0000
3010
0100
,
0001
1000
0100
0010
0001
0010
0100
0000
,
1000
0010
0100
0010
1000
0100
0001
0000
,
0022
0000
0000
0000
0000
0033
0000
0000
,
0001
0100
1000
0100
0001
0100
1000
0100
,
0020
0000
0000
0030
,
1000
0100
0001
0100
1000
0100
0001
0100
,
0020
0000
0000
0030
,
0001
0010
1000
0010
0001
0010
1000
0010
,
0001
0010
0001
0000
1000
0100
1000
0000
,
0010
0100
0010
0100
0010
0100
0010
0100
,
0001
1000
0001
1000
0001
1000
0001
1000
,
0200
0000
0000
0000
0000
0300
0000
0000
,
0010
0011
0001
0011
,
1000
1100
0100
1100
,
1000
0001
1000
0001
0100
0010
0100
0000
,
0001
0010
0100
0010
0001
1000
0100
0000
,
1000
0010
0100
0010
0001
0010
0100
1000
,
0200
0000
0000
0300
,
0001
0010
0100
1000
,
0010
0100
0010
0000
1000
0000
0001
0000
,
1000
0100
0001
0100
,
1000
0010
0100
0000
0010
0100
0001
0000
,
0010
0100
1000
0000
0001
0010
0100
0000
,
1000
0010
1000
0010
1000
0010
1000
0010
,
0100
0001
0100
0001
0100
0001
0100
0001
,
0010
0100
0010
0100
0010
0100
0010
0100
,
1000
0001
1000
0001
1000
0001
1000
0000
,
0010
1000
0001
1000
0010
1000
0001
1000
,
0100
0010
0100
0001
0100
0010
0100
0001
,
0100
1000
0100
1000
0001
0010
0001
0010
,
0001
1000
0001
1000
0010
0100
0010
0000
,
1020
0130
1002
0013
,
2100
3010
0210
0301
,
1001
0010
1001
0100
,
0110
0001
0110
1000
,
1000
0010
1000
0010
0100
0001
0100
0001
,
0010
0100
0010
0100
1000
0001
1000
0001
,
0010
0001
0010
0001
1000
0100
1000
0000
,
0010
0100
0010
0100
0001
1000
0001
0000
,
0100
0010
0100
0001
1000
0100
0010
0000
,
0001
0100
0010
1000
0100
0010
0001
0000
,
2002
0000
0000
0000
0000
3003
0000
0000
,
0110
0010
0100
0010
0100
0010
0100
0010
,
1000
0001
1000
0001
1000
0001
1000
0000
,
0011
0001
0010
0001
0010
0001
0010
0001
,
1000
0100
1000
0100
1000
0100
1000
0000
,
1001
0100
0001
0100
0001
0100
0001
0100
,
0010
1000
0010
1000
0010
1000
0010
0000
,
0100
0001
0010
1000
0010
0001
1000
0100
,
1000
0010
1000
0010
1000
0010
1000
0000
,
0001
0100
0001
0100
0001
0100
0001
0000
,
0100
0010
0001
0010
0100
0010
0100
0000
,
0010
1000
0100
1000
0010
0100
1000
0000
,
0100
0001
0010
0100
1000
0010
0100
0000
,
0001
0010
1000
0010
0001
0010
0100
1000
,
0000
1001
0000
0000
0000
0000
0000
0000
;

//---------------dance-single - ----------------
#NOTES:
     dance-single:
     :
     Hard:
     14:
     0.675709,0.613843,0.189502,0.174341,0.193292,624.000000,599.000000,25.000000,23.000000,0.000000,0.000000,0.675709,0.613843,0.189502,0.174341,0.193292,624.000000,599.000000,25.000000,23.000000,0.000000,0.000000:
0000
0000
0000
0000
,
2002
0000
0000
3003
,
0010
0100
0010
0100
0010
0100
0010
0100
,
0001
0000
1000
0001
1000
0000
0001
0000
1000
0000
0010
0000
0100
0000
0010
0000
,
1000
0100
1000
0001
1000
0100
1000
0001
,
0010
0000
0001
0100
0001
0000
0100
0000
0001
0000
0100
0000
0010
0000
0100
0000
,
0001
1000
0010
1000
0001
1000
0010
1000
,
0100
0000
1000
0100
1000
0000
0100
0000
1000
0000
0001
0000
0010
0000
0001
0000
,
1000
0010
0100
0001
1000
0100
0020
0000
,
0031
0000
0100
0000
0010
1000
0010
0000
0100
0000
0001
0000
0010
0100
0010
0000
,
0001
0000
1000
0000
0100
1000
0100
0000
1000
0000
0010
0000
0100
0001
0100
0000
,
0001
1000
0010
0100
0110
0000
1001
0000
,
0110
0000
1001
0000
1000
0100
0010
0001
,
1000
0000
0010
0000
1000
0010
1000
0000
0001
0000
0100
0000
0001
0010
0001
0000
,
0100
0010
1000
0001
0100
0010
1000
0010
,
0100
0001
0010
0001
0100
0001
1000
0100
,
0010
0001
1000
0010
1000
0001
0010
1000
,
0010
0000
0011
0001
1000
0010
0100
0010
,
1000
0010
0100
0010
0100
0001
1000
0010
,
1000
0000
0001
0000
1000
0001
1000
0000
0010
0000
0100
0000
0110
0000
0000
0000
,
1002
0000
0013
0000
0012
0000
1003
0010
,
2010
0000
3001
0000
2100
0000
3010
0100
,
0001
0011
0000
1100
0000
1010
0000
0101
,
0001
0000
1000
0000
0001
0000
1000
0000
0010
0100
0010
0100
0010
0000
0100
0000
,
0020
1000
0100
1030
,
0001
1000
0001
0000
1000
0010
1000
0000
0010
0100
0010
0000
0100
0001
0100
0000
,
0002
1000
0100
1003
,
1000
0010
1000
0000
0010
0100
0010
0000
0100
0001
0100
0000
0001
0010
0001
0000
,
0020
0001
0100
0031
,
0100
0010
0100
0000
0001
0010
0001
0000
1000
0100
1000
0000
0010
0100
0010
0000
,
1000
0100
1000
0010
0100
0001
0010
0001
,
1000
0000
0010
0100
0010
0000
1000
0000
0001
0000
0010
0100
0010
0000
0001
0000
,
1000
0000
0001
0000
1000
0000
0001
0000
0100
0010
0100
0010
0100
0000
0001
0000
,
2000
0000
0010
0000
3001
0010
0100
0000
,
0011
0000
0001
1000
0010
0100
0010
1000
,
0001
0010
0100
0010
0001
1000
0100
0001
,
0100
1000
0010
0001
1000
0100
0001
0010
,
0001
0001
1000
1000
0010
0010
0100
0100
,
0010
0010
1000
1000
0100
0100
0010
0010
,
0001
0010
0000
1010
0000
0101
0000
1001
,
2000
3020
0230
0302
,
1003
0100
0001
0100
1000
0010
0200
0000
,
0302
0023
0230
2300
,
3010
0100
1000
0100
0001
0010
0200
0000
,
0320
0000
0032
0000
1003
0010
0110
0000
,
1000
0000
0010
0000
1000
0010
1000
0000
0010
0000
1000
0000
0010
0000
0000
0000
,
0100
0000
0001
0000
0100
0001
0100
0000
0001
0000
0100
0000
0001
0000
0000
0000
,
1000
0000
0001
0000
1000
0001
1000
0000
0001
0000
1000
0000
0001
0000
0000
0000
,
0100
0000
0010
0000
0100
0010
0100
0000
0010
0000
0100
0000
0010
0000
0100
0000
,
0001
0010
1000
0010
0001
0100
1000
0100
,
0010
1000
0100
0001
0100
1000
0010
0001
,
0010
1000
0001
0100
0001
0010
0100
1000
,
0010
0100
0010
0100
0001
1000
1001
0000
,
0010
0000
0100
0000
0010
0100
0010
0000
0100
0000
0010
0000
0100
0010
0100
0000
,
0001
0000
1000
0000
0001
1000
0001
0000
1000
0000
0001
0000
1000
0001
1000
0000
,
0001
0000
0010
0000
0001
1000
0001
0000
1000
0000
0010
0000
1000
0001
1000
0000
,
0001
0000
0100
0000
0001
0100
0001
0000
1000
0000
0100
0000
1000
0100
1000
0000
,
0010
0000
0100
0000
0001
1000
0001
0000
0100
0000
0010
0000
1000
0001
1000
0000
,
0001
1000
0100
0010
0100
1000
0001
0010
,
0001
0100
0001
0100
0010
1000
0010
1000
,
0100
0010
0100
0010
0001
1000
0001
1000
,
0010
0100
0010
0100
0001
0010
0001
0010
,
0100
1000
0100
1000
0010
1000
0001
0100
,
0010
0000
0100
0010
0100
0000
0010
0000
1000
0000
0001
0000
1000
0000
0000
0000
,
1001
0001
1000
0001
1000
0001
1000
0010
,
0100
0000
0010
0100
0010
0000
1000
0000
0001
0000
0010
0000
0100
0000
0010
0000
,
0001
1000
0100
1000
0001
1000
0100
0010
,
0001
0000
1000
0010
1000
0000
0010
0000
0100
0000
0010
0000
0100
0000
0001
0000
,
1000
0010
0100
0010
1000
0001
0010
0001
,
1000
0000
0100
1000
0100
0000
1000
0000
0010
0000
0100
0000
0110
0000
0000
0000
,
0001
0100
1000
0100
0001
0100
1000
0100
,
0010
0000
1000
0010
1000
0000
0010
0000
0100
0000
0001
0000
0100
0000
0010
0000
,
1000
0000
0100
1000
0100
0000
1000
0000
0001
0000
0010
0000
0100
0000
1000
0000
,
0010
0000
0100
0001
0100
0000
0001
0000
0010
0000
0001
0000
1000
0000
0100
0000
,
0010
0000
0001
1000
0001
0000
1000
0000
0010
0000
0100
0000
0010
0000
1000
0000
,
0001
0000
0100
0010
0100
0000
0010
0000
0100
0000
0001
0000
1000
0000
0100
0000
,
0010
0100
1000
0001
0010
0100
1000
1001
,
0000
0110
0000
0000
0000
0000
0000
0000
;

//---------------dance-single - ----------------
#NOTES:
     dance-single:
     :
     Challenge:
     16:
     0.833807,0.789227,0.325943,0.204662,0.613985,770.000000,727.000000,43.000000,27.000000,0.000000,0.000000,0.833807,0.789227,0.325943,0.204662,0.613985,770.000000,727.000000,43.000000,27.000000,0.000000,0.000000:
// measure 0
0000
0000
0000
0000
,  // measure 1
0001
0000
0100
0010
0100
0000
0010
0000
1000
0000
0001
0000
0010
0000
0100
0000
,  // measure 2
1000
0010
1000
0001
1000
0010
1000
0001
,  // measure 3
0100
0000
0010
0100
0010
0100
0010
0100
0010
0000
0100
0000
0100
0000
0100
0000
,  // measure 4
0001
0010
0001
1000
0001
0010
0001
1000
,  // measure 5
0010
0000
0100
0010
0100
0010
0100
0010
0100
0000
0010
0000
0010
0000
0010
0000
,  // measure 6
1000
0001
0100
0010
1000
0001
0100
0010
,  // measure 7
1000
0000
0001
1000
0001
1000
0001
1000
0001
0000
0100
0000
0010
0000
0100
0000
,  // measure 8
0001
0000
1000
0000
0100
0000
0010
0000
0001
1000
0000
0010
0100
0000
0001
0000
,  // measure 9
0010
0000
0001
0000
1000
0100
1000
0100
1000
0000
0010
0000
0100
0001
0100
0001
,  // measure 10
0100
0000
0001
0000
0010
0001
0010
0000
0001
0000
1000
0000
0100
1000
0100
0000
,  // measure 11
1000
0000
0010
0000
0100
0010
0100
0000
0001
0010
0001
0000
1000
0100
1000
0000
,  // measure 12
0001
0100
0001
0000
1000
0010
1000
0000
0001
0010
0001
0000
1000
0100
1000
0000
,  // measure 13
0010
0000
0100
0000
0001
1000
0001
0000
0100
0000
0010
0000
1000
0001
1000
0000
,  // measure 14
0020
0000
0100
0000
0100
0000
0130
0000
0001
0000
0010
0000
0001
1000
0001
0000
,  // measure 15
1000
0000
0010
0000
1000
0001
1000
0000
0010
0100
0010
0000
1000
0100
1000
0000
,  // measure 16
0001
0000
0010
0000
0100
0010
0100
0000
1000
0000
0010
0000
0100
0010
0100
0000
,  // measure 17
0001
0000
1000
0000
0001
0000
1000
0000
0010
0000
0100
0000
0010
0100
0010
0000
,  // measure 18
1000
0000
0001
0000
1000
0100
1000
0000
0001
0000
0010
0000
0001
1000
0001
0000
,  // measure 19
0100
0000
0010
0000
1000
0100
1000
0000
0010
0000
0100
0000
0001
0010
0001
0000
,  // measure 20
2000
0010
3010
0000
0210
0000
0301
0010
,  // measure 21
0012
0000
1003
0100
0210
0000
1300
0001
,  // measure 22
0100
0000
0010
0000
1000
0010
0100
0000
0001
0000
0010
0000
0001
0100
0010
0000
,  // measure 23
1000
0001
1000
0001
1000
0001
1000
0001
0100
0010
0100
0010
0100
0010
0100
0010
,  // measure 24
2000
0001
0010
3001
,  // measure 25
0001
0010
0001
0010
0001
0010
0001
0010
0100
1000
0100
1000
0100
1000
0100
1000
,  // measure 26
0002
0203
0320
1030
,  // measure 27
0010
0100
0010
0100
0010
0100
0010
0100
0001
1000
0001
1000
0001
1000
0001
1000
,  // measure 28
0002
0023
2030
3010
,  // measure 29
0001
0100
0001
0100
0001
0100
0001
0100
0010
1000
0010
1000
0010
1000
0010
1000
,  // measure 30
0010
0100
0001
0100
0010
1000
0010
0001
,  // measure 31
0010
1000
0010
1000
0010
1000
0010
1000
0001
0100
0001
0100
0001
0100
0001
0100
,  // measure 32
0001
1000
0100
0010
0001
0100
0010
1000
,  // measure 33
0200
0000
1000
0000
0010
0301
0010
0000
,  // measure 34
1000
0010
0110
0100
0001
0010
0011
0000
,  // measure 35
0001
0100
0110
0010
1000
0100
1100
0000
,  // measure 36
0010
0100
0110
0010
1000
0001
1001
0000
,  // measure 37
0011
0010
0110
0100
1100
1000
1001
0000
,  // measure 38
1010
0010
0110
0100
0101
0001
0011
0000
,  // measure 39
1002
1000
0000
0010
0000
0100
0000
1003
,  // measure 40
2000
0010
3001
0110
,  // measure 41
1000
0010
0001
0010
1000
0100
0001
0000
,  // measure 42
0012
0103
0120
1030
,  // measure 43
1000
0100
0001
0100
1000
0010
0001
0000
,  // measure 44
0210
0000
0301
0000
1001
0110
1001
0000
,  // measure 45
0001
0010
0001
0010
0001
0010
0001
0010
0001
0000
0001
0000
0001
0000
0001
0000
,  // measure 46
1000
0100
1000
0100
1000
0100
1000
0100
1000
0000
1000
0000
1000
0000
1000
0000
,  // measure 47
0010
0100
0010
0100
0010
0100
0010
0100
0010
0000
0010
0000
0010
0000
0010
0000
,  // measure 48
0100
0001
0100
0001
0100
0001
0100
0001
0100
0000
0100
0000
0100
0000
0100
0000
,  // measure 49
0001
0010
0001
0010
0001
0000
1000
0000
0100
0000
0010
0000
0001
0000
0100
0000
,  // measure 50
0010
1000
0010
1000
0010
0000
0100
0000
0001
0000
0010
0000
0100
0000
1000
0000
,  // measure 51
0001
0100
0001
0100
0001
0000
1000
0000
0010
0000
0100
0000
0001
0000
0010
0000
,  // measure 52
0100
1000
0100
1000
0100
0000
1000
0000
0010
0000
0100
0000
1001
0000
0000
0000
,  // measure 53
0010
0100
0010
0100
0010
0100
0010
0100
0020
0000
1000
0000
1030
0000
1000
0000
,  // measure 54
0001
0100
0001
0100
0001
0100
0001
0100
0002
0000
0010
0000
0013
0000
0010
0000
,  // measure 55
0100
1000
0100
1000
0100
1000
0100
1000
0200
0000
0010
0000
0310
0000
0010
0000
,  // measure 56
0001
1000
0001
1000
0001
1000
0001
1000
0002
0000
0100
0000
0103
0000
0100
0000
,  // measure 57
0010
1000
0010
1000
0010
1000
0010
1000
0020
0000
0100
0000
0130
0000
0100
0000
,  // measure 58
0001
1000
0001
1000
0001
1000
0001
1000
0002
0000
0010
0000
0013
0000
0010
0000
,  // measure 59
0001
0000
1000
0000
0100
1000
0100
0000
1000
0000
0010
0000
0100
0000
0001
0000
,  // measure 60
0010
0000
0001
0000
0010
0100
0010
0000
0001
0000
1000
0000
0100
0000
0010
0000
,  // measure 61
0001
0000
0100
0000
0010
1000
0010
0000
1000
0000
0010
0000
0100
0000
0010
0000
,  // measure 62
1000
0100
1100
1000
0010
0100
0110
0010
,  // measure 63
2000
0001
0001
0001
0001
0001
3001
0000
,  // measure 64
0110
0001
0110
1000
0110
0001
0110
1000
,  // measure 65
0001
0000
1000
0001
1000
0001
1000
0001
1000
0000
0010
0000
0100
0000
0010
0000
,  // measure 66
1001
0010
1001
0100
1001
0010
1001
0100
,  // measure 67
0010
0000
0100
0010
0100
0010
0100
0010
0100
0000
0001
0000
1000
0000
0001
0000
,  // measure 68
1100
0001
1100
0001
0101
1000
0101
1000
,  // measure 69
0010
0000
0100
0010
0100
0010
0100
0010
0200
0000
0010
0000
0310
0000
0010
0000
,  // measure 70
1000
0010
0100
0010
1000
0010
0100
0010
1000
0000
0001
0000
0020
0000
0000
0000
,  // measure 71
0031
0000
0100
0001
1000
0001
0100
0001
1000
0000
0010
0000
0010
0000
0010
0000
,  // measure 72
0100
0000
0001
0010
0001
1000
0001
0010
0001
0000
0100
0000
0100
0000
0100
0000
,  // measure 73
0010
0000
1000
0001
1000
0010
1000
0001
1000
0000
0010
0000
0110
0000
0100
0000
,  // measure 74
0001
0000
1000
0010
0100
0001
1000
0010
0100
0000
0001
0000
0001
0000
0001
0000
,  // measure 75
1000
0000
0010
0100
0001
1000
0010
0100
0001
0000
1000
0000
1000
0000
1000
0000
,  // measure 76
0001
0000
0010
0100
1000
0001
0010
0100
1000
0000
0001
0000
1001
0000
1000
0000
,  // measure 77
0000
0110
0000
0000
0000
0000
0000
0000
;
