#TITLE:Underground Astronomy;
#SUBTITLE:;
#ARTIST:D.watt (IOSYS);
#TITLETRANSLIT:;
#SUBTITLETRANSLIT:;
#ARTISTTRANSLIT:;
#GENRE:;
#CREDIT:;
#BANNER:Underground_Astronomy_banner.png;
#BACKGROUND:Underground_Astronomy.png;
#LYRICSPATH:;
#CDTITLE:;
#MUSIC:Underground Astronomy.ogg;
#OFFSET:-0.560000;
#SAMPLESTART:56.299999;
#SAMPLELENGTH:12.370000;
#LASTBEATHINT:296.500000;
#SELECTABLE:YES;
#BPMS:0.000000=155.000000
;
#STOPS:
;
#BGCHANGES:;
#KEYSOUNDS:;
#ATTACKS:;

//---------------dance-single - ----------------
#NOTES:
     dance-single:
     :
     Easy:
     6:
     0.233769,0.279936,0.059045,0.160265,0.000000,194.000000,187.000000,7.000000,19.000000,0.000000,0.000000,0.233769,0.279936,0.059045,0.160265,0.000000,194.000000,187.000000,7.000000,19.000000,0.000000,0.000000:
0000
0000
0000
0000
,
0000
0000
0000
0000
,
0000
0000
0000
0000
,
0000
0000
0000
0000
,
0001
0000
0010
0100
,
1000
0000
0010
0100
,
0001
0000
1000
0000
,
0100
0000
0010
0001
,
1000
0010
1000
0100
,
1000
0001
0100
0000
,
0001
0010
0001
1000
,
0010
0100
0001
0000
,
1000
0100
1000
0100
,
0010
0100
1000
0000
,
0001
0100
0001
1000
,
0220
0000
0000
0330
0000
0000
0000
0000
,
1000
0000
0100
1000
,
0001
0000
0010
0001
,
0100
0000
0001
1000
,
0010
0000
0100
0100
,
0001
0000
0010
0100
,
1000
0000
0010
1000
,
0001
0000
1000
0100
,
0020
0000
0030
0000
,
0100
0000
0100
1000
,
0001
0000
0100
0001
,
0010
0000
0001
0010
,
0100
0000
1000
1000
,
1000
0000
0001
0000
,
0100
0010
0100
0000
,
0001
0010
0100
1000
,
0220
0000
0330
0000
,
0002
0000
0103
0000
,
0020
0000
1030
0000
,
2000
0000
3100
0000
,
0020
0000
0031
0000
,
0001
0000
1000
0100
,
1000
0000
0001
0010
,
0001
0000
1000
0010
,
1000
0000
0001
0001
,
0002
0000
0013
0000
,
0200
0000
1300
0000
,
2000
0000
3010
0000
,
0200
0000
0301
0000
,
0001
0000
0010
0100
,
1000
0000
0010
1000
,
0001
0000
0100
0010
,
2002
0000
3003
0000
,
0100
0000
0000
0000
,
0000
0000
0000
0000
,
0001
0000
0010
0000
,
0100
1000
0100
0000
,
1000
0000
0010
0000
,
0100
0001
0100
0000
,
0020
0000
1030
0100
,
1000
0000
0100
0010
,
0002
0000
1003
0000
,
1000
0010
0100
0001
,
0010
0000
0001
0010
,
0100
0000
0010
0100
,
1000
0000
0010
1000
,
0100
0000
0010
0001
,
0100
0000
0010
1000
,
0001
0000
0100
0001
,
1000
0100
0010
0001
,
2002
0000
3003
0000
,
0100
0000
0110
0000
,
0010
0100
0001
0000
,
0010
0000
0100
1000
,
0001
0000
1000
0010
,
0100
0000
0110
0000
,
0001
1000
0100
0000
,
1000
0000
0010
0100
,
0001
0000
1000
1001
;

//---------------dance-single - ----------------
#NOTES:
     dance-single:
     :
     Medium:
     12:
     0.448259,0.467350,0.253049,0.151830,0.050610,372.000000,342.000000,30.000000,18.000000,0.000000,0.000000,0.448259,0.467350,0.253049,0.151830,0.050610,372.000000,342.000000,30.000000,18.000000,0.000000,0.000000:
0000
0000
0000
0000
,
0000
0000
0000
0000
,
0000
0000
0000
0000
,
0000
0000
0000
0000
,
0001
0010
0100
0000
1000
0000
0100
1000
,
0010
0100
0010
0000
1000
0000
0001
0100
,
0010
0000
0100
0010
1000
0000
0100
1000
,
0001
0000
1000
0100
0010
0000
0110
0000
,
0002
0000
0103
0010
0100
0001
0000
0010
,
0001
1000
0001
0100
0000
0010
0010
0000
,
1000
0100
1000
0010
1000
0100
0000
0010
,
0001
0100
0001
0010
0100
0000
1100
0000
,
1000
1010
0001
0011
,
0100
0110
2002
3003
,
0010
0001
1000
0100
1000
0001
0010
0100
,
2000
0000
0000
3000
,
0010
0000
0000
0000
0100
0000
0010
0000
1000
0000
0000
0000
0100
0000
0000
1000
,
0000
0001
0000
0100
0010
0000
1000
0000
,
0010
0000
0000
0000
1000
0000
0100
0000
0010
0000
0000
0000
0001
0000
0000
1000
,
0000
0001
0010
0000
0101
0000
1010
0000
,
0100
0000
0000
0000
0001
0000
0010
0000
0100
0000
0000
0000
1000
0000
0000
0010
,
0000
0000
1000
0000
0100
1000
0001
0000
,
0100
0000
0010
0100
0001
0000
1000
0001
,
0010
0000
0001
1000
0100
0000
1010
0000
,
0100
0000
0000
0000
0001
0000
1000
0000
0100
0000
0000
0000
1000
0000
0000
0100
,
0000
0010
0000
0001
1000
0000
0001
0000
,
0100
0000
0000
0000
0001
0000
0010
0000
0100
0000
0000
0000
0010
0000
0000
0001
,
0000
1000
0010
0000
0101
0000
1100
0000
,
0020
0000
0000
0000
1030
0000
0000
0000
0001
0000
0000
0000
0100
0000
0000
0010
,
0000
1000
0000
0100
1000
0000
0001
0000
,
0010
0000
0001
1000
0100
0000
1000
0001
,
0100
0000
0010
1000
0001
0010
0100
0000
,
2100
0000
3001
0012
,
0000
1003
0110
0000
,
0102
0000
0013
2001
,
0000
0000
3010
0000
0100
0010
0100
0000
,
0001
0000
0010
0001
1000
0000
0010
0100
,
0001
0000
1000
0000
0100
1000
0010
0000
,
1000
0000
0001
0010
0100
0000
1000
0000
,
0010
0100
0001
0000
1000
0001
0010
0000
,
2001
0000
3010
0120
,
0000
0000
1030
0000
0100
0010
0001
0010
,
0200
0000
1300
1002
,
0000
0000
0103
0000
0010
1000
0100
1000
,
0001
0000
0010
0100
1000
0000
0010
0000
,
0100
0010
1000
0000
0001
1000
0100
0000
,
0020
0000
0031
1000
0001
0000
0100
0000
,
0010
0000
0100
0000
0001
0000
0000
0000
1000
0000
0000
0000
1010
0000
0000
0002
,
0000
0000
0000
0000
0000
0000
0000
0000
0000
0000
0000
0000
0000
0000
0000
0003
,
0000
0000
0000
0000
,
0000
0000
0000
0000
1000
0000
0100
0000
0010
0000
0000
0000
0001
0000
0000
1001
,
0000
0100
0010
0000
1000
0010
0100
0010
,
1000
0000
0100
0000
0010
0001
1000
0000
,
0010
1000
0001
1000
0100
1000
0010
0000
,
0110
0000
0000
0000
0001
0000
0010
0000
0001
0000
0000
0000
1000
0000
0000
0010
,
0000
0100
0010
0000
1000
0100
0010
0000
,
0001
1000
0010
0000
1000
0001
0100
0000
,
0001
0010
0100
1000
0001
0000
1001
0000
,
0100
0000
0010
1000
0100
0000
0010
0001
,
1000
0000
0010
1000
0100
0010
0100
0000
,
1000
0000
0001
0100
0010
0100
0001
0000
,
0010
0000
0001
0000
1000
0000
0001
0000
0010
0000
0000
0000
0100
0000
0000
1100
,
0000
0000
0010
0000
1000
0100
0010
0000
,
0001
0000
0100
0000
0010
0000
0000
0000
0100
0000
0010
0000
1000
0000
0000
0001
,
0000
0000
1000
0000
0001
0010
0100
0000
,
0010
0000
0100
0000
1000
0000
0100
0000
0020
0000
0000
0000
0031
0000
0000
1001
,
0000
0100
0110
0000
,
1000
0100
1100
0000
,
0001
0100
0101
0000
,
0010
0100
0110
0000
,
0022
0000
0033
0000
1000
0010
0100
0000
,
0010
0000
1000
0100
0010
0000
0000
0000
,
0001
0000
0100
0010
0100
0000
0001
0000
,
0010
0001
0100
0000
0001
0010
1000
0010
;

//---------------dance-single - ----------------
#NOTES:
     dance-single:
     :
     Hard:
     14:
     0.657928,0.686027,0.202439,0.227744,0.307877,546.000000,522.000000,24.000000,27.000000,0.000000,0.000000,0.657928,0.686027,0.202439,0.227744,0.307877,546.000000,522.000000,24.000000,27.000000,0.000000,0.000000:
// measure 0
0000
0000
0000
0000
,  // measure 1
0000
0000
0000
0000
,  // measure 2
0000
0000
0000
0000
,  // measure 3
0000
0000
0000
0000
,  // measure 4
0001
0000
1000
0000
0100
0000
1000
0010
0000
0000
0100
0000
0010
0000
1000
0100
,  // measure 5
0000
1000
0010
0000
0000
0000
0100
0010
1000
0000
0001
0000
0010
0000
0001
0000
,  // measure 6
0100
0000
0100
0000
0000
0000
0001
0010
0001
0000
1000
0000
0010
0000
0000
0000
,  // measure 7
0100
0000
0010
0000
1000
0000
0100
0010
0000
0001
1000
0000
1001
0000
0000
0000
,  // measure 8
0010
1000
0010
0100
0010
1000
0100
0010
,  // measure 9
0100
1000
0100
0001
0200
1000
1300
0000
,  // measure 10
0001
0010
0100
0010
0001
1000
0010
0100
,  // measure 11
0010
1000
0001
0010
0022
0033
2020
3030
,  // measure 12
0100
0001
1000
0010
1000
0100
0010
0001
,  // measure 13
1000
0010
0001
1000
0001
0010
1000
0001
,  // measure 14
0010
0001
1000
0100
1000
0010
0001
0010
,  // measure 15
0220
0000
0000
0330
,  // measure 16
1000
0000
0001
1000
0000
0000
0010
0000
0100
0000
0001
0000
0100
0000
1000
0100
,  // measure 17
0000
0000
0010
0000
1000
0000
0100
0000
0010
0000
0001
0000
0100
0000
0010
0100
,  // measure 18
0000
0000
0001
0000
0010
0000
0100
0000
1000
0000
0010
0000
1000
0000
0100
0001
,  // measure 19
0000
0000
0100
0000
1000
0000
0001
0100
0010
0000
1000
0000
1010
0000
0000
0001
,  // measure 20
0000
0000
0010
0000
0001
0000
0100
0000
0010
0000
1000
0000
0100
0000
0000
1001
,  // measure 21
0000
0000
0100
0000
0010
0000
1000
0100
0010
0000
0100
0000
1000
0000
0010
0100
,  // measure 22
0000
0000
0001
0000
0010
0000
0001
1000
0000
0000
0010
0000
1000
0000
0100
0010
,  // measure 23
0000
0000
0001
0000
1000
0000
0001
0010
0100
0000
1000
0000
0001
0000
0200
0000
,  // measure 24
0300
0000
0001
0000
0010
0000
1000
0000
0001
0000
0100
0000
1000
0000
0000
1010
,  // measure 25
0000
0000
0100
0000
0001
0000
1000
0100
0010
0000
0001
0000
0100
0000
0001
0010
,  // measure 26
0000
0000
0001
0000
0100
0000
1000
0000
0001
0000
0010
0000
1000
0000
0000
1100
,  // measure 27
0000
0000
0010
0000
0001
0000
0100
0000
0202
0000
0303
0000
2200
0000
3300
0010
,  // measure 28
0000
0000
0100
0000
0001
0000
1000
0000
0010
0000
1000
0000
0100
0000
0010
0001
,  // measure 29
0000
1000
0010
0000
0100
0000
0001
0000
1000
0000
0100
0000
1000
0000
0001
0010
,  // measure 30
0000
0000
0001
0000
1000
0000
0100
1000
0000
0000
0001
0000
0100
0000
0001
1000
,  // measure 31
0000
0100
1000
0010
0001
1000
0001
0000
,  // measure 32
0210
0000
0301
0010
1000
0001
0200
0000
,  // measure 33
1300
0010
0001
1000
0001
0010
0100
0000
,  // measure 34
1010
0000
0001
1000
0010
0001
1000
0100
,  // measure 35
0001
0010
1000
0001
0100
1000
1001
0000
,  // measure 36
0010
0000
0100
0000
0001
0000
1000
0100
0000
0000
1000
0000
0010
0000
0100
0010
,  // measure 37
0000
1000
0001
0000
0000
0000
0010
0001
1000
0000
0010
0000
1000
0000
0001
0100
,  // measure 38
0000
0000
0010
0000
1000
0100
0000
0010
0000
0000
0001
0000
0100
0000
0000
0010
,  // measure 39
0000
0000
0100
0000
0001
0000
1000
0001
0010
0000
0100
0000
0110
0000
0000
0000
,  // measure 40
2100
0000
3001
0010
1000
0001
0200
0000
,  // measure 41
1300
0010
0001
1000
0100
0001
0200
0000
,  // measure 42
0301
1000
0010
0001
1000
0100
0001
0010
,  // measure 43
1000
0010
0001
1000
0010
0100
0110
0000
,  // measure 44
0001
0000
1000
0000
0001
0000
0010
0100
0000
0000
1000
0000
0010
0000
0100
0010
,  // measure 45
0000
0100
0001
0000
0000
0000
1000
0100
1000
0000
0010
0000
1000
0000
0100
0000
,  // measure 46
0010
0000
0100
0000
1000
0000
0010
0100
0001
0000
0010
0000
0001
0000
0000
0000
,  // measure 47
1000
0001
1000
0000
0010
0100
0010
0000
1000
0000
0000
0000
0001
0000
0000
0220
,  // measure 48
0000
0000
0000
0330
,  // measure 49
0000
0000
0000
0000
0000
0000
0000
0000
0000
0000
0000
0000
0000
0000
0000
0001
,  // measure 50
0000
0000
0010
0000
0001
0000
1000
0000
0010
0000
0100
0000
0010
0000
0001
0010
,  // measure 51
0000
0000
1000
0000
0100
0000
0010
0100
0000
0000
1000
0000
0010
0000
0100
0001
,  // measure 52
0000
0010
0001
0100
1000
0001
0010
1000
,  // measure 53
0100
0000
0001
0000
1000
0000
0010
0000
0001
1000
0100
0000
1000
0000
0010
0200
,  // measure 54
0000
0000
0310
0000
1000
0000
0100
0000
0010
0000
0001
0000
0100
0000
0001
0010
,  // measure 55
0000
0100
1000
0000
0010
0000
1000
0100
1000
0000
0001
0000
0010
0000
0001
0100
,  // measure 56
0000
0000
0001
0010
0001
0000
1000
0010
0100
0000
0001
0010
0100
0000
1000
0000
,  // measure 57
0010
0000
0100
0000
0010
0000
0100
0000
0001
0000
0010
0100
1000
0000
0000
1001
,  // measure 58
0000
0000
0010
0000
0100
0000
0001
0000
0010
0000
0001
0000
1000
0000
0010
0100
,  // measure 59
0000
0000
0010
0000
1000
0000
0100
0010
0001
0000
1000
0000
0100
0000
0001
0200
,  // measure 60
0000
1300
0010
0010
1000
1000
0001
0001
,  // measure 61
0100
0000
0100
0000
0001
0000
0001
0000
0010
0100
0000
0000
1001
0000
0000
0110
,  // measure 62
0000
0000
1000
0000
0100
0000
1000
0000
0010
0000
1000
0000
0001
0000
0010
0100
,  // measure 63
0000
0000
1000
0000
1000
0000
0010
0000
0010
0000
0100
0000
0100
0000
0001
0010
,  // measure 64
0000
0000
0001
0000
1000
0000
0010
1000
0010
0000
0100
0000
0001
0000
0010
0001
,  // measure 65
1000
0000
0100
0000
1000
0000
0001
0100
0010
0000
0100
0000
0001
0000
0000
2020
,  // measure 66
0000
3030
0001
0100
1000
0200
0000
0301
,  // measure 67
1000
0100
0001
0100
1000
0000
0110
0000
,  // measure 68
1000
0010
1000
0100
0010
0100
2000
0000
,  // measure 69
3010
0100
0001
0100
0010
1000
1000
0000
,  // measure 70
0011
0000
0100
1000
0001
2000
0000
3010
,  // measure 71
0100
1000
0100
0001
0010
0000
0011
0000
,  // measure 72
1000
0001
0010
0001
1000
0010
0200
0000
,  // measure 73
0301
0000
1000
0000
0100
0000
1000
0000
0001
0000
0010
0000
0100
0000
0001
0100
;
