#TITLE:UROBOROS OVERDIVE;
#SUBTITLE:;
#ARTIST:L.E.D. feat. YURiCa/花たん;
#TITLETRANSLIT:;
#SUBTITLETRANSLIT:;
#ARTISTTRANSLIT:L.E.D. feat. YURiCA/HaNaTan;
#GENRE:;
#CREDIT:;
#BANNER:UROBOROS OVERDIVE_banner.png;
#BACKGROUND:UROBOROS OVERDIVE.png;
#LYRICSPATH:;
#CDTITLE:;
#MUSIC:UROBOROS OVERDIVE.ogg;
#OFFSET:-0.590000;
#SAMPLESTART:55.520000;
#SAMPLELENGTH:12.000000;
#SELECTABLE:YES;
#BPMS:0.000000=160.000000
;
#STOPS:112.000000=0.187500,
112.250000=0.187500,
321.000000=0.187500,
321.250000=0.187500
;
#BGCHANGES:;
#KEYSOUNDS:;
#ATTACKS:;

//---------------dance-single - ----------------
#NOTES:
     dance-single:
     :
     Easy:
     6:
     0.258133,0.289179,0.103938,0.175896,0.000000,226.000000,213.000000,13.000000,22.000000,0.000000,0.000000,0.258133,0.289179,0.103938,0.175896,0.000000,226.000000,213.000000,13.000000,22.000000,0.000000,0.000000:
0000
0000
0000
0000
,
0010
0000
0100
0001
,
0010
0000
0001
1000
,
0100
0000
1000
0010
,
0100
0000
0010
1000
,
0001
0000
0010
0001
,
1000
0000
0010
1000
,
0002
0000
0203
0000
,
0310
1000
0100
0010
,
0001
0000
0001
0100
,
0010
0000
1000
0100
,
0010
0000
0001
1000
,
0010
0000
0100
0010
,
0110
0000
0001
0010
,
0100
0000
1000
0010
,
0200
0000
0320
0000
,
0130
0001
0010
0100
,
1000
0000
0001
0100
,
0010
0000
1000
0100
,
0010
0000
0001
1000
,
0010
0000
0110
0000
,
1000
0100
0010
0000
,
0001
0100
0010
0000
,
2000
0000
3002
0000
,
0103
0010
1000
0001
,
0010
0001
0010
0000
,
0100
1000
0100
0000
,
1000
0010
0100
0001
,
0010
0010
0000
0000
0010
0000
0220
0000
,
0000
0000
0000
0330
0000
0000
0000
0000
,
0000
0000
0000
0001
,
0000
1000
0000
0110
,
0000
0000
0000
1000
,
0000
0100
0000
1000
,
0000
0001
0000
0100
,
0000
0001
0000
0220
,
0000
0330
0000
0100
,
0010
1000
0000
0100
,
0010
0001
0000
0001
,
1000
0010
0000
0100
,
0001
1000
0000
1001
,
0000
0010
0100
0001
,
0000
1000
0100
0020
,
0000
0032
0000
1003
,
0010
0100
0001
0010
,
0001
0010
0000
0001
,
0100
0001
0000
1000
,
0010
1000
0000
0100
,
1000
0100
0000
1000
,
0010
0001
0000
0001
,
0010
1000
0000
0001
,
0100
0010
1000
0220
,
0000
0330
0000
0001
,
0010
0100
0000
1000
,
0010
0100
0000
0020
,
0000
0230
0000
0301
,
1000
0100
0010
1001
,
0000
0000
0000
0000
,
0000
0000
0000
0110
,
0000
0000
0000
0000
,
0000
0000
0000
2000
,
0001
0000
3001
0002
,
1000
0000
1003
0100
,
0000
0010
0000
2002
,
0000
3003
0000
0100
,
0010
0100
0000
0001
,
0100
0010
0000
1000
,
0100
0010
0000
0001
,
0100
0010
0000
1000
,
0010
1000
0000
0001
,
0100
0001
0000
1000
,
0010
0100
0001
0220
,
0000
0330
0000
0001
,
0010
0100
0010
0001
,
0000
0001
0000
1000
,
0010
0100
0010
1000
,
0000
1000
0000
0001
,
0010
0100
0000
0010
,
0100
1000
0000
1000
,
0010
0100
0001
0100
,
0000
0000
0110
1001
0000
0000
0000
0000
;

//---------------dance-single - ----------------
#NOTES:
     dance-single:
     :
     Medium:
     11:
     0.524261,0.610489,0.143915,0.111934,0.107936,459.000000,441.000000,18.000000,14.000000,0.000000,0.000000,0.524261,0.610489,0.143915,0.111934,0.107936,459.000000,441.000000,18.000000,14.000000,0.000000,0.000000:
0000
0000
0000
0000
,
0010
0000
0000
0100
0000
0000
0010
0000
1000
0000
0000
0100
0000
0000
1000
0000
,
0001
0000
0000
0100
0000
0000
0001
0000
0010
0000
0000
0100
0000
0000
1000
0000
,
0010
0000
0000
1000
0000
0000
0100
0000
1000
0000
0000
0010
0000
0000
0100
0000
,
0001
0000
0000
0010
0000
0000
0001
0000
1000
0000
0010
0000
0200
0000
0000
0000
,
0301
0000
0000
0010
0000
0000
0100
0000
1000
0000
0010
0000
1000
0000
0000
0000
,
0001
0000
0000
1000
0000
0000
0100
0000
1000
0000
0010
0000
0100
0000
0000
0000
,
0001
0000
0000
0011
0000
0000
1000
0000
0010
0000
0000
0110
0000
0000
0001
0000
,
0010
0000
0000
0100
0000
0000
1000
0000
0100
0000
0001
0000
0200
0000
0000
0000
,
1300
0000
0010
0100
0010
0000
1000
0100
,
0000
0100
1000
0000
0001
0000
0011
0000
,
0100
0000
0001
0000
0010
0001
0100
0010
,
0000
1000
0001
0000
1000
0000
0010
0000
,
0100
0000
0010
0100
0000
0010
0100
0000
,
0001
0000
0010
0001
0000
0010
0001
0000
,
1000
0000
0000
0100
0000
0000
0010
0000
0100
0000
1000
0000
0010
0000
0000
0000
,
0100
0000
0000
0010
0000
0000
0100
0000
0001
0000
0010
0000
0100
0000
0000
0000
,
0010
0000
0001
0000
1000
0010
1000
0100
,
0000
0100
1000
0000
0010
0000
0100
0000
,
0010
0100
0001
0000
0010
0100
1000
0000
,
0010
0100
0010
0100
0001
0000
1001
0000
,
0100
0010
1000
0000
0100
0000
0010
0000
,
0001
0100
0010
0000
1000
0000
0001
0000
,
0100
0010
0100
0000
0001
0010
0001
0000
,
1000
0010
0100
0000
0010
1000
0100
0000
,
1000
0000
1001
0000
0001
0100
0001
0000
,
1000
0000
1001
0000
0010
0100
0010
0000
,
0100
0010
1000
0000
0100
0010
0001
0000
,
0100
0010
0100
0000
0000
0000
0001
0000
0010
0000
0100
0000
2000
0000
0000
0000
,
0000
0000
0000
0001
,
0000
0000
3010
0220
,
0000
0000
0300
2000
,
0030
0000
0000
0000
0002
0000
0000
0000
3003
0000
0000
0000
0001
0000
0000
0100
,
0000
0000
0010
0000
0000
1000
0000
0000
0200
0000
0000
0000
0000
0000
0000
0000
,
0000
0000
0000
0000
0310
0000
0000
0000
0110
0000
0000
0000
1000
0000
0000
0010
,
0000
0000
0100
0000
0000
0001
0000
0000
0010
0000
0001
0000
0200
0000
0000
0000
,
0000
0000
0310
0000
1001
0000
1000
0010
,
0100
0010
1000
0000
0100
0010
0000
0010
,
0100
1000
0000
0000
0010
0000
0100
0001
,
0010
0001
0100
0000
0001
0010
0000
0010
,
0001
1000
0010
0000
0110
0000
0001
0100
,
1000
0000
1000
0100
0001
0000
1000
0100
,
0001
0000
0001
0100
1000
0000
0010
0100
,
0010
0000
0100
0000
0000
0000
0100
0000
0010
0000
1000
0000
0001
0000
0000
0010
,
0000
0100
1000
0010
0200
0000
0301
0010
,
0100
0010
0001
0000
1000
0010
0000
0010
,
0100
0001
0000
0010
0100
0000
1000
0010
,
0100
0010
1000
0000
0001
0010
0000
0001
,
0100
0010
0000
0010
1000
0000
0100
1000
,
0001
0100
0000
0100
0010
0000
0010
1000
,
0001
0010
0000
0010
0001
0000
0100
0010
,
1000
0000
0001
0000
0010
0000
0100
0000
1000
0000
0001
0000
0100
0000
0000
0010
,
0000
0000
0100
0000
0010
0000
0000
0000
1001
0000
0000
0000
0010
0000
0000
0100
,
0000
0000
0001
0000
0010
0000
0100
0000
1000
0000
0000
0000
0010
0000
0000
1000
,
0000
0000
0100
0000
1000
0000
0010
0000
0100
0000
0000
0000
0001
0000
0000
1001
,
0000
0000
1000
0000
0010
0000
0000
0110
0000
0000
0100
0000
0001
0000
0010
0000
,
0100
1000
0010
0100
0001
1000
0100
0200
,
0000
0010
0010
1000
,
0000
0000
0310
0000
0001
1000
0010
0020
,
0000
0100
0100
1000
,
0000
0000
0031
0000
0010
0000
0100
0001
,
0010
0000
0100
1000
0010
0000
0100
0010
,
1000
0000
0001
0010
0100
0000
1000
0010
,
1000
0010
0100
0001
0010
0000
0010
0001
,
0100
0010
1000
0000
1001
0000
0010
0100
,
0001
0010
0100
0000
1000
0010
0000
0100
,
0010
1000
0000
1000
0001
0000
0100
0001
,
0010
0001
1000
0000
0010
0100
0000
0010
,
1000
0001
0010
0001
0200
0000
0301
0010
,
1000
0000
1000
0010
0001
0000
1000
0010
,
0001
0000
0001
0010
1000
0000
0001
1000
,
0100
0010
0001
0100
0010
1000
0010
0100
,
0010
0100
0020
0000
0000
0000
1030
0100
,
0010
0100
1000
0000
0001
0100
0000
0010
,
1000
0001
0000
0001
0100
0000
0001
1000
,
0100
1000
0001
0000
0010
0001
0000
0100
,
0010
1000
0001
0000
1001
0000
1000
0100
,
0010
0000
0010
0100
1000
0000
0001
0100
,
0010
0000
0010
0100
0001
0000
0010
0001
,
0100
0000
0010
0000
1000
0000
0001
0000
0010
0000
0100
0000
1000
0000
0000
1001
,
0000
0000
0010
0000
0100
0110
1001
0000
0000
0000
0000
0000
0000
0000
0000
0000
;

//---------------dance-single - ----------------
#NOTES:
     dance-single:
     :
     Hard:
     16:
     0.873768,0.934697,0.455730,0.159905,0.731567,765.000000,708.000000,57.000000,20.000000,0.000000,0.000000,0.873768,0.934697,0.455730,0.159905,0.731567,765.000000,708.000000,57.000000,20.000000,0.000000,0.000000:
// measure 0
0000
0000
0000
0000
,  // measure 1
0001
0000
0100
0010
0000
0100
0010
0000
1000
0000
0100
0010
0000
0100
0010
0000
,  // measure 2
0001
0010
0001
0000
1000
0000
0010
0100
0010
1000
0100
0010
0001
0000
1000
0000
,  // measure 3
0001
0000
1000
0100
0000
1000
0100
0000
0010
0000
0001
0100
0000
0001
0100
0000
,  // measure 4
0010
1000
0010
0000
0100
0001
0000
0000
0001
0010
0100
0010
0001
1000
0010
0000
,  // measure 5
0100
0000
0001
0000
0010
0001
0000
0001
0010
0000
0100
1000
0000
0100
1000
0000
,  // measure 6
0010
0000
1000
0000
0001
0100
0000
0100
0001
0000
1000
0010
0100
0010
1000
0000
,  // measure 7
1001
0000
0000
1100
0000
0000
0011
0000
1001
0000
0000
0101
0000
0000
1010
0000
,  // measure 8
0110
0000
0000
1001
0000
0000
0011
0000
0001
0100
0010
1000
0100
0010
0001
0100
,  // measure 9
0010
0000
0110
0000
1000
0100
0010
0100
,  // measure 10
0000
0100
0010
0001
0100
0010
1000
0001
,  // measure 11
0010
0001
1000
0100
0001
0100
1000
0010
,  // measure 12
0000
0010
0100
0001
0010
0100
0110
0000
,  // measure 13
0001
0010
1000
0001
0100
1000
0001
1000
,  // measure 14
0010
0001
1000
0100
0001
0100
0010
1000
,  // measure 15
0002
0000
0003
0001
0020
0000
0030
0010
0100
0000
1000
0100
1000
0000
0010
0000
,  // measure 16
2000
0000
3000
1000
0020
0000
0030
0010
0100
0000
0001
1000
0001
0010
0100
1000
,  // measure 17
0010
0000
0110
0000
1000
0001
0010
0001
,  // measure 18
1000
0010
0001
0010
0100
0001
0010
0100
,  // measure 19
1000
0001
0100
0001
0010
0100
1000
0001
,  // measure 20
0000
0000
0001
0000
0010
0000
0100
0000
0010
0000
0001
1000
0100
0000
1000
0000
,  // measure 21
0010
0000
0100
0010
1000
0000
0100
0010
0100
0000
1000
0000
1001
0000
0000
0000
,  // measure 22
0010
0000
0100
0010
1000
0000
0001
0100
0010
0000
0100
0000
0101
0000
0000
0000
,  // measure 23
0010
0000
1000
0100
1000
0000
0001
0010
0001
0000
0100
0000
0010
0000
1000
0000
,  // measure 24
0001
0000
0010
0100
1000
0000
0010
0000
0100
0010
1000
0000
0001
0000
0010
0000
,  // measure 25
0002
0000
0003
0001
2000
0000
3000
1000
0010
0000
0100
0010
1000
0000
0100
0000
,  // measure 26
0020
0000
0030
0010
0200
0000
0300
0100
1000
0000
0010
0100
0000
0010
0100
0000
,  // measure 27
0002
0000
0003
0001
0020
0000
0030
0010
0001
0000
1000
0100
1000
0000
0010
0000
,  // measure 28
0110
1001
1010
0000
0100
0001
0010
0100
1000
0100
0010
0001
0200
0000
0000
0000
,  // measure 29
0000
0010
0000
0000
0000
0000
0001
0000
,  // measure 30
0001
0000
0000
0000
0010
0000
0000
0000
0310
0000
1010
0000
1100
0000
0000
0011
,  // measure 31
0000
0000
1100
0000
0000
1002
0000
0000
0000
0000
0000
0000
0103
0010
0100
0000
,  // measure 32
0001
0000
0010
0000
0001
1000
0100
1000
0001
0000
0100
0000
0110
0000
0000
0101
,  // measure 33
0000
0000
1010
0000
0000
1100
0000
0000
0120
0000
0000
0000
0000
0000
0000
0000
,  // measure 34
0000
0000
0000
0000
0031
0100
0000
0000
0010
1000
0000
0000
1100
0000
0000
0101
,  // measure 35
0000
0000
0011
0000
0000
1010
0000
0000
0110
0000
0010
1000
0002
0000
0000
0000
,  // measure 36
0000
0000
0103
0010
0100
0000
0010
0100
0010
1000
0100
0010
0001
0000
0100
0010
,  // measure 37
0100
0000
0001
0010
0001
0000
1000
0100
1000
0000
0010
0000
0000
0000
0010
0100
,  // measure 38
0001
0000
1000
0000
0100
0000
0010
0100
1000
0000
0010
0000
0100
0000
0001
0010
,  // measure 39
0001
0000
1000
0100
1000
0000
0010
0100
0010
0000
1000
0000
0000
0000
1000
0001
,  // measure 40
0010
0000
0001
0000
0100
0000
0010
0100
0001
0000
0010
0000
0001
0000
1000
0100
,  // measure 41
0010
0000
0010
0100
1000
0000
0010
0000
0110
0000
0000
0000
0100
0000
0001
1000
,  // measure 42
0010
0000
0010
1000
0001
0000
0100
0000
0110
0000
0000
0000
0001
0000
0001
0000
,  // measure 43
1000
0000
1000
0000
0001
0100
0010
0000
1000
0010
0100
0010
1000
0000
0000
0101
,  // measure 44
0000
0000
1010
0000
0010
0000
0100
0010
1000
0100
0010
0001
0100
0000
0001
0010
,  // measure 45
0100
0000
1000
0010
0100
0000
0001
1000
0100
0000
0010
0000
0000
0000
0010
0000
,  // measure 46
0100
0000
1000
0001
0100
0000
0010
0000
0110
0000
0000
0000
0001
0000
1000
0010
,  // measure 47
0100
0000
0001
0010
0100
0000
1000
0001
0100
0000
0010
0000
0000
0000
0010
1000
,  // measure 48
0001
0010
0100
1000
1001
0000
0001
0010
,  // measure 49
0100
0020
0000
0031
1100
0000
0010
1000
,  // measure 50
0100
2000
0000
3001
0110
0000
0010
1000
,  // measure 51
0001
0100
0001
0010
0100
1000
0001
1000
0100
0010
0001
0100
0010
0000
0000
1000
,  // measure 52
0000
0000
1001
0000
0100
0000
0100
0000
0010
0100
0001
0010
0001
0000
1000
0010
,  // measure 53
0000
1000
0010
0000
0100
0000
0001
0010
0001
0000
1000
0000
0010
0000
0100
0001
,  // measure 54
0000
0100
0001
0000
1000
0000
0100
0010
0100
0000
1000
0000
0001
0000
0000
1010
,  // measure 55
0000
0000
0101
0000
0011
0000
0000
0110
0000
0000
1100
0000
1000
0010
0100
0001
,  // measure 56
0010
0100
0010
0001
1000
0010
0100
0010
1000
0001
0010
0100
1000
0000
1002
0000
,  // measure 57
0000
0100
0100
0010
,  // measure 58
0010
0010
0000
0100
0103
0000
0110
0210
,  // measure 59
0000
0001
0001
1000
,  // measure 60
0001
0001
0000
1000
1300
0100
0010
0010
,  // measure 61
1000
0100
0010
0100
1000
0010
0100
0010
,  // measure 62
1000
0100
0000
0100
0001
0100
1000
1001
,  // measure 63
0001
0100
0110
0010
1000
0001
0100
0100
,  // measure 64
0100
0010
0100
0000
0100
0010
1000
0100
0010
0100
1000
0001
0100
0000
0001
1000
,  // measure 65
0010
0000
1000
0001
0100
0000
0010
1000
0001
0000
0010
0000
0000
0000
0010
0001
,  // measure 66
0100
0000
0010
0000
1000
0000
0010
0100
0001
0000
0010
0000
0001
0000
1000
0010
,  // measure 67
0100
0000
0010
1000
0100
0000
1000
0010
0100
0000
0001
0000
0000
0000
0001
0000
,  // measure 68
0010
0000
0100
0000
0010
0000
0001
1000
0100
0000
1000
0000
0010
0000
0100
0001
,  // measure 69
0010
0000
0001
0100
0010
0000
0100
0001
0010
0000
0100
0000
1000
0000
0010
0100
,  // measure 70
0001
0000
0010
0001
0100
0000
0010
0100
0001
0000
0010
0000
0001
0000
0001
0000
,  // measure 71
1000
0000
1000
0000
0010
0100
0010
0100
0001
1000
0001
1000
0100
0000
0100
0000
,  // measure 72
0010
0000
0010
0000
0100
1000
0010
0100
0001
1000
0100
0010
0001
0000
0010
0100
,  // measure 73
1000
0000
0001
0010
0100
0000
1000
0010
0100
0000
0010
0000
0000
0000
0010
1000
,  // measure 74
0001
0000
0010
0000
0100
0000
0010
0001
0010
0000
0000
0000
0001
0000
1000
0010
,  // measure 75
0100
0000
0010
0100
0001
0000
0010
0001
1000
0000
0100
0000
0000
0000
0100
0010
,  // measure 76
0100
0000
1000
0000
0001
0000
0100
0000
0110
0000
0000
0000
0001
0010
0100
0000
,  // measure 77
1000
0000
0010
0100
0001
0000
0010
0000
0100
0000
0100
0000
1000
0010
0100
0000
,  // measure 78
0010
0000
1000
0001
0010
0000
0001
0000
0100
0000
0100
0000
0010
0000
0110
0000
,  // measure 79
1000
0001
1000
0010
0100
0001
1000
0100
0010
0001
0100
0010
1000
0000
0000
0011
,  // measure 80
0000
0000
1100
0000
0010
1001
0220
0000
0000
0000
0330
0000
0000
0000
0000
0000
;
