#TITLE:ULTRA HAPPY MEGAMIX;
#SUBTITLE:;
#ARTIST:DJ Genki;
#TITLETRANSLIT:;
#SUBTITLETRANSLIT:;
#ARTISTTRANSLIT:;
#GENRE:;
#CREDIT:;
#BANNER:ULTRA_HAPPY_MEGAMIX_banner.png;
#BACKGROUND:ULTRA_HAPPY_MEGAMIX.png;
#LYRICSPATH:;
#CDTITLE:;
#MUSIC:ULTRA HAPPY MEGAMIX.ogg;
#OFFSET:-0.420000;
#SAMPLESTART:81.750000;
#SAMPLELENGTH:15.000000;
#SELECTABLE:YES;
#BPMS:0.000000=180.000000
;
#STOPS:32.000000=0.167000,
32.500000=0.167000,
33.000000=0.167000,
33.500000=0.167000,
98.000000=1.000000,
99.000000=0.167000,
99.500000=0.167000,
100.000000=0.167000,
100.500000=0.167000,
308.750000=0.333000,
309.000000=0.333000,
309.500000=0.167000
;
#BGCHANGES:;
#KEYSOUNDS:;
#ATTACKS:;

//---------------dance-single - ----------------
#NOTES:
     dance-single:
     :
     Easy:
     6:
     0.255188,0.310221,0.121400,0.268815,0.000000,206.000000,192.000000,14.000000,31.000000,0.000000,0.000000,0.255188,0.310221,0.121400,0.268815,0.000000,206.000000,192.000000,14.000000,31.000000,0.000000,0.000000:
0000
0000
0000
0000
,
0000
0000
0000
0000
,
0000
0000
0000
0000
,
0000
0000
0000
0000
,
0000
0000
0000
0000
,
2000
0000
3001
0100
,
0020
0000
0130
0000
,
2002
0000
0000
0000
0000
3003
0000
0000
,
0100
0100
0010
0000
,
1000
0100
1000
0000
,
0001
0000
0010
0000
,
0001
1000
0001
0000
,
0100
0000
0010
0000
,
1000
0100
0010
0000
,
0100
0000
1000
0000
,
0001
0100
0020
0000
,
0000
0130
0001
0000
,
0010
0001
2000
0010
,
3010
0000
0100
0000
,
0001
1000
0200
0010
,
0310
0000
0001
1000
,
0010
0000
1000
0001
,
0100
0000
0011
0000
,
1100
0000
2002
0000
,
0000
3003
0000
0010
,
0010
1000
0000
0100
,
1000
0001
0100
0001
,
0000
0010
0000
0001
,
0010
0100
1000
0001
,
0000
1000
1000
1000
,
0000
0001
0001
0001
,
0000
0010
0100
0010
,
0100
0000
2002
0000
0000
0000
0000
3003
,
0000
0100
0000
0010
,
0100
1000
0100
0010
,
0000
1000
0000
0001
,
0100
0010
0100
0001
,
0000
1000
0000
0100
,
0000
1000
0000
0001
,
0000
0202
0000
0303
,
0000
2020
0000
3030
,
0000
0200
0000
0000
,
0300
0010
0010
0010
,
0010
2000
0000
0000
,
3000
0002
0000
0000
,
0003
0020
0000
0000
,
0030
0200
0000
0000
,
0300
1000
0000
0001
,
0010
0100
0000
1000
,
0010
0100
0000
0001
,
0000
0220
0000
0330
,
0000
1000
0010
1000
,
0000
0001
0010
0001
,
0000
1000
0100
1000
,
0000
0001
0100
0001
,
0000
1001
0000
0010
,
0100
0001
0000
1000
,
0010
1001
0000
0110
,
0000
2002
0000
0000
,
3003
1000
0010
0100
,
0001
0010
0100
1000
,
0000
0010
1000
0100
,
0010
0001
0100
0010
,
0000
0010
1000
0001
,
0010
0100
1000
0001
,
0000
0100
0010
1000
,
0001
0000
0022
0000
0000
0000
0000
0033
,
0000
1000
0100
1000
,
0001
1000
0010
1000
,
0000
0001
0100
0001
,
1000
0001
0010
1000
,
0000
0010
0001
2000
,
0000
3001
0100
2000
,
0000
3100
0010
1000
,
0001
0000
2002
0000
0000
0000
0000
3003
,
0000
0100
1000
0010
,
0100
0001
0010
0100
,
1000
0010
0020
0000
,
0000
0000
0000
0000
,
0000
0000
0030
0000
;

//---------------dance-single - ----------------
#NOTES:
     dance-single:
     :
     Medium:
     12:
     0.532675,0.689380,0.242801,0.147415,0.047693,430.000000,402.000000,28.000000,17.000000,0.000000,0.000000,0.532675,0.689380,0.242801,0.147415,0.047693,430.000000,402.000000,28.000000,17.000000,0.000000,0.000000:
// measure 0
0000
0000
0000
0000
,  // measure 1
0000
0000
0000
0000
,  // measure 2
0000
0000
0000
0000
,  // measure 3
0000
0000
0000
0000
,  // measure 4
0000
0000
0000
0000
,  // measure 5
0010
0000
0001
0100
0000
0000
0010
0000
,  // measure 6
1000
0000
0100
0010
0000
0000
0001
0000
,  // measure 7
1000
0000
0001
1000
0000
0100
0010
0000
,  // measure 8
0110
0001
1000
0110
0010
1000
0001
0000
,  // measure 9
1000
0001
0010
0000
0001
1000
0010
0000
,  // measure 10
1000
0000
1100
0000
0001
1000
0100
0000
,  // measure 11
1000
0001
0100
0000
0001
0010
0100
1000
,  // measure 12
0010
0000
0110
0000
1000
0001
0010
0000
,  // measure 13
0001
1000
0010
0000
0100
0010
0100
0001
,  // measure 14
0010
0000
0011
0000
1000
0100
1000
0000
,  // measure 15
0010
0000
0100
0000
0010
0000
0000
0000
1000
0000
0000
0001
0000
0000
1000
0000
,  // measure 16
0001
0010
0200
0000
0310
0000
0001
2000
,  // measure 17
0000
0010
0000
0010
0000
0001
3000
0001
,  // measure 18
0100
0000
0110
0000
1000
0100
0010
0000
,  // measure 19
0001
0000
1000
0010
0000
1000
0100
0010
,  // measure 20
0001
0000
1000
0000
0010
0100
0002
0000
,  // measure 21
0000
1000
0000
1000
0000
0010
0003
0010
,  // measure 22
0100
0000
1100
0000
1000
0010
0001
0000
,  // measure 23
0001
0000
0010
0000
1000
0000
0000
0000
0001
0000
0000
0100
0000
0000
0001
0000
,  // measure 24
0010
0100
1000
0000
1001
0000
0010
0010
,  // measure 25
0010
0110
1000
0100
1000
0001
0000
0010
,  // measure 26
0001
1000
0000
0010
1000
0100
1000
0000
,  // measure 27
0101
0000
0010
1000
0001
0010
0000
0001
,  // measure 28
0100
0001
0000
1000
0001
0010
0100
0010
,  // measure 29
0001
0000
1000
0000
1010
0000
0001
0100
,  // measure 30
0001
1000
0000
0100
1000
0100
0010
0000
,  // measure 31
0011
0000
1000
0001
0100
0000
0010
1000
,  // measure 32
0001
0010
0100
1000
0100
0001
0100
0000
,  // measure 33
0110
0000
1000
0010
0001
0000
0001
0010
,  // measure 34
1000
0000
1000
0010
0001
0010
1000
0010
,  // measure 35
0001
0000
0010
0000
0100
0001
0000
1000
,  // measure 36
0100
0001
0000
0001
0100
1000
0100
0001
,  // measure 37
0100
0000
0000
0000
1000
0000
0000
0000
1001
0000
0000
0000
0010
0000
0000
0011
,  // measure 38
0000
1001
0000
0100
0100
0000
0010
0000
,  // measure 39
1010
0000
0000
0000
0100
0000
0000
0001
0000
0000
1000
0000
0000
0100
0000
0000
,  // measure 40
0010
0000
0001
0000
1000
0000
0000
0001
0000
0000
0010
0000
0000
0100
0000
0000
,  // measure 41
1000
0001
2002
0000
0000
0000
0000
0000
,  // measure 42
3003
0000
0110
0000
0010
0000
0100
0010
,  // measure 43
1000
1002
0000
0000
,  // measure 44
0000
0023
0000
0000
,  // measure 45
0000
0230
0000
0000
,  // measure 46
0000
2300
0000
0000
,  // measure 47
0000
0000
3010
0000
0100
0010
0000
1000
,  // measure 48
0010
0000
1000
0000
0100
1000
0000
0001
,  // measure 49
1000
0000
0001
0000
0010
0001
0000
1000
,  // measure 50
0001
0000
0000
0000
1000
0000
0000
0000
0010
0000
0000
0100
0000
0000
0010
0000
,  // measure 51
0100
0000
0101
0000
0010
0000
1000
0100
,  // measure 52
0010
0000
0100
0000
1000
0001
0100
0000
,  // measure 53
0110
0000
0001
0000
1000
0000
0001
0010
,  // measure 54
0100
0000
0010
0000
0001
1000
0010
0000
,  // measure 55
0110
0000
1000
0100
0010
0100
1000
0100
,  // measure 56
0020
0000
0031
0100
0010
0100
0001
0100
,  // measure 57
0020
0000
1030
0001
0100
0000
0001
1000
,  // measure 58
0100
0000
0000
0000
0010
0000
0000
0100
0000
0000
0010
0000
0100
0000
1000
0000
,  // measure 59
0002
0000
1003
0010
0100
0000
0001
0010
,  // measure 60
0100
0010
0001
0000
1000
0100
0010
0100
,  // measure 61
1000
0000
0010
1000
0001
0000
1000
0010
,  // measure 62
0100
0010
1000
0000
0001
0100
0010
0100
,  // measure 63
0001
0000
0010
0100
1000
0000
0010
1000
,  // measure 64
0001
0000
0010
0001
1000
0000
0001
1000
,  // measure 65
0100
0010
0001
1000
0200
0000
1300
0001
,  // measure 66
0200
0000
0000
0000
0310
0000
0000
0010
0000
0000
0010
0000
1000
0000
0100
0000
,  // measure 67
0001
0100
1000
0010
0100
0010
0000
1000
,  // measure 68
0100
1000
0000
0001
1000
0100
0010
0000
,  // measure 69
1001
0000
0010
0100
0001
0100
0000
0010
,  // measure 70
1000
0010
0000
1000
0001
0010
0100
0000
,  // measure 71
1001
0000
0100
0001
0010
0100
0010
0001
,  // measure 72
0100
0000
0010
1000
0100
0010
0100
1000
,  // measure 73
0010
0000
0100
0100
0001
0000
0010
0010
,  // measure 74
0100
0000
0000
0000
1000
0000
0000
0100
0000
0000
1000
0000
0001
0000
0010
0000
,  // measure 75
0200
0000
1300
0001
1000
0001
0010
0001
,  // measure 76
0010
0001
1000
0100
1000
0010
0100
0001
,  // measure 77
0010
0100
0011
1100
2002
0000
0000
0000
,  // measure 78
0000
0000
0000
0000
,  // measure 79
0000
0000
3003
0000
;

//---------------dance-single - ----------------
#NOTES:
     dance-single:
     :
     Hard:
     15:
     0.811400,0.930663,0.554973,0.251472,0.524623,655.000000,591.000000,64.000000,29.000000,0.000000,0.000000,0.811400,0.930663,0.554973,0.251472,0.524623,655.000000,591.000000,64.000000,29.000000,0.000000,0.000000:
// measure 0
0000
0000
0000
0000
,  // measure 1
0000
0000
0000
0000
,  // measure 2
0000
0000
0000
0000
,  // measure 3
0000
0000
0000
0000
,  // measure 4
0000
0000
0000
0000
,  // measure 5
0010
1000
0100
0001
0000
0001
0100
1000
,  // measure 6
0010
1000
0010
0001
0000
0001
0010
0100
,  // measure 7
0001
1000
0010
0100
0000
0100
0001
0010
,  // measure 8
0011
1100
1001
0110
1000
0001
0010
0001
,  // measure 9
1000
0001
0010
0100
1000
0100
0001
0100
,  // measure 10
1000
0000
0001
0010
0100
0000
1000
0000
0010
0000
1000
0000
0001
0000
0100
0000
,  // measure 11
0010
0001
0010
1000
0001
1000
0100
0010
,  // measure 12
0001
0000
1000
0001
0010
0000
0100
0000
1000
0000
0010
0000
1000
0000
0010
0000
,  // measure 13
0100
0001
0100
0001
0010
0100
1000
0001
,  // measure 14
1000
0000
0001
0100
0010
0000
1000
0000
0100
0000
1000
0000
0100
0000
0010
0001
,  // measure 15
1000
0000
0001
0000
0100
0000
0010
1000
0001
0000
0000
1100
0000
0000
0101
0000
,  // measure 16
0010
0000
0100
0000
0001
1000
0001
1000
0010
0000
0002
0000
0010
0000
0203
0000
,  // measure 17
0010
0302
0010
0103
0010
2000
0100
3002
,  // measure 18
0100
1003
1100
0000
0001
0020
0001
0230
,  // measure 19
0001
0000
0320
0000
0100
0000
1030
0000
0001
0000
0000
1001
0000
0000
0101
0000
,  // measure 20
0000
0000
0010
0000
1000
0001
1000
0001
0010
0000
0100
0000
1000
0000
0100
0000
,  // measure 21
0001
0100
1000
0010
0001
0010
1000
0001
,  // measure 22
0010
1000
0001
0100
1000
1000
1100
0000
,  // measure 23
0001
0000
0001
0000
0011
0000
0000
0000
1001
0000
0000
0011
0000
0000
0101
0000
,  // measure 24
0100
0000
0010
0000
1000
0100
1000
0100
0010
0000
0000
0000
0011
0000
1100
0000
,  // measure 25
1010
0000
0011
0000
1000
0000
0001
0000
0010
0000
0001
0000
1000
0000
0001
0010
,  // measure 26
0100
0000
1000
0000
0010
0000
1000
0000
0001
0000
1000
0001
0100
0000
0010
0000
,  // measure 27
0001
0000
0010
0000
1000
0000
0100
0000
0010
0000
0100
1000
0001
0000
0100
0000
,  // measure 28
0010
0000
0100
0001
0010
0000
0001
0000
1000
0000
0010
0100
0010
0000
1000
0100
,  // measure 29
1000
0000
0001
0000
0010
0000
0000
0000
0011
0000
0000
0000
1001
0000
0000
1100
,  // measure 30
0000
1010
0000
0100
0110
0000
0101
0000
,  // measure 31
0011
0000
1000
0001
1001
0000
1100
0011
,  // measure 32
0000
0101
0100
0100
0100
0100
0010
0100
,  // measure 33
0110
0000
0001
0010
1000
0001
0200
0000
,  // measure 34
1300
0000
0001
0010
0001
0000
1000
0010
1000
0000
0001
0100
0001
0000
1000
0100
,  // measure 35
1000
0000
0000
0000
0000
0000
0001
0000
0010
0000
0100
0000
1000
0000
0000
0010
0000
0000
2000
0000
0000
0000
0000
0000
,  // measure 36
3010
0000
0100
0001
0100
0000
0001
0010
0001
0000
1000
0010
1000
0000
0001
0100
,  // measure 37
0001
0000
0000
0000
1010
0000
0000
0000
1100
0000
0000
0000
0011
0000
0000
1001
,  // measure 38
0000
0011
0000
1100
1001
0000
0110
0000
,  // measure 39
0101
0000
0000
0000
0110
0000
0000
1010
0000
0000
1100
0000
0000
1001
0000
0000
,  // measure 40
0001
0000
1000
0000
0010
0100
0000
0001
0010
0000
0100
1000
0000
1000
0010
0000
,  // measure 41
0010
0110
0200
0000
0000
0000
0000
0000
,  // measure 42
0300
0000
1001
0001
1001
0001
1001
0100
,  // measure 43
0110
0000
0000
0000
0010
0000
1000
0000
0010
0000
1000
0100
0000
1000
0100
0000
,  // measure 44
1000
0000
0010
0000
0100
0000
0001
0000
0010
0000
0001
0100
0000
0001
0100
0000
,  // measure 45
0010
0000
0100
0000
0001
0000
1000
0000
0001
0000
0010
0001
0000
1000
0001
0000
,  // measure 46
1000
0000
0010
0000
1000
0000
0100
0000
1000
0000
0001
0100
0000
0001
1000
0000
,  // measure 47
0020
0000
0000
0000
1030
0000
0100
0000
0010
0000
0100
1000
0000
0000
0001
0000
,  // measure 48
0100
0000
0000
0000
0010
0000
0100
0000
0001
0000
0100
0010
0000
0000
1000
0000
,  // measure 49
0100
0000
0000
0000
0010
0000
0100
0000
1000
0000
0001
0100
0010
0000
0000
0100
,  // measure 50
0000
0000
0001
0000
0010
0000
0100
0000
0010
0000
0100
1000
0000
0001
1000
0000
,  // measure 51
0001
0000
0000
0000
1010
0000
0000
0000
0100
0000
0000
0000
0001
0010
0100
0000
,  // measure 52
1000
0001
0100
0000
0010
0000
0000
0000
1100
0000
0000
0000
0010
0100
1000
0000
,  // measure 53
0001
0000
0000
0000
0101
0000
0000
0000
0010
0000
0000
0000
1000
0001
0100
0000
,  // measure 54
0001
1000
0010
0000
0100
0000
0000
0000
0101
0000
0000
0000
0010
0000
0100
0010
,  // measure 55
0200
0000
0000
0000
0301
0000
0010
0000
0001
0000
1000
0010
0000
1000
0001
0000
,  // measure 56
0020
0000
0000
0000
0130
0000
1000
0000
0001
0000
0100
0001
0000
1000
0010
0000
,  // measure 57
0200
0000
0000
0000
0301
0010
0001
0000
1000
0010
1000
0000
0001
0100
0001
0100
,  // measure 58
0010
1000
0010
1000
0100
0000
0000
1010
0000
0000
0100
0000
0001
0010
0000
0000
,  // measure 59
0001
1000
0100
0000
1000
0000
0010
0000
1000
0000
0001
0010
0000
0001
1000
0000
,  // measure 60
0001
0010
0001
0000
0100
0000
0001
0000
0010
0000
0100
1000
0000
0001
1000
0000
,  // measure 61
0020
0000
0000
0000
1030
0000
0100
0000
1000
0000
0001
0010
0000
0001
1000
0000
,  // measure 62
0010
0100
0010
0000
0100
0000
0001
0000
0010
0000
0100
1000
0000
0010
1000
0000
,  // measure 63
0200
0000
0000
0000
0310
0000
0001
0000
1000
0000
0001
0010
0000
0100
1000
0000
,  // measure 64
0010
0100
0010
0000
1000
0000
0100
0000
1000
0000
0001
0010
0000
0001
0100
0000
,  // measure 65
0020
0000
0000
0000
0130
0000
0001
0000
1000
0000
0100
0010
0001
0000
1000
0000
,  // measure 66
0001
0100
0010
0000
1000
0000
0000
1100
0000
0000
1010
0000
0100
0000
0001
0010
,  // measure 67
0002
0000
0000
0000
1003
0000
0010
0000
0001
0000
0010
1000
0000
0001
0010
0000
,  // measure 68
0100
0000
1000
0000
0001
0000
1000
0000
0100
0000
0001
0100
0000
1000
0001
0000
,  // measure 69
0200
0000
0000
0000
0301
0000
0010
0000
0100
0000
0010
0001
0000
1000
0010
0000
,  // measure 70
0100
0010
0100
0000
0001
0000
0000
1010
0000
0000
1100
0000
0000
0011
0000
0000
,  // measure 71
0200
0000
0000
0000
0301
0010
0001
0010
0001
0010
0001
0010
0001
0010
0001
0010
,  // measure 72
0002
0000
0000
0000
1003
0010
1000
0010
1000
0010
1000
0010
1000
0010
1000
0010
,  // measure 73
2000
0000
0000
0000
3001
0100
0010
0100
0002
0000
0000
0000
1003
0100
0010
0100
,  // measure 74
2000
0000
0000
0000
3001
0000
0000
0110
0000
0000
1100
0000
0000
0000
0001
0000
,  // measure 75
0100
0010
1000
0100
0010
0000
0100
0000
1000
0010
1000
0000
0001
0000
0100
0000
,  // measure 76
0001
0010
0001
0000
1000
0000
1000
0000
1000
0010
1000
0000
0001
0000
1000
0000
,  // measure 77
2002
3003
0110
0011
2200
0000
0000
0000
,  // measure 78
0000
0000
0000
0000
,  // measure 79
0000
0000
3300
0000
;
