#TITLE:罪と罰;
#SUBTITLE:;
#ARTIST:Xceon feat. Mayumi Morinaga;
#TITLETRANSLIT:Tsumi to batsu;
#SUBTITLETRANSLIT:;
#ARTISTTRANSLIT:;
#GENRE:HYPER J-POP;
#CREDIT:;
#BANNER:Tsumi_to_batsu_banner.png;
#BACKGROUND:Tsumi_to_batsu.png;
#LYRICSPATH:;
#CDTITLE:;
#MUSIC:Tsumi to batsu.ogg;
#OFFSET:-0.700000;
#SAMPLESTART:96.070007;
#SAMPLELENGTH:15.000000;
#LASTBEATHINT:287.500000;
#SELECTABLE:YES;
#BPMS:0.000000=144.000000
;
#STOPS:228.000000=0.417000
;
#BGCHANGES:;
#KEYSOUNDS:;
#ATTACKS:;

//---------------dance-single - ----------------
#NOTES:
     dance-single:
     :
     Easy:
     5:
     0.214597,0.260762,0.072686,0.129220,0.000000,186.000000,177.000000,9.000000,16.000000,0.000000,0.000000,0.214597,0.260762,0.072686,0.129220,0.000000,186.000000,177.000000,9.000000,16.000000,0.000000,0.000000:
0000
0000
0000
0000
,
0000
0000
0000
0000
,
0000
0000
0000
0000
,
0000
0000
0000
0000
,
0010
0010
0100
0100
,
1000
0001
1000
0000
,
0001
0001
1000
1000
,
0100
0010
0001
0000
,
0010
0100
0010
0000
,
0001
0010
0100
1000
,
0001
0000
1000
0010
,
1000
0001
0110
0000
,
0001
0010
0001
0000
,
1000
0010
0100
0001
,
0011
0000
1000
0000
,
1100
0000
0001
0000
,
2002
0000
0000
0000
,
3003
0000
0000
0000
,
0020
0000
0030
0000
,
1000
0100
1000
0000
,
0001
0100
0001
0000
,
0010
1000
0010
0000
,
0100
0001
0100
0000
,
0010
1000
0100
0000
,
0010
0001
0100
0000
,
0001
1000
0010
1000
,
0001
0000
1001
0000
,
0010
0100
1000
0000
,
0002
0000
1003
0100
,
0010
0001
1000
0000
,
0200
0010
0310
0000
,
1000
0010
1000
0000
,
0001
0100
0001
0000
,
0010
0000
0100
0000
,
0001
1000
0100
1000
,
0001
0000
0220
0330
,
0010
0000
0010
0100
,
0010
1000
0100
0000
,
0010
0000
0001
0100
,
0010
1000
0001
0000
,
1100
0000
0001
0010
,
0001
0100
0010
0000
,
0002
0000
0013
0010
,
0100
1000
0010
0100
,
0200
0000
0000
0000
,
0300
0000
0000
0000
,
0010
0000
0001
0000
,
0100
0000
1000
0000
,
0000
0001
0000
0001
,
0000
1000
0000
1000
,
0010
0100
0000
0100
,
0010
1000
0001
0000
,
1000
0001
0010
0000
,
0001
0100
0010
0000
,
1000
0001
0010
0100
,
1000
0000
2002
0000
,
3003
0000
0000
0000
,
0000
0010
0001
1000
,
0000
0010
1000
0001
,
0000
0100
0001
1000
,
0000
0100
1000
0001
,
0000
2000
0000
3001
,
0010
0001
1000
0100
,
0000
0020
0000
0031
,
1000
0010
0100
0001
,
1000
2002
0000
0000
,
0000
3003
0000
0000
,
0000
0010
0100
0010
,
1000
0001
0010
0100
,
1000
0020
0000
0000
,
0000
0000
0000
0000
,
0000
0000
0000
0030
;

//---------------dance-single - ----------------
#NOTES:
     dance-single:
     :
     Medium:
     9:
     0.335741,0.434603,0.121144,0.177677,0.016152,291.000000,276.000000,15.000000,22.000000,0.000000,0.000000,0.335741,0.434603,0.121144,0.177677,0.016152,291.000000,276.000000,15.000000,22.000000,0.000000,0.000000:
// measure 0
0000
0000
0000
0000
,  // measure 1
0000
0000
0000
0000
,  // measure 2
0000
0000
0000
0000
,  // measure 3
0000
0000
0000
0000
,  // measure 4
0010
0000
0001
0100
0010
0000
1000
0100
,  // measure 5
0010
0000
0010
0100
1000
0000
0001
0000
,  // measure 6
0100
0000
0010
1000
0100
0000
0010
0100
,  // measure 7
1000
0000
0001
1000
0010
0000
0110
0000
,  // measure 8
1000
0000
0001
0010
0001
0000
1000
0000
,  // measure 9
0010
0100
0001
0000
0020
0000
0030
0000
,  // measure 10
0001
0000
1000
0100
1000
0000
0010
0000
,  // measure 11
1000
0001
0010
0000
0200
0000
0300
0000
,  // measure 12
0010
0000
0001
1000
0100
0000
1000
0000
,  // measure 13
0010
0000
0100
0001
1000
0000
0000
0000
,  // measure 14
1001
0000
0000
0000
0010
0000
1000
0001
,  // measure 15
1000
0000
0010
0100
0001
0000
1000
0000
,  // measure 16
0220
0000
0000
0000
,  // measure 17
0000
0000
0330
0000
,  // measure 18
2002
0000
0000
3003
,  // measure 19
0000
0100
0010
0100
0000
0010
0100
0010
,  // measure 20
0000
1000
0001
0000
1000
0000
0100
0000
,  // measure 21
0000
0010
0001
0010
0000
0001
0010
0001
,  // measure 22
0000
1000
0001
0000
0010
0000
0100
0000
,  // measure 23
0000
1000
0010
1000
0000
0010
1000
0010
,  // measure 24
0000
0100
0001
0000
0010
0000
0001
0000
,  // measure 25
0000
0100
0001
0100
0002
0000
0013
0000
,  // measure 26
0100
0000
1000
0001
1000
0000
0000
0000
,  // measure 27
0110
0000
1000
0001
0000
0010
0000
0020
,  // measure 28
0000
0000
0000
0130
1000
0000
0001
0000
,  // measure 29
0100
0000
0010
1000
0000
0001
0000
0010
,  // measure 30
0000
0001
1000
0002
0000
0000
0003
0000
,  // measure 31
0010
0000
0000
0100
0000
0000
0010
0000
0000
0000
0001
0000
1000
0000
0000
0000
,  // measure 32
0010
0000
0000
0100
0000
0000
0010
0000
1000
0000
0000
0000
0000
0000
0000
0000
,  // measure 33
0101
0010
1100
0010
,  // measure 34
1000
0000
0000
0001
0000
0000
0010
0000
0200
0000
0000
0000
0310
0000
0000
0000
,  // measure 35
0001
0000
0000
1000
0000
0000
0010
0000
0200
0000
0000
0000
0300
0000
0000
0000
,  // measure 36
0110
0000
1000
0001
1000
0000
0001
0000
,  // measure 37
0010
0100
1000
0000
0001
0000
1000
0000
,  // measure 38
0100
0000
1000
0010
1000
0000
0001
0000
,  // measure 39
1000
0000
0100
0010
0002
0000
0003
0000
,  // measure 40
0010
0000
0001
0100
0010
0000
1000
0000
,  // measure 41
0010
0000
1000
0100
2000
0000
3000
0000
,  // measure 42
1001
0000
0010
0000
0100
0000
0010
0100
,  // measure 43
0001
0000
0010
0000
0100
1000
0001
0000
,  // measure 44
2002
0000
0000
0000
,  // measure 45
0000
0000
3003
0000
,  // measure 46
0100
0000
0100
0000
,  // measure 47
0010
0000
0010
0000
,  // measure 48
1000
0000
0010
0001
0010
0000
1000
0000
,  // measure 49
0001
0000
0100
1000
0100
0000
0001
0000
,  // measure 50
0010
0000
0001
0100
0001
0000
0010
0000
,  // measure 51
0100
0000
1000
0010
1000
0000
0100
0000
,  // measure 52
0000
0001
0010
0001
0000
0100
0010
0100
,  // measure 53
0000
0010
1000
0010
0100
0000
0001
0000
,  // measure 54
0000
1000
0100
1000
0100
0000
0010
0000
,  // measure 55
0001
0000
1000
0001
0100
0000
0000
0000
,  // measure 56
0220
0000
0000
0330
,  // measure 57
0000
0000
1001
0000
0100
0010
0100
0000
,  // measure 58
0001
0000
0010
0100
1000
0000
0001
0000
,  // measure 59
0000
0000
1000
0000
0001
1000
0100
0000
,  // measure 60
1000
0000
0010
0100
0001
1000
0002
0000
,  // measure 61
0003
0000
1100
0000
0001
1000
0001
0000
,  // measure 62
0100
0000
0010
1000
0100
0010
0001
0000
,  // measure 63
0000
0000
1000
0000
0001
0010
0100
0000
,  // measure 64
1000
0000
0010
0000
1000
0001
0100
0010
,  // measure 65
1000
2002
0000
0000
,  // measure 66
0000
3003
0000
0000
,  // measure 67
0000
0000
0010
0001
0100
0000
0010
1000
,  // measure 68
0100
0000
1000
0100
0010
0001
0100
0010
,  // measure 69
1000
0220
0000
0000
,  // measure 70
0000
0000
0000
0000
,  // measure 71
0000
0000
0000
0330
;

//---------------dance-single - ----------------
#NOTES:
     dance-single:
     :
     Hard:
     14:
     0.616102,0.724338,0.266516,0.153449,0.411888,534.000000,501.000000,33.000000,19.000000,0.000000,0.000000,0.616102,0.724338,0.266516,0.153449,0.411888,534.000000,501.000000,33.000000,19.000000,0.000000,0.000000:
// measure 0
0000
0000
0000
0000
,  // measure 1
0000
0000
0000
0000
,  // measure 2
0000
0000
0000
0000
,  // measure 3
0000
0000
0000
0000
,  // measure 4
0100
0000
0001
0000
0010
0001
1000
0001
1000
0000
0010
0000
0100
0001
1000
0001
,  // measure 5
1000
0000
0100
0000
0010
0100
1000
0100
1000
0000
0001
0000
1001
0000
0000
0000
,  // measure 6
0001
0000
0010
0000
0001
1000
0100
0000
1000
0000
0010
0000
0100
0001
0010
0000
,  // measure 7
0001
0000
1000
0000
0001
0010
0100
1000
0010
0000
0100
0000
0110
0000
0000
0000
,  // measure 8
0001
0000
1000
0000
0010
0000
0100
0010
0000
0000
1000
0000
0100
0000
0010
0000
,  // measure 9
0001
0000
0100
0000
1000
0000
0100
0001
0000
0000
1000
0000
0001
0000
0010
0000
,  // measure 10
0100
0000
0010
0000
1000
0000
0010
0001
0000
1000
0010
0000
0100
0000
0001
0000
,  // measure 11
0100
1000
0100
0010
0110
0000
1001
0000
,  // measure 12
0100
0000
0001
0000
1000
0000
0100
0010
0000
0100
1000
0000
0001
0000
0100
0000
,  // measure 13
0010
0000
1000
0000
0100
0000
0010
0100
0000
0000
1000
0000
0001
0000
0100
0010
,  // measure 14
0100
0000
0000
0001
0000
0000
0010
0100
1000
0000
0000
0001
0000
0000
0100
0000
,  // measure 15
0010
0000
1000
0001
0000
0000
0100
0001
0100
0000
0010
0100
0000
0001
0010
0000
,  // measure 16
0200
0000
2000
0300
,  // measure 17
0020
3000
0002
0033
,  // measure 18
2002
0000
0000
3003
,  // measure 19
0000
0100
1000
1010
0000
0010
0001
0101
,  // measure 20
0000
0100
1000
0010
0001
0010
1000
0100
,  // measure 21
0010
1000
0010
0011
0000
0001
0100
1100
,  // measure 22
0000
0000
0100
0000
0010
0000
1000
0000
0001
1000
0100
0000
0010
0000
0001
0000
,  // measure 23
0010
1000
0010
0001
1000
0010
0001
0010
,  // measure 24
1000
0001
0100
1000
0100
0001
1000
0100
,  // measure 25
0001
0000
0100
0000
1000
0000
0010
0000
0100
0010
1000
0000
0001
0000
0010
0000
,  // measure 26
0110
0000
1000
0010
1001
0000
0100
0100
,  // measure 27
0001
0010
0100
1100
0000
0101
0000
0010
,  // measure 28
1000
0000
0100
0000
0010
0000
0100
1000
0001
0000
0100
0000
0010
0000
1000
0000
,  // measure 29
0001
0000
0010
0000
0100
0000
1000
0001
0100
0000
0010
0000
1000
0000
1100
0000
,  // measure 30
0000
0000
0010
0000
0001
0000
1000
0000
0010
0100
0010
0100
0001
0000
0010
0000
,  // measure 31
0001
0000
1000
0100
0000
1000
0010
0000
0000
0000
0100
0010
0100
0000
0010
0000
,  // measure 32
1000
0000
0001
0010
0000
0100
1000
0000
0001
0000
1000
0000
0010
0000
1000
0100
,  // measure 33
0010
0000
0100
1000
0000
0000
0001
0000
0010
0000
0001
0100
0000
0000
0010
0100
,  // measure 34
0001
0000
0000
1010
0000
0000
0100
0000
0001
0000
1000
0000
0100
0010
0100
0010
,  // measure 35
0100
0000
0000
0011
0000
0000
1000
0000
1001
0000
0000
0000
0110
0000
0000
0000
,  // measure 36
0001
0000
0100
0000
0010
0000
1000
0100
0000
1000
0010
0000
1000
0000
0001
0000
,  // measure 37
0100
0000
0001
0000
0010
0000
0001
0100
0000
0010
1000
0000
0001
0000
1000
0100
,  // measure 38
1000
0000
0010
0000
0100
0000
0001
1000
0000
0100
0010
0000
0100
0000
1000
0000
,  // measure 39
0010
0001
0010
1000
0001
0000
0110
0000
,  // measure 40
1000
0000
0001
0000
0010
0000
0001
0100
0000
0001
0010
0000
0100
0000
1000
0000
,  // measure 41
0010
0000
0100
0000
0010
0000
1000
0100
0000
0010
0001
0000
0100
0000
0010
1000
,  // measure 42
0010
0000
0000
0110
0000
0000
0001
0010
0001
0000
0000
1100
0000
0000
0001
1000
,  // measure 43
0001
0000
0010
0001
0000
0000
1000
0001
1000
0000
0010
0100
0000
0000
0010
0000
,  // measure 44
2000
0000
3002
0000
,  // measure 45
0023
0000
0230
0000
,  // measure 46
0320
0000
0032
0000
,  // measure 47
0203
0000
2300
0000
,  // measure 48
3000
0001
0100
1100
0000
1000
0100
0101
,  // measure 49
0000
1000
0010
0001
0010
1000
0001
0100
,  // measure 50
0000
0001
0010
1010
0000
1000
0010
0011
,  // measure 51
0000
0000
1000
0000
0001
0000
0010
0000
0001
1000
0001
0000
0100
0000
0010
0000
,  // measure 52
1000
0000
0010
0000
1000
0000
0001
0010
0001
0000
0100
0000
0010
0000
1000
0100
,  // measure 53
1000
0000
0001
0000
1000
0000
0010
0100
0010
0000
1000
0000
0100
0000
0010
0000
,  // measure 54
0001
0000
1000
0000
0001
0000
0010
0100
1000
0000
0010
0000
1000
0000
0001
0100
,  // measure 55
0010
0000
0000
0101
0000
0000
1000
0010
1000
0000
0000
0000
0011
0000
0000
0000
,  // measure 56
2002
0000
0000
3003
,  // measure 57
0000
0000
0000
0000
0110
0000
0000
0000
1000
0000
0001
1000
0000
0010
0100
0000
,  // measure 58
0001
0000
0010
0100
0010
0000
0001
0000
1000
0000
0010
0100
0000
0001
0010
0000
,  // measure 59
0001
0000
1000
0000
0100
0000
0010
0000
0100
0000
1000
0010
0000
1000
0001
0000
,  // measure 60
0010
0000
0100
0000
1000
0000
0010
0000
1000
0000
0001
0000
0010
0100
1000
0000
,  // measure 61
0002
0000
0000
0000
0103
0000
0010
0000
1000
0000
0001
0010
0000
0100
0010
0000
,  // measure 62
0001
0000
1000
0000
0010
0000
0100
0010
0100
0000
0001
0010
0001
0000
0000
0000
,  // measure 63
1100
0000
0000
0000
0001
0000
0000
1001
0000
0000
0100
0010
0100
0000
0001
0010
,  // measure 64
0000
0000
0100
0000
1000
0000
0010
0100
0000
0000
0001
0000
1000
0001
1000
0001
,  // measure 65
1000
0000
0010
0000
1000
0000
0100
0000
0010
0001
0010
0001
0010
0000
0100
0000
,  // measure 66
1000
0010
1000
0010
1000
0000
0001
0000
0100
0010
0100
0010
0100
0000
0001
0000
,  // measure 67
1001
0000
0000
0000
0100
0000
0010
0000
1000
0100
1000
0100
1000
0000
0001
0000
,  // measure 68
0010
0100
0010
0100
0010
0000
0100
0000
1000
0001
1000
0001
1000
0000
0010
0000
,  // measure 69
0100
0010
0100
0000
0220
0000
0000
0000
0000
0000
0000
0000
0000
0000
0000
0000
,  // measure 70
0000
0000
0000
0000
,  // measure 71
0000
0000
0000
0330
;
