#TITLE:月雪に舞う花のように;
#SUBTITLE:;
#ARTIST:猫叉Master;
#TITLETRANSLIT:Tsukiyuki ni mau hana no youni;
#SUBTITLETRANSLIT:;
#ARTISTTRANSLIT:Nekomata Master;
#GENRE:FOREST SNOW;
#CREDIT:;
#BANNER:Tsukiyuki_ni_mau_hana_no_youni_banner.png;
#BACKGROUND:Tsukiyuki_ni_mau_hana_no_youni.png;
#LYRICSPATH:;
#CDTITLE:;
#MUSIC:Tsukiyuki ni mau hana no youni.ogg;
#OFFSET:-0.730000;
#SAMPLESTART:31.570000;
#SAMPLELENGTH:15.230000;
#LASTBEATHINT:262.500000;
#SELECTABLE:YES;
#DISPLAYBPM:70.000000:125.000000;
#BPMS:0.000000=70.000000
,16.000000=126.060005
,40.000000=126.099998
,48.000000=125.999992
;
#STOPS:
;
#BGCHANGES:;
#KEYSOUNDS:;
#ATTACKS:;

//---------------dance-single - ----------------
#NOTES:
     dance-single:
     :
     Easy:
     4:
     0.152441,0.193780,0.088924,0.170437,0.000000,144.000000,132.000000,12.000000,23.000000,0.000000,0.000000,0.152441,0.193780,0.088924,0.170437,0.000000,144.000000,132.000000,12.000000,23.000000,0.000000,0.000000:
0000
0000
0000
0000
,
0000
0000
0000
0000
,
0100
0000
0010
0100
,
0010
0000
1000
0001
,
0000
0000
0000
0000
,
0010
0100
0010
0000
,
1000
0100
1000
0000
,
0002
0000
0003
0000
,
0110
0000
0000
0000
,
1000
0010
1000
0000
,
0001
0010
0001
0000
,
0200
0000
0300
0000
,
1001
0000
0000
0000
,
0010
0000
1000
0100
,
1000
0000
0001
0010
,
0002
0000
0000
0003
0000
0000
0000
0000
,
2000
0000
0000
3000
0000
0000
0000
0000
,
0100
0001
0100
0000
,
0010
1000
0010
0000
,
0100
0000
0010
0000
,
2002
0000
0000
3003
0000
0000
0000
0000
,
0001
0000
0010
0000
,
0100
0000
1000
0000
,
0010
0000
0020
0000
,
0030
1000
0001
1000
,
0100
0000
1001
0000
,
0020
0000
0030
0000
,
0100
0000
0200
0000
,
0300
0001
1000
0001
,
0010
0000
0110
0000
,
1000
0000
0001
0000
,
1000
0000
2200
0000
,
3300
0001
0010
0001
,
0100
0000
0101
0000
,
0020
0000
0030
0000
,
0001
0000
0022
0000
,
0033
1000
0100
1000
,
0010
0000
0100
0000
,
0002
0000
0003
0000
,
1000
0000
0100
0000
,
0010
0000
0001
0000
,
0010
0000
0001
0000
,
0100
0000
0010
0000
,
1000
0000
0001
0000
,
0010
0000
0100
0000
,
1001
0000
0000
0000
,
0100
0000
0000
0000
,
0000
0000
0010
0000
,
0010
0100
0010
0000
,
1000
0100
2000
0000
,
3001
0000
0020
0000
,
0030
0000
0001
0000
,
0010
0001
0010
0000
,
0100
1000
0100
0000
,
1000
0000
0000
0000
2002
0000
0000
3003
,
0000
0000
0010
0100
,
0010
0000
1000
0001
,
1000
0000
0001
0000
,
0022
0000
0033
0000
,
1000
0000
0100
1000
,
0010
0000
0100
0001
,
0010
0000
0001
0000
,
1000
0000
2002
0000
,
3003
0000
0100
0000
,
0100
0000
0100
0000
,
0100
0000
0010
0010
0000
0000
0000
0000
;

//---------------dance-single - ----------------
#NOTES:
     dance-single:
     :
     Medium:
     8:
     0.267830,0.314892,0.170437,0.303823,0.044462,253.000000,230.000000,23.000000,41.000000,0.000000,0.000000,0.267830,0.314892,0.170437,0.303823,0.044462,253.000000,230.000000,23.000000,41.000000,0.000000,0.000000:
0000
0000
0000
0000
,
0000
0000
0000
0000
,
0200
0000
0310
1000
0001
0000
0010
0000
,
0002
0000
1003
0010
0100
0000
0220
0000
,
0000
0000
0330
0000
,
1001
0000
0010
0100
0001
0000
0010
0000
,
0001
0000
1000
0010
0100
0000
0001
0000
,
1000
2002
0000
0000
,
3003
0000
0000
0100
,
0010
0000
1000
0100
0010
0000
0001
0000
,
1000
0000
0001
0010
0100
0000
1000
0000
,
0220
0000
0000
0000
0000
0330
0000
0000
,
1001
0000
0000
0000
,
0001
0000
0000
0010
0001
0000
0000
0000
0010
0000
0000
0000
0100
0000
0000
0000
,
1000
0000
0000
0010
1000
0000
0000
0000
0100
0000
0000
0000
0010
0000
0000
0000
,
0001
2002
0000
3003
,
0000
0100
0010
1000
,
0001
0000
0000
0100
0001
0000
0000
0000
0010
0000
0000
0000
0001
0000
0000
0000
,
1000
0000
0000
0100
1000
0000
0000
0000
0010
0000
0000
0000
1000
0000
0000
0000
,
0220
0000
0000
0000
0000
0330
0000
0000
,
0001
0010
0100
1000
,
0002
0000
0203
0000
,
0320
0000
1030
0000
,
1100
0000
0000
0001
0010
0000
0001
0000
,
0100
0010
1000
0001
,
1000
0000
0000
0010
0100
0000
0001
0000
,
0022
0000
0000
0000
0000
0033
0000
0000
,
1001
0000
0000
0100
0010
0000
1000
0000
,
0100
0000
1000
0000
0001
1000
0001
0000
,
0200
0000
0320
0000
,
1030
0001
1001
0000
,
0101
0000
0000
0010
1000
0000
0100
0000
,
1000
0001
0010
0100
,
1001
0000
0000
1000
0010
0000
0100
0000
,
0001
1000
0001
0010
,
0101
0000
0000
1000
0010
0000
1000
0000
,
0001
0010
0100
1000
,
0010
1000
0100
0001
,
0020
0000
0000
0030
,
0002
0000
0000
0000
1003
0000
0100
1000
,
0100
0000
1000
0000
0010
0000
0100
0001
,
0020
0000
0000
0000
0031
0000
1000
0010
,
0200
0000
0310
1000
,
1001
0000
0000
0000
0010
0000
0001
1000
,
0001
0010
0100
1000
,
2020
3030
0022
0033
,
2002
3003
0220
0000
,
0330
0000
0000
0000
0000
0000
0000
0000
1000
0000
0000
0010
0100
0000
0000
0000
,
0010
0000
0000
0000
1000
0000
0000
0000
0100
0000
0000
0010
0001
0000
0000
0000
,
0100
0001
1000
2002
,
0000
3003
0010
0100
,
1000
0000
0001
0000
1000
0000
0000
0000
0010
0000
0000
1000
0010
0000
0000
0000
,
0100
0000
0000
0000
0001
0000
0000
0000
0010
0000
0000
0001
0010
0000
0000
0000
,
0100
1000
0020
0000
,
0130
0001
2002
0000
,
0000
0000
3003
0000
0000
0000
0000
0000
0100
0000
0000
0100
0010
0000
0000
0000
,
1000
0000
0001
0000
1000
0000
0000
0000
0010
0000
0000
0100
0001
0000
0000
0000
,
0010
0001
0010
0000
0100
0000
2200
0000
,
0000
3300
0001
1000
,
0010
0000
0000
0000
0100
0000
0000
0000
0001
0000
0000
0010
0001
0000
0000
0000
,
1000
0000
0100
0000
1000
0000
0000
0000
0010
0000
0000
1000
0010
0000
0000
0000
,
0100
0001
0100
0000
0020
0000
0000
0000
,
1030
0001
0010
0001
,
1000
0001
1000
0001
0200
0000
0000
0000
,
0320
0000
1030
0001
,
0011
0000
1000
0010
0000
0000
0000
0000
;

//---------------dance-single - ----------------
#NOTES:
     dance-single:
     :
     Hard:
     14:
     0.551539,0.532894,0.103744,0.281592,0.403862,521.000000,507.000000,14.000000,38.000000,0.000000,0.000000,0.551539,0.532894,0.103744,0.281592,0.403862,521.000000,507.000000,14.000000,38.000000,0.000000,0.000000:
// measure 0
0000
0000
0000
0000
,  // measure 1
0000
0000
0000
0000
,  // measure 2
0020
0000
0000
0000
0000
0000
0000
0000
0130
0000
0000
0000
0001
0000
0000
0000
0020
0000
0000
0000
0000
0000
0130
1000
0001
0000
0000
0000
0100
0000
0000
0000
,  // measure 3
0010
1000
0001
0010
0012
1003
2200
0000
,  // measure 4
0000
0000
3300
0001
,  // measure 5
0100
0000
0000
0010
0100
0000
0000
0010
1000
0000
0100
0000
0010
0000
0001
0000
,  // measure 6
1000
0000
0000
0010
1000
0000
0000
0010
1000
0000
0001
0000
0010
0000
0100
0000
,  // measure 7
0010
0000
0000
0001
0200
0000
0000
0000
0010
0000
0000
0010
0000
0000
0020
0000
,  // measure 8
0000
0000
0330
1001
,  // measure 9
1000
0000
0000
0001
0010
0000
0000
0001
1000
0000
0010
0000
0100
0000
0001
0000
,  // measure 10
0010
0000
0000
0100
1000
0000
0000
0010
1000
0000
0001
0000
1000
0000
0100
0000
,  // measure 11
0020
0000
0001
0000
0001
0000
0030
0000
0200
0000
0000
1000
0000
0000
1300
0000
,  // measure 12
1100
0000
0000
0101
,  // measure 13
1000
0000
0000
0001
0010
0000
0000
0001
0100
0000
0010
0000
0100
0000
1000
0000
,  // measure 14
0100
0000
0000
0001
0010
0000
0000
0001
1000
0000
0100
0000
0010
0000
0100
0000
,  // measure 15
1000
0000
0000
0010
0100
0000
0010
0000
0100
0000
0000
0011
0000
0000
1000
0000
,  // measure 16
0001
0000
0010
0000
0100
0000
1000
0000
0010
0000
0000
0100
0001
0000
0000
0010
,  // measure 17
0001
0000
0000
1000
0010
0000
0000
1000
0001
0000
0100
0000
0010
0000
0100
0000
,  // measure 18
0001
0000
0000
0010
0100
0000
0000
1000
0010
0000
0100
0000
0001
0000
1000
0000
,  // measure 19
0020
0000
0100
0000
0130
0000
0010
0000
1000
0000
0001
1000
0000
0001
1000
0000
,  // measure 20
0001
0000
0010
0000
0100
0000
1000
0000
0001
0000
1000
0100
0010
0000
0000
0000
,  // measure 21
0012
0000
0010
0000
0000
2003
0000
0000
0010
0000
3010
0000
0000
0200
0000
0000
,  // measure 22
0310
0000
0020
0000
0000
2030
0000
0000
3100
0000
0010
0001
0010
0000
0000
0000
,  // measure 23
0001
0000
1000
0000
0100
0000
1000
0010
0100
0000
0001
0000
0010
0000
0001
0000
,  // measure 24
1000
0000
0001
0010
0001
0000
0100
0000
0010
0000
1000
0100
1000
0000
0010
0000
,  // measure 25
0100
0000
0010
0000
1000
0000
0001
0010
0100
0000
1000
0000
0010
0000
1000
0000
,  // measure 26
0010
0000
0000
0010
0100
0000
0000
0100
1000
0000
0000
1000
0001
0000
0010
0001
,  // measure 27
0010
0000
1000
0000
0100
0000
0010
0100
0010
0000
0001
0000
0010
0000
0100
0000
,  // measure 28
1000
0000
0010
1000
0010
0000
0100
0000
0001
0000
0010
0000
1000
0000
0010
0000
,  // measure 29
0002
0000
1000
0000
1003
0000
0100
0010
0200
0000
1000
0000
1300
0000
0010
0000
,  // measure 30
0100
0000
0000
0100
0010
0000
0000
0010
0001
0000
0000
0001
1000
0000
0000
0000
,  // measure 31
1000
0000
0001
0000
1000
0000
0001
0010
0100
0000
0001
0000
0010
0000
0001
0000
,  // measure 32
0100
0000
0010
0100
0010
0000
1000
0000
0100
0000
0010
0001
0010
0000
0100
0000
,  // measure 33
0010
0000
0100
0000
1000
0000
0001
0010
0100
0000
0001
0000
0100
0000
0001
0000
,  // measure 34
0100
0000
0000
0100
0010
0000
0000
0010
0001
0000
0000
0001
1000
0000
0100
1000
,  // measure 35
0100
0000
0010
0000
0001
0000
0100
0010
0100
0000
1000
0000
0100
0000
0010
0000
,  // measure 36
0001
0000
0010
0001
0010
0000
0100
0000
1000
0000
0100
0000
0001
0000
0100
0000
,  // measure 37
0002
0000
1000
0000
1003
0000
0100
0010
0200
0000
1000
0000
1300
0000
0010
0000
,  // measure 38
0100
0000
0000
0100
0001
0000
0000
0001
0010
0000
0000
0010
2000
0000
0000
0000
,  // measure 39
3010
0000
0001
0100
0001
0000
1000
0000
0010
0000
1000
0000
0100
0000
0010
0000
,  // measure 40
0001
0000
1000
0100
1000
0000
0010
0000
1000
0000
0100
0000
0010
0000
0001
0000
,  // measure 41
1000
0000
0010
0100
0010
0000
0100
0000
0001
0000
0010
0000
0100
0000
1000
0000
,  // measure 42
0010
0000
1000
0001
1000
0000
0100
0000
0010
0000
0001
0000
0020
0000
0000
0000
,  // measure 43
0031
0000
1000
0010
1000
0000
0001
0000
0010
0000
0001
0000
0010
0000
1000
0000
,  // measure 44
0010
0000
0001
0100
0001
0000
1000
0000
0010
0000
0100
0000
1000
0000
0100
0000
,  // measure 45
0220
0330
0022
0033
,  // measure 46
2200
3300
2002
0000
,  // measure 47
3003
0000
0000
0000
0110
0000
0000
0000
1000
0000
0001
0010
0100
0000
1000
0000
,  // measure 48
0010
0000
0000
0010
1000
0000
0001
0000
0010
0000
0001
1000
0100
0000
0010
0000
,  // measure 49
0001
0000
0000
0001
0100
0000
0001
0000
0010
0000
0100
1000
0200
0000
1300
0000
,  // measure 50
0020
0000
0130
0000
0002
0000
0013
0000
0001
0000
0100
0010
1000
0000
0100
0000
,  // measure 51
1000
0000
0010
0100
0001
0000
0010
0000
0001
0000
0010
0100
1000
0000
0000
0010
,  // measure 52
1000
0000
0001
0010
0001
0000
1000
0000
0010
0000
0100
0001
0010
0000
0000
0001
,  // measure 53
0010
0000
0100
0000
1000
0000
0000
0010
2000
0000
0100
0000
3100
0000
0010
0000
,  // measure 54
0200
0000
1000
0000
1300
0000
0010
0000
0100
0000
0001
0010
0100
0000
1000
0000
,  // measure 55
0010
0000
0000
0000
0000
0000
0100
0000
0000
0001
0000
0000
0020
0000
0000
0000
0000
0000
0000
0000
0000
0000
0000
0000
0031
0000
0000
0000
0000
0000
0000
0000
1000
0000
0010
0000
0100
0000
0000
0000
0000
0000
0000
0000
0001
0000
0010
0000
,  // measure 56
0100
0000
0000
1000
0000
0000
0100
0000
0000
0001
0000
0000
0100
0000
0000
0000
1000
0010
0100
0000
0000
0000
0001
0010
,  // measure 57
0100
0000
0010
0000
0001
0000
0000
1000
0010
0000
0100
0010
0100
0000
0001
0000
,  // measure 58
0010
0000
0010
0000
0100
0000
0010
0000
0001
0000
1000
0010
0100
0000
0001
0000
,  // measure 59
1000
0000
0000
0000
0000
0000
0100
0000
0000
0010
0000
0000
0002
0000
0000
0000
0000
0000
0000
0000
0000
0000
0000
0000
1003
0000
0000
0000
0000
0000
0000
0000
0010
0000
0100
0000
0001
0000
0000
0000
0000
0000
0000
0000
0000
0010
0000
0000
,  // measure 60
0100
0000
0000
0000
0000
0000
1000
0000
0000
0000
0000
0000
0100
0000
0000
0000
0000
0000
0001
0000
0000
0000
0000
0000
0100
0000
0000
0000
0000
0000
0000
0000
1000
0000
0010
0000
0100
0000
0000
0000
0000
0000
0000
0000
0000
0010
0000
0000
,  // measure 61
0100
0000
0001
0000
0010
0000
0000
0001
2000
0000
0010
0000
3010
0000
0100
0000
,  // measure 62
0020
0000
1000
0000
1030
0000
0100
0000
0010
0000
0001
0010
0100
0000
1000
0000
,  // measure 63
0010
0100
0001
0000
0010
0100
1000
0000
0001
0000
0010
0000
0001
0100
0000
0100
,  // measure 64
0010
0000
1000
0000
0100
0010
0000
0010
0100
0000
1000
0000
0010
0100
0000
0100
,  // measure 65
1000
0100
0110
1001
0000
0000
0000
0000
;
