#TITLE:Tropical Love;
#SUBTITLE:;
#ARTIST:CHEAP CREAM;
#TITLETRANSLIT:;
#SUBTITLETRANSLIT:;
#ARTISTTRANSLIT:;
#GENRE:;
#CREDIT:;
#BANNER:Tropical Love_banner.png;
#BACKGROUND:Tropical Love.png;
#LYRICSPATH:;
#CDTITLE:;
#MUSIC:Tropical Love.ogg;
#OFFSET:-0.750000;
#SAMPLESTART:19.030001;
#SAMPLELENGTH:18.100000;
#LASTBEATHINT:192.517502;
#SELECTABLE:YES;
#BPMS:0.000000=105.000000
;
#STOPS:
;
#BGCHANGES:;
#KEYSOUNDS:;
#ATTACKS:;

//---------------dance-single - ----------------
#NOTES:
     dance-single:
     :
     Easy:
     3:
     0.138362,0.167094,0.052353,0.122158,0.000000,111.000000,105.000000,6.000000,14.000000,0.000000,0.000000,0.138362,0.167094,0.052353,0.122158,0.000000,111.000000,105.000000,6.000000,14.000000,0.000000,0.000000:
0000
0000
0000
0000
,
0000
0000
0000
0000
,
0000
0000
0000
0000
,
0000
0000
0000
0000
,
1000
0000
1000
0000
,
0001
0000
0001
0000
,
0010
0000
0100
0000
,
0220
0000
0330
0000
,
0001
0010
0001
0000
,
1000
0100
1000
0000
,
0010
0100
0010
0000
,
1000
0000
1001
0000
,
0010
0001
0010
0000
,
0100
1000
0100
0000
,
1000
0000
0010
0100
,
0002
0000
1003
0000
,
0010
0000
0010
0000
,
0100
0000
0100
0000
,
0001
0000
0001
0000
,
1000
0000
1000
0000
,
0010
0000
0010
0100
,
0010
0000
1000
0001
,
1000
0000
0100
0000
,
0220
0000
0330
0000
,
0001
0100
0001
0000
,
1000
0010
1000
0000
,
0001
0100
0010
0000
,
1000
0100
0010
0000
,
0001
0000
0001
1000
,
0100
0000
0010
0100
,
1000
0000
0001
0000
,
2002
0000
3003
0000
,
0100
0000
0100
0100
,
0010
0000
0010
0010
,
1000
0000
0001
0001
,
0100
0000
0110
0000
,
0001
0000
1000
0100
,
1000
0000
0010
0010
,
0100
0000
0001
1000
,
0200
0000
0310
0000
,
0001
0000
0001
0000
,
1000
0000
1000
0000
,
0010
0000
0010
0000
,
0100
0000
0100
0000
,
0002
0000
0023
0000
,
0230
0000
2300
0000
,
3010
0000
0100
0000
,
0001
0000
0000
0000
2002
0000
0000
3003
;

//---------------dance-single - ----------------
#NOTES:
     dance-single:
     :
     Medium:
     7:
     0.233097,0.291651,0.113432,0.253041,0.000000,187.000000,174.000000,13.000000,29.000000,0.000000,0.000000,0.233097,0.291651,0.113432,0.253041,0.000000,187.000000,174.000000,13.000000,29.000000,0.000000,0.000000:
// measure 0
0000
0000
0000
0000
,  // measure 1
0000
0000
0000
0000
,  // measure 2
0000
0000
0000
0000
,  // measure 3
0000
0000
0000
0000
,  // measure 4
0001
0000
0001
0010
0001
0000
0001
0000
,  // measure 5
1000
0000
1000
0010
1000
0000
1000
0000
,  // measure 6
0010
0000
0010
0100
0010
0000
0010
0000
,  // measure 7
2002
0000
3003
0000
,  // measure 8
0010
1000
0010
0000
0100
0000
1001
0000
,  // measure 9
1000
0100
0010
0000
0100
0000
0110
0000
,  // measure 10
0001
0010
0100
0000
0010
0100
1000
0000
,  // measure 11
0002
0203
0320
2030
,  // measure 12
3001
0000
0010
0001
0010
0000
0001
0000
,  // measure 13
1000
0000
0010
1000
0010
0000
1000
0000
,  // measure 14
0010
0100
0010
0000
1000
0001
1000
0000
,  // measure 15
2002
0000
0000
0000
0000
3003
0000
0000
,  // measure 16
0010
0000
0010
0100
0010
0000
0100
0000
,  // measure 17
0001
0000
0001
0010
0001
0000
0010
0000
,  // measure 18
0100
0000
0100
1000
0100
0000
1000
0000
,  // measure 19
0001
0000
1000
0001
1000
0000
0001
0000
,  // measure 20
0200
0010
0000
0310
,  // measure 21
2000
0001
0000
3001
,  // measure 22
0001
0010
0100
1000
,  // measure 23
0202
0000
0000
0303
0000
0000
0000
0000
,  // measure 24
0010
0100
0010
0000
1000
0000
1100
0000
,  // measure 25
0001
0010
0001
0000
1000
0000
1010
0000
,  // measure 26
0100
0001
0100
0000
0001
0010
0001
0000
,  // measure 27
2000
3200
0320
0032
,  // measure 28
1003
0000
0010
1000
0010
0000
1000
0000
,  // measure 29
0001
0000
0100
0001
0100
0000
0001
0000
,  // measure 30
1000
0010
0100
0000
0010
0100
0001
0000
,  // measure 31
2200
0000
0000
3300
,  // measure 32
0000
0001
0000
0001
0000
0001
0000
0001
,  // measure 33
0010
2002
0000
3003
,  // measure 34
0000
1000
0000
1000
0000
1000
0000
1000
,  // measure 35
0010
2002
0000
3003
,  // measure 36
0000
0100
0000
0100
0000
0100
0000
0100
,  // measure 37
0010
2002
0000
3003
,  // measure 38
0000
0010
0000
0010
0000
0010
0000
0010
,  // measure 39
0100
2002
0000
3003
,  // measure 40
0100
0010
1000
0100
,  // measure 41
0010
0001
1000
0001
,  // measure 42
0100
0010
0001
0010
,  // measure 43
1000
0100
0001
0100
,  // measure 44
0020
0001
0000
0031
,  // measure 45
2000
0010
0000
3010
,  // measure 46
0002
0100
0000
0103
,  // measure 47
1000
0100
0010
0110
;

//---------------dance-single - ----------------
#NOTES:
     dance-single:
     :
     Hard:
     12:
     0.415087,0.395813,0.253041,0.130883,0.244315,333.000000,304.000000,29.000000,15.000000,0.000000,0.000000,0.415087,0.395813,0.253041,0.130883,0.244315,333.000000,304.000000,29.000000,15.000000,0.000000,0.000000:
0000
0000
0000
0000
,
0000
0000
0000
0000
,
0000
0000
0000
0000
,
0000
0000
0000
0000
,
0010
0001
1000
0001
0100
0010
1000
0000
,
0001
0010
0100
1000
0010
0100
0001
0000
,
1000
0010
0100
0001
0010
0100
1000
0000
,
0001
0000
0000
0101
0000
0000
0010
0000
1000
0100
1000
0000
0020
0000
0000
0000
,
0130
0000
0001
0000
1000
0000
0100
0000
0010
0000
0001
0100
0000
0010
1000
0000
,
0100
0000
1000
0000
0001
0000
0100
0000
0010
0000
1000
0100
0000
0000
1000
0000
,
0010
0000
0100
0000
0001
0000
1000
0000
0001
0000
0010
0100
0000
1000
0000
0001
,
0000
1000
0010
0100
0010
1000
0001
0010
,
0100
0000
1000
0000
0001
0000
1000
0000
0010
0000
0100
0010
0000
0100
0010
0000
,
1000
0000
0100
0000
0010
0000
0100
0000
1000
0000
0001
0010
0000
0001
0010
0000
,
0001
0000
0100
0000
1000
0000
0100
0000
0010
0000
1000
0100
0000
0010
0000
0001
,
0000
0010
0200
0000
0000
0000
0000
0000
1000
0000
0000
0000
1300
0000
0000
0000
,
1000
0000
0001
0000
0010
0000
0001
0000
0100
0000
0010
0100
0000
0010
0100
0000
,
0001
0000
1000
0000
0100
0000
0010
0000
0100
0000
1000
0001
0000
0100
0000
0000
,
0020
0000
0000
0000
0130
0000
0001
0000
1000
0000
0100
0010
0000
0001
0000
0000
,
1000
0010
0100
0010
1000
0001
1001
0000
,
0010
0000
0100
0000
0001
0000
1000
0000
0001
0000
0010
0100
0000
1000
0100
0000
,
1000
0000
0010
0000
0100
0000
0001
0000
0010
0000
0001
0010
0000
0100
1000
0000
,
0010
0000
0110
0000
1000
0001
0010
0100
,
2000
0000
0000
3001
0100
0010
0110
0000
,
1000
0000
0001
0000
0010
0000
0100
0000
0010
0000
0001
0100
0000
0010
1000
0000
,
0100
0000
1000
0000
0001
0000
0010
0000
0001
0000
0100
0020
0000
0000
0130
0000
,
0001
0000
1000
0000
0100
0000
0001
0000
0100
0000
1000
0010
0000
0100
0000
0001
,
0000
0010
0100
1000
0001
0100
0110
0000
,
0001
0000
1000
0000
0010
0000
1000
0000
0001
0000
0100
0010
0000
1000
0100
0000
,
1000
0000
0010
0000
0100
0000
0010
0000
1000
0000
0001
0010
0000
0100
1000
0000
,
0001
0000
0010
0000
0100
0000
0010
0000
0001
0000
1000
0010
0000
0100
0000
0010
,
0000
1000
0002
0000
0000
0000
0000
0000
0010
0000
0000
0000
1003
0000
0000
0000
,
0000
0000
1010
0000
0000
0000
1010
0000
0000
0000
1010
0000
0000
0100
0001
0100
,
0000
0010
0020
0000
1000
0000
1030
0000
,
0000
0000
0011
0000
0000
0000
0011
0000
0000
0000
0011
0000
0000
0100
1000
0100
,
0000
0010
0020
0000
0001
0000
0031
1000
,
0001
0000
1001
0000
0000
0000
0110
0000
0000
0000
1001
0000
0000
0010
0100
0010
,
0000
1000
2000
0000
0100
0000
3100
0010
,
0000
0000
0101
0000
0000
0000
1010
0000
0000
0000
1100
0000
0000
0001
0010
0001
,
0000
1000
0020
0000
0100
0000
0130
0000
,
1000
0000
0000
1001
0000
0000
0002
0000
0000
0000
0013
0000
0100
0000
0010
0000
,
0001
0000
0000
1000
0000
0000
1020
0000
0000
0000
0130
0000
0001
0000
1000
0000
,
0100
0000
0000
1000
0000
0000
1020
0000
0000
0000
0130
0000
0001
0000
0100
0000
,
0001
0000
0000
0010
0000
0000
0101
0000
0100
0000
0010
0000
1000
0000
0000
0000
,
1100
0000
0000
1000
0000
0000
1002
0000
0000
0000
0100
0000
0103
0000
0000
0000
,
0011
0000
0000
0001
0000
0000
1002
0000
0000
0000
0100
0000
0103
0000
0000
0000
,
0010
0000
0000
0110
0000
0000
1001
0000
0000
0000
1000
0000
0100
0000
0010
0000
,
0001
0000
0000
0011
0000
0000
1100
0000
1000
0000
0001
0000
0100
0000
0000
0000
;
