#TITLE:Timberwolves;
#SUBTITLE:;
#ARTIST:S-C-U;
#TITLETRANSLIT:;
#SUBTITLETRANSLIT:;
#ARTISTTRANSLIT:;
#GENRE:;
#CREDIT:;
#BANNER:Timberwolves_banner.png;
#BACKGROUND:Timberwolves.png;
#LYRICSPATH:;
#CDTITLE:;
#MUSIC:Timberwolves.ogg;
#OFFSET:0.330000;
#SAMPLESTART:61.380001;
#SAMPLELENGTH:10.090000;
#LASTBEATHINT:312.000000;
#SELECTABLE:YES;
#BPMS:0.000000=190.000000
;
#STOPS:192.000000=0.947000,
265.000000=0.158000,
265.250000=0.158000,
265.500000=0.158000,
265.750000=0.158000,
310.500000=0.316000
;
#BGCHANGES:;
#KEYSOUNDS:;
#ATTACKS:;

//---------------dance-single - ----------------
#NOTES:
     dance-single:
     :
     Easy:
     7:
     0.332702,0.448942,0.144354,0.182849,0.000000,242.000000,227.000000,15.000000,19.000000,0.000000,0.000000,0.332702,0.448942,0.144354,0.182849,0.000000,242.000000,227.000000,15.000000,19.000000,0.000000,0.000000:
0000
0000
0000
0000
,
0000
0000
0000
0000
,
0000
0000
0000
0000
,
0000
0000
0000
0000
,
0000
0000
0000
0000
,
1000
0000
0001
0000
0010
0000
0000
0100
,
0000
0100
0000
0000
1000
0000
0000
0001
,
0000
0000
0010
0000
0001
1000
0000
1000
,
0000
0010
0100
0010
,
1000
0000
0100
0000
1000
0000
0000
0001
,
0000
0001
0000
0000
0010
0000
0001
0100
,
0000
0000
0001
0000
1000
0010
0000
0010
,
0000
0100
0001
0100
,
0010
0000
1000
0000
0001
0000
0000
0010
,
0000
0010
0000
0000
0001
0000
1000
0100
,
0000
0000
1000
0000
0010
0100
0000
2002
,
0000
0000
3003
0000
,
0010
0100
0000
0001
,
0000
0010
0001
1000
,
0010
0100
0002
0010
,
0000
1003
0000
0010
,
0100
0010
1000
0100
,
0000
0100
1000
0001
,
0010
0000
0001
0000
1000
0000
0000
0020
,
0000
0000
0030
0000
,
0100
0001
0010
0001
,
1000
0010
0100
0010
,
1000
0100
0010
0001
,
1000
0001
0010
0000
,
0001
0100
0010
1000
,
0100
1000
0010
0100
,
0001
0000
0010
0000
0000
0001
0000
2002
,
0000
0000
3003
0000
,
0200
0000
0000
0300
,
0010
0000
0000
0010
0000
0000
0010
0000
,
1000
0000
0000
0100
0000
0000
2000
0000
,
0000
0000
3000
0000
,
0002
0000
0000
0003
,
0010
0001
1000
0010
,
0100
0001
0010
0100
,
1000
0001
0110
0000
,
2000
0000
0000
3000
,
0001
0000
0000
0010
0000
0000
0001
0000
,
0100
0000
0000
0010
0000
0000
0100
0000
,
0001
0000
1001
0000
,
0100
0000
0000
0110
0000
0000
0010
0000
,
1000
0000
0000
1100
0000
0000
0100
0000
,
1000
0001
0010
0001
,
1000
0010
0100
0010
,
1000
0001
0010
0100
,
1000
0010
0100
0001
,
1000
0001
0010
0100
,
1000
0000
0010
0000
0000
0220
0000
0000
,
0330
0000
0001
0000
0000
2002
0000
0000
,
3003
0100
0010
1000
,
0001
0010
0100
1000
,
0000
1000
0010
0100
,
0001
0010
0100
1000
,
0001
0100
0010
0100
,
0001
0000
0010
0000
0000
0010
0000
0000
,
0010
0000
0001
0000
0000
1001
0000
0000
,
1000
0000
0100
0000
0000
0110
0000
0000
,
0010
0001
0010
0100
,
0010
0001
1000
0010
,
0100
0002
0000
0000
,
0003
2000
0000
0000
,
3000
0000
0010
0010
0020
0000
0030
0000
,
0000
0000
0000
1001
,
0100
0000
0010
0000
0000
0010
0000
0010
,
1000
0100
1000
0001
,
0010
0000
0100
1000
0000
0001
0000
0000
,
0100
0020
0030
1000
,
0001
0000
0010
0000
0000
0100
0000
0100
,
0010
0001
1000
0010
,
0100
0000
0001
0010
0000
0020
0000
0000
,
0000
0030
0000
0000
0000
0000
0011
0000
,
0000
1100
0000
0000
1001
0000
0000
0011
,
0000
0000
1000
0000
0001
1000
0100
0000
;

//---------------dance-single - ----------------
#NOTES:
     dance-single:
     :
     Medium:
     11:
     0.541672,0.673413,0.288709,0.259838,0.019247,394.000000,364.000000,30.000000,27.000000,0.000000,0.000000,0.541672,0.673413,0.288709,0.259838,0.019247,394.000000,364.000000,30.000000,27.000000,0.000000,0.000000:
0000
0000
0000
0000
,
0000
0000
0000
0000
,
0000
0000
0000
0000
,
0000
0000
0000
0000
,
0000
0000
0000
0000
,
1001
0000
0010
0000
0001
0000
1000
0010
,
0000
0110
0000
0000
1000
0000
0100
1000
,
0000
0000
0011
0000
1000
0001
0000
1010
,
0000
0100
0010
0000
0100
0010
0100
0000
,
0001
0010
0100
0000
1000
0010
0100
0010
,
0000
1010
0000
0100
0001
0000
0010
0001
,
0000
0000
0101
0000
0010
1000
0100
1000
,
0000
1001
0000
0100
0010
1000
0010
0000
,
0100
0001
0010
0000
0001
1000
0100
0010
,
0000
0011
0000
1000
0001
0100
0010
1000
,
0000
0001
0010
0000
0001
1000
0100
2000
,
0000
0000
0000
0000
0000
0000
3000
0001
,
0010
0001
1000
0010
0000
0100
0020
0000
,
0000
0000
1030
0100
1000
0001
0010
0001
,
0000
0100
0010
2000
0000
0001
0000
3001
,
0000
0100
0010
0000
0100
0001
0010
0000
,
0001
1000
0100
1000
0000
0010
0100
0002
,
0000
1000
0000
1003
0000
0010
0100
0001
,
0000
0010
0001
1000
0000
0001
0000
2100
,
0000
0000
3010
0000
0100
0010
0100
0000
,
0001
0010
0100
1000
0000
0010
0100
0001
,
0000
0010
0000
0001
1000
0010
0100
0010
,
0000
1000
0100
0020
0000
0001
0000
0031
,
0000
1000
0100
1000
0001
0100
0010
0000
,
1000
0001
0010
0100
0000
0100
0010
0001
,
0000
1000
0000
1010
0000
0010
0100
0010
,
0000
1000
0100
1000
0000
0001
0000
0220
,
0000
0000
0330
0000
,
0022
0000
0000
0033
,
1000
0000
0000
0100
0000
0000
0010
0000
,
0001
0000
0100
0010
0000
1000
0100
0000
,
2000
0000
3001
0000
,
0220
0000
0000
0330
,
0001
1000
0010
0100
,
0001
0010
0100
0000
0010
0100
1000
0000
,
0001
1000
0100
2000
0000
0000
3010
0000
,
0202
0000
0000
0303
,
0010
0000
0000
1000
0000
0000
0001
0000
,
0010
0000
0001
0100
0000
0010
1000
0000
,
0200
0000
2300
0000
,
3010
0000
0100
0010
0000
1000
0100
0000
,
1000
0000
0001
0010
0000
0001
1000
0000
,
0001
0010
0100
1000
0100
0010
0001
1000
,
0020
0030
0000
0000
0100
0000
0010
0000
1000
0000
0000
0000
0100
0000
1000
0000
,
0001
1000
0010
0100
0001
0000
0010
0001
,
1000
0001
0010
0100
1000
0000
0010
0100
,
0001
0000
0010
0000
0001
0000
0000
1000
0000
0000
0001
0000
0100
0000
0010
0000
,
0100
0000
0001
0000
1000
2100
0000
0001
,
3001
0000
0011
0000
0100
0010
1000
0000
,
0001
0000
1000
0010
0100
0000
0010
0100
,
0001
0000
0010
0001
1000
0001
0010
0000
,
1100
0000
0010
0100
0001
0000
0010
0100
,
1000
0001
1000
0010
0100
0000
0010
1000
,
0001
0010
0001
1000
0100
0000
0010
0100
,
1000
0000
0001
0000
0100
0000
0000
0010
0000
0000
0100
0000
0001
0000
1000
0000
,
0100
0000
0010
0000
0001
0012
0000
1000
,
1003
0000
0110
0000
1000
0001
1000
0000
,
0010
0000
0100
0001
0010
0000
0001
1000
,
0100
0000
1000
0010
0100
0001
0010
0100
,
1000
0001
0020
0000
0000
0000
0000
0000
,
0100
0230
0000
0000
,
0310
0000
0000
0000
0001
0010
0100
1000
0220
0000
0000
0000
0330
0000
0000
0000
,
0000
0000
0000
1100
,
0001
0000
0010
0001
1000
0010
0000
0110
,
0000
1000
0001
0010
0001
0100
0000
0001
,
0010
0000
0001
1000
0000
1010
0000
0100
,
1000
0010
0100
0001
0020
0000
0031
1000
,
0100
0000
1000
0010
0100
0001
0000
0011
,
0000
1000
0001
0010
0001
0100
0000
0000
,
1010
0000
0100
0010
1000
0002
0000
0000
,
0000
0000
0003
1100
,
0001
0101
0000
0010
0011
0000
1000
1010
,
0000
1000
0001
1000
0100
0010
1001
0000
;

//---------------dance-single - ----------------
#NOTES:
     dance-single:
     :
     Hard:
     15:
     0.778138,0.897884,0.423439,0.279085,0.394568,566.000000,522.000000,44.000000,29.000000,0.000000,0.000000,0.778138,0.897884,0.423439,0.279085,0.394568,566.000000,522.000000,44.000000,29.000000,0.000000,0.000000:
// measure 0
0000
0000
0000
0000
,  // measure 1
0000
0000
0000
0000
,  // measure 2
0000
0000
0000
0000
,  // measure 3
0000
0000
0000
0000
,  // measure 4
0000
0000
0000
0000
,  // measure 5
1001
0000
0000
0000
0010
0000
0100
0000
0001
0000
0010
0001
1000
0000
0010
0000
,  // measure 6
0000
0000
1100
0000
0000
0000
0001
0000
1000
0000
0010
0100
0001
0000
0010
0000
,  // measure 7
0000
0000
0001
0000
0101
0000
0000
0000
1000
0000
0001
0010
0100
0000
1000
0000
,  // measure 8
0000
0000
0100
0010
0100
0000
1000
0000
0001
0100
0001
0000
0020
0000
0000
0000
,  // measure 9
0031
0000
1000
0100
0010
0000
0100
0000
1000
0000
0001
0100
0010
0000
1000
0000
,  // measure 10
0000
0000
1001
0000
0001
0000
0100
0000
0010
0000
1000
0001
0010
0000
0001
0000
,  // measure 11
0000
0000
0100
0000
0010
1000
0100
0000
1000
0000
0010
0000
0000
0000
0110
0000
,  // measure 12
0000
0000
0001
0010
0100
0000
0010
0000
0001
1000
0100
0000
1000
0000
0010
0000
,  // measure 13
1000
0000
0001
0100
0010
0000
1000
0000
0100
0000
1000
0010
0100
0000
0001
0000
,  // measure 14
0000
0000
0011
0000
0010
0000
0100
0000
1000
0000
0010
0100
0001
0000
0010
0000
,  // measure 15
0100
0000
0010
0001
1000
0000
0001
0000
0100
0010
0100
0010
0100
0000
0002
0000
,  // measure 16
0000
0000
0000
0000
0000
0000
0000
0000
0000
0000
0000
0000
0000
0000
0013
0100
,  // measure 17
1000
0010
0100
0001
0000
1000
1001
0001
,  // measure 18
0000
0000
0100
0000
0010
0000
1000
0001
0010
0000
0100
0000
1000
0000
0010
0000
,  // measure 19
0100
0010
1000
0100
0000
0110
0000
0011
,  // measure 20
0000
0000
1000
0001
0010
0000
0001
0000
1000
0001
0010
0000
0001
0000
0100
0010
,  // measure 21
1000
0001
0010
0100
0000
1000
0010
0110
,  // measure 22
0000
0101
0000
0010
1000
0100
1000
1001
,  // measure 23
0000
0001
0100
0110
0000
1010
0000
0101
,  // measure 24
0000
0000
0010
0100
0010
0000
0100
0000
0001
0010
0100
0000
1000
0000
0010
0100
,  // measure 25
0001
0010
0100
1000
0000
0010
0100
0001
,  // measure 26
0000
0000
1001
0000
0000
0000
0100
0010
1000
0000
0001
0000
0010
0000
0001
0000
,  // measure 27
0100
0010
1000
0200
0000
1300
0010
0100
,  // measure 28
0001
0000
0010
0001
0100
0000
0001
0000
0010
0001
0100
0000
0010
0000
1000
0100
,  // measure 29
0010
0100
1000
0010
0000
0100
0010
0110
,  // measure 30
0000
1010
0000
0100
0010
1000
0001
1001
,  // measure 31
0000
0000
0010
0000
0100
0000
0010
1000
0100
0000
1000
0000
0000
0000
0022
0000
,  // measure 32
0000
0000
0000
0033
,  // measure 33
2200
0000
0000
3000
,  // measure 34
0001
0000
0000
0010
0000
0000
1300
0000
,  // measure 35
1010
0000
0100
0010
0000
1000
0001
0000
,  // measure 36
2000
0000
0000
0000
0000
0000
3020
0000
0000
0000
0000
0000
0031
0000
0010
0100
,  // measure 37
0002
0000
0000
0000
,  // measure 38
2003
3200
0302
0203
,  // measure 39
1300
0010
0100
0001
0010
0100
1000
0010
,  // measure 40
0100
0000
0001
0000
1000
0000
0200
0000
0000
0000
0000
0000
0310
0000
0001
0010
,  // measure 41
0200
0000
0000
1000
0000
0000
0310
0000
,  // measure 42
0012
0000
1000
1000
0000
0000
0103
0000
,  // measure 43
2010
0000
0100
0100
0000
0001
3001
0000
,  // measure 44
0010
0000
0100
0000
1000
0000
0001
0000
0010
0000
0100
0000
0010
0000
0001
1000
,  // measure 45
0100
1000
0010
0200
0000
0310
0110
0000
,  // measure 46
1000
0001
0010
0210
0000
1000
1300
0001
,  // measure 47
0100
0000
0010
0000
1000
0000
0001
0000
0010
0100
1000
0001
0010
0100
1000
0001
,  // measure 48
0200
0300
0010
1000
0100
0000
1000
0000
0001
0000
0010
0000
0001
0000
1000
0100
,  // measure 49
0010
0100
1000
0000
0010
0000
0100
0000
0001
0000
0010
0000
0001
0000
0010
0001
,  // measure 50
1000
0001
0010
0000
0001
0000
0100
0010
0100
0000
0001
0000
1000
0010
1000
0000
,  // measure 51
0001
0000
0010
0000
0100
0000
1000
0100
0000
1000
0100
0000
1000
0000
0001
0010
,  // measure 52
0001
0000
0100
0000
0010
0000
1000
0100
0010
0000
0110
0000
0000
0000
0001
0000
,  // measure 53
0001
0000
1010
0000
0001
0100
0010
1000
,  // measure 54
0100
0010
0100
1000
0010
0100
0001
0010
,  // measure 55
0001
0000
1000
0000
0010
0000
0100
0010
0000
0100
0010
0000
1000
0000
0001
1000
,  // measure 56
0000
0001
1000
0001
0100
0000
0010
0000
0100
0000
0001
0000
0100
0000
0010
1000
,  // measure 57
0100
1000
0010
0000
0100
0000
0001
0000
0010
0000
0001
0000
0100
0000
0001
0010
,  // measure 58
0100
0010
0001
0000
1000
0000
0001
0010
0001
0000
1000
0000
0010
0100
0010
0000
,  // measure 59
1000
0000
0100
0000
1000
0000
0001
0100
0000
0010
0100
0000
0001
0010
0100
0000
,  // measure 60
1000
0000
0010
0000
0100
0000
0001
0010
0001
0000
0011
0000
0000
0000
1000
0000
,  // measure 61
1000
0000
0110
0000
0001
1000
0100
1000
,  // measure 62
0010
0100
0001
0100
1000
0100
0010
1000
,  // measure 63
0100
1000
0001
0000
0010
0000
0001
0010
0000
0001
0010
0000
0100
0000
1000
0100
,  // measure 64
0000
1000
0100
1000
0020
0000
0000
0000
1000
0000
0000
0000
0100
0000
0000
0000
,  // measure 65
1030
0200
0001
0010
,  // measure 66
0301
0000
0000
0000
1010
0101
0011
0110
2002
0000
0000
0000
3003
0000
0000
0000
,  // measure 67
0000
0000
0000
0110
,  // measure 68
1000
0000
0010
0000
1000
0000
0001
0010
0100
0000
1000
0000
0001
0000
0011
0000
,  // measure 69
0000
0000
0100
0000
0001
0000
1000
0010
0100
0000
0001
0000
0000
0000
1010
0000
,  // measure 70
1000
0000
0100
0000
0010
0000
0100
0010
0100
0000
2000
0000
0000
0000
3001
0100
,  // measure 71
0001
0000
0010
0000
0100
1000
0100
0000
0020
0000
0000
0000
0031
0000
1000
0000
,  // measure 72
0100
0000
1000
0000
0010
0000
0100
0001
0010
0000
0001
0000
0000
0000
1001
0000
,  // measure 73
1000
0000
0010
0000
0100
0000
0001
0010
0100
0000
2000
0000
0000
0000
3010
0000
,  // measure 74
0100
0000
0010
0000
1000
0010
0100
0001
0010
0000
0002
0000
0000
0000
0000
0000
,  // measure 75
0000
0000
0000
0000
0003
0000
1010
0100
,  // measure 76
0000
0011
0100
0000
1100
0010
0000
0101
,  // measure 77
0010
0000
0000
0000
0100
0000
0010
0100
0001
1000
0100
0000
0011
0000
0000
0000
;
