#TITLE:Thunderbolt;
#SUBTITLE:;
#ARTIST:雷龍;
#TITLETRANSLIT:;
#SUBTITLETRANSLIT:;
#ARTISTTRANSLIT:Rairyu;
#GENRE:RAVERS DANCE SPEED;
#CREDIT:;
#BANNER:Thunderbolt_banner.png;
#BACKGROUND:Thunderbolt.png;
#LYRICSPATH:;
#CDTITLE:;
#MUSIC:Thunderbolt.ogg;
#OFFSET:-0.201000;
#SAMPLESTART:55.090000;
#SAMPLELENGTH:10.200000;
#LASTBEATHINT:376.500000;
#SELECTABLE:YES;
#BPMS:0.000000=188.000000
;
#STOPS:
;
#BGCHANGES:;
#KEYSOUNDS:;
#ATTACKS:;

//---------------dance-single - ----------------
#NOTES:
     dance-single:
     :
     Easy:
     9:
     0.420261,0.422479,0.163435,0.187950,0.000000,360.000000,340.000000,20.000000,23.000000,0.000000,0.000000,0.420261,0.422479,0.163435,0.187950,0.000000,360.000000,340.000000,20.000000,23.000000,0.000000,0.000000:
0000
0000
0000
0000
,
0000
0000
0000
0000
,
0000
0000
0000
0000
,
1000
0010
0100
0000
,
0010
1000
0100
0000
,
1000
0010
0100
0000
,
0010
1000
0010
0100
,
0001
0010
0100
0000
,
0010
0001
0100
0000
,
0010
0100
0001
1000
,
2002
0000
0000
3003
,
0100
0010
1000
0010
,
0100
0001
0010
0000
,
0001
1000
0100
0010
,
0100
1000
0202
0303
,
0010
0100
0001
1000
,
0001
0010
0100
1000
,
0010
0100
0010
1000
,
0001
0000
0001
0000
0001
0010
0001
0000
,
1000
0010
0100
0010
,
1000
0001
0010
0100
,
0010
0001
1000
0100
,
0010
0100
0000
0100
0000
0100
0010
0000
,
0001
0010
1000
0010
,
0001
0100
1000
0100
,
0020
0000
2030
0000
,
3001
0010
0000
0001
0000
1000
0001
0000
,
0100
0010
0100
0010
,
1000
0001
1000
0001
,
0010
0100
1000
0100
,
0010
0001
0100
0010
,
1000
0001
1000
0100
,
0010
0001
1000
0010
,
0110
0000
1001
0000
,
0001
0010
0100
1000
,
0010
0100
0001
0100
,
0010
1000
0110
0001
,
1000
0001
0010
0100
,
1000
0000
0001
0000
1000
0001
1000
0000
,
0010
1000
0001
1000
,
0100
0010
0011
1000
,
0010
0100
0010
1000
,
0002
0010
0010
0013
,
1000
0100
0001
0100
,
1000
0001
0110
1000
,
0010
0100
0001
1000
,
0001
0010
0001
1000
,
0100
0010
0001
1000
,
0010
0100
2002
3003
,
0011
0000
1100
0000
,
0001
0100
0010
1000
,
0001
0010
1000
0010
,
0001
0010
1000
0010
,
0001
0100
1000
0100
,
0001
0100
1000
0100
,
0020
1000
0000
1030
,
2000
0001
0000
3001
,
0002
0100
0000
0103
,
0220
0000
0000
0000
0000
0330
0000
0000
,
0001
0010
0001
0100
,
0010
1000
0100
1000
,
0010
0100
0001
0010
,
0001
1000
2002
3003
,
0100
0000
0100
0000
0100
0010
0100
0000
,
0001
0000
0001
0000
0001
1000
0001
0000
,
0010
0000
0001
0000
1000
0100
1000
0000
,
0010
0000
0010
0000
0010
0100
0010
0000
,
1000
0001
0010
0001
,
1000
0100
0010
0001
,
0100
0001
0100
0010
,
1000
0001
0010
0110
,
1000
0001
1000
0010
,
0100
0001
1000
0100
,
0010
0100
1000
0001
,
0201
0000
0010
0310
,
2010
0000
0100
3100
,
0001
0010
0100
0010
,
0001
1000
0010
0110
,
1000
0010
0100
0010
,
1000
0001
0010
1000
,
0010
0001
0100
0010
,
1000
0100
0010
0011
,
1000
0001
0100
0001
,
2000
0010
0010
3010
,
0101
1000
0001
0010
,
0100
0000
1000
0000
0010
0100
0010
0000
,
1000
0001
1000
0100
,
0010
0001
1000
1001
,
0010
0100
0001
1000
,
0100
1000
0010
0100
,
0002
0000
0013
0000
,
2000
0000
3100
0000
,
0010
0100
0010
1000
,
0022
0000
0000
0000
,
0033
0000
0000
0000
;

//---------------dance-single - ----------------
#NOTES:
     dance-single:
     :
     Medium:
     13:
     0.673585,0.652922,0.155263,0.098061,0.134834,577.000000,558.000000,19.000000,12.000000,0.000000,0.000000,0.673585,0.652922,0.155263,0.098061,0.134834,577.000000,558.000000,19.000000,12.000000,0.000000,0.000000:
0000
0000
0000
0000
,
0000
0000
0000
0000
,
0000
0000
0000
0000
,
0001
0100
0010
0100
0000
0010
0100
0000
,
0010
1000
0100
0010
0000
0010
0100
0000
,
1000
0001
1000
0010
0000
0010
1000
0000
,
0001
0000
0000
0101
0000
0000
1000
0000
0001
0000
0010
0000
0100
0000
0000
0000
,
0010
0100
1000
0001
0000
0001
0100
0000
,
0010
1000
0100
0010
0000
0010
0001
0000
,
1000
0001
0100
0010
0000
0010
1000
0000
,
0001
1000
0001
1000
0010
0000
0110
0000
,
1000
0000
0001
0000
0010
0000
0100
0000
0010
0000
0000
0001
0000
0000
1000
0000
,
0001
0000
1000
0000
0100
0000
0010
0000
0001
0000
0000
0100
0000
0000
0010
0000
,
1000
0000
0001
0000
0010
0000
0100
0000
1000
0000
0000
0001
0000
0000
0100
0000
,
0010
0000
0000
1000
0000
0000
0001
0000
1000
0000
0100
0000
0020
0000
0000
0000
,
0031
0000
1000
0000
0010
0000
1000
0000
0001
0000
0000
0100
0000
0000
0001
0000
,
1000
0000
0010
0000
0100
0000
0010
0000
1000
0000
0000
0001
0000
0000
0100
0000
,
0010
0000
1000
0000
0100
0000
0010
0000
0001
0000
0000
1000
0000
0000
0001
0000
,
0010
0000
0000
1001
0000
0000
0010
0000
0100
0000
0010
0000
2000
0000
0000
0000
,
3001
0100
0010
0100
0001
1000
0100
0000
,
1000
0001
0010
0100
1000
0001
0100
0000
,
0010
1000
0001
1000
0100
0010
0001
0000
,
1000
1010
0000
0001
0100
0010
1000
0000
,
0001
1000
0100
0010
0100
1000
0001
0000
,
0100
0010
1000
0001
0010
0100
1000
0000
,
0010
0100
0001
0100
0010
1000
0100
0000
,
0010
0110
0000
0001
0010
0100
1000
0000
,
0001
0000
0100
0000
0000
0010
0000
0000
0100
0000
0000
0001
0000
0000
1000
0000
,
0000
0100
0000
0000
0010
0000
0000
0001
0000
0000
1000
0000
0100
0000
1000
0000
,
0010
0000
0100
0000
0000
0001
0000
0000
0010
0000
0000
0001
0000
0000
1000
0000
,
0000
0010
0000
0000
0100
0000
0000
0001
0000
0000
1000
0000
0001
0000
0010
0000
,
0100
0000
1000
0000
0000
0010
0000
0000
1000
0000
0000
0001
0000
0000
0010
0000
,
0000
0001
0000
0000
1000
0000
0000
0010
0000
0000
0100
0000
0010
0000
0100
0000
,
0001
0000
0010
0000
0000
1100
0000
0000
0001
0000
0000
0110
0000
0000
1000
0000
,
0001
0001
0002
0000
1003
0000
1001
0000
,
0100
0010
1000
0100
0000
0100
1000
0001
,
0000
1000
0001
0010
0100
1000
0001
0000
,
0100
0010
1000
0010
0000
0010
1000
0001
,
1000
0100
0010
0100
0000
0011
0000
1000
,
0001
1000
0010
0100
0000
0100
0001
1000
,
0100
1000
0000
1000
0010
0010
0010
0000
,
0100
0001
1000
0100
0000
1000
0010
1000
,
0001
0010
0100
0010
0000
0001
1000
0001
,
0100
0010
1000
0100
0000
1000
0001
1000
,
0010
0100
0000
0100
0001
1000
1001
0000
,
0010
0100
0001
1000
0000
1000
0001
0010
,
0100
1000
0001
1000
0000
0110
0000
0001
,
0100
0010
1000
0001
0000
0001
1000
0100
,
0010
0100
0000
0100
1000
1000
1001
0000
,
0001
0100
0010
0100
0000
0100
0001
1000
,
0010
0100
0010
0100
0001
1000
1001
0000
,
0010
0100
0001
1000
0100
0010
0001
0000
,
1000
0010
0100
0001
0010
0100
1000
0000
,
0001
0100
0010
0100
0001
1000
0100
0000
,
1000
0001
0010
0001
1000
0010
0100
0000
,
0002
0010
0000
0013
,
2000
0010
0000
3010
,
0200
0001
0000
0301
,
0022
0000
0000
0033
,
1000
0100
1000
0010
0000
0010
1000
0000
,
0001
0010
0100
0010
0000
0010
0001
0000
,
1000
0010
1000
0100
0000
0100
0010
0000
,
0001
0000
0000
0100
0000
0000
0010
0000
0100
0000
0001
0000
1000
0000
0000
0000
,
0010
0100
0001
0000
1000
0100
0010
0000
,
0001
1000
0010
0000
0100
0001
1000
0000
,
0001
0010
0100
1000
0010
0100
0001
0000
,
2002
0000
0000
0000
0000
3003
0000
0000
,
0010
0000
0100
0000
0010
0000
0000
0000
1000
0000
0000
0100
0000
0000
0010
0000
,
0100
0000
1000
0000
0001
0000
0000
0000
0100
0000
0000
0010
0000
0000
0100
0000
,
0001
0000
0010
0000
0100
0000
0000
0000
1000
0000
0000
0001
0000
0000
0010
0000
,
0001
0000
0000
1000
0000
0000
0010
0000
0100
0000
0100
0000
0100
0000
0000
0000
,
0010
0000
1000
0000
0010
0000
0000
0000
1000
0000
0000
0001
0000
0000
0010
0000
,
0001
0000
0100
0000
0010
0000
0000
0000
1000
0000
0000
0100
0000
0000
0010
0000
,
0001
0000
1000
0000
0001
0000
0000
0000
0010
0000
0000
0100
0000
0000
1000
0000
,
0010
0000
0000
0110
0000
0000
0100
0000
0001
0000
1000
0000
0001
0000
0000
0000
,
1000
0000
0000
1001
0000
0000
0001
0000
0100
0000
0010
0000
0100
0000
0000
0000
,
0001
0010
0100
0010
0000
0010
0001
1000
,
0010
0100
0000
0100
0010
1000
0001
0000
,
0010
0001
1000
0001
0000
0001
0010
0100
,
1000
0010
0000
0010
1000
0001
1000
0001
,
0100
0010
0100
0001
0000
0001
1000
0100
,
1000
0010
0000
0010
0100
0001
0010
0000
,
0001
0010
0100
1000
0000
1000
0010
0100
,
0010
1000
0000
1000
0001
0010
0110
0000
,
1000
0010
0100
0010
0000
0100
0001
1000
,
0001
0010
0000
0010
0100
0100
0100
0000
,
1000
0001
1000
0010
0000
0100
0001
0010
,
0001
1000
0000
1000
0010
0010
0010
0000
,
0100
0001
1000
0100
0000
0100
1000
0010
,
1000
0001
0000
0001
0100
0100
0100
0000
,
0001
0010
0100
1000
0000
1000
0010
0100
,
0001
0010
0000
0010
0100
1000
0000
1000
,
0001
0010
0000
0010
1000
0010
0001
0010
,
0220
0000
0000
0000
,
0330
0000
0000
0000
;

//---------------dance-single - ----------------
#NOTES:
     dance-single:
     :
     Hard:
     17:
     0.926908,0.883365,0.506648,0.073546,0.633310,794.000000,732.000000,62.000000,9.000000,0.000000,0.000000,0.926908,0.883365,0.506648,0.073546,0.633310,794.000000,732.000000,62.000000,9.000000,0.000000,0.000000:
0000
0000
0000
0000
,
0000
0000
0000
0000
,
0000
0000
0000
0000
,
0001
0000
1000
0000
0010
0000
0100
0010
0000
0010
0100
0000
0001
0000
0000
0000
,
1000
0000
0100
0000
0010
0000
0100
1000
0000
0001
1000
0000
0010
0000
0100
0000
,
0001
0000
0010
0000
0100
0000
1000
0001
0000
0001
1000
0000
0010
0000
0100
0000
,
0010
0000
1000
0100
0000
0010
0000
0001
1000
0000
0001
0000
1100
0000
0000
0000
,
0001
0000
1000
0000
0010
0000
1000
0100
0000
1000
0010
0000
0100
0000
0000
0000
,
0001
0000
1000
0000
0100
0000
1000
0001
0000
0010
0001
0000
1000
0000
0010
0000
,
0100
0000
0001
0000
1000
0000
0010
0100
0000
0100
0001
0000
0010
0000
0100
0000
,
1000
1000
1000
1000
0001
0100
0110
0000
,
1000
0000
0001
0000
0010
0001
0010
0000
0001
0000
1000
0010
0000
1000
0010
0000
,
0100
0000
0001
0000
1000
0010
1000
0000
0001
0000
0010
0100
0000
1000
0010
0000
,
0100
0000
0001
0000
0010
0001
0010
0000
0100
0000
1000
0001
0000
0010
0001
0000
,
0100
0000
0001
1000
0000
0001
1000
0000
0010
0000
0100
0000
1001
0000
0000
0000
,
0010
0000
0100
0000
0001
0010
0001
0000
1000
0000
0001
0100
0000
0001
0100
0000
,
0010
0000
1000
0000
0100
0010
0100
0000
1000
0000
0010
0100
0000
0001
0100
0000
,
0001
0000
1000
0000
0001
0010
0001
0000
1000
0000
0010
0100
0000
0010
0100
0000
,
0001
0000
1000
0100
0000
1000
0000
1000
0010
0000
0010
0000
0110
0000
0000
0000
,
1000
0000
0001
1000
0010
0000
0100
0000
0001
0000
0010
0000
1000
0000
0010
0000
,
0001
0000
1000
0001
0010
0000
0001
0000
1000
0000
0100
0000
0001
0000
0100
0000
,
1000
0000
0010
0100
0001
0000
1000
0000
0001
0000
0010
0000
1000
0000
0010
0000
,
0001
0101
0000
1100
0010
0100
1001
0000
,
0001
0000
1000
0010
0100
0000
0010
0000
1000
0000
0100
0000
0001
0000
0100
0000
,
1000
0000
0010
0100
0001
0000
1000
0000
0001
0000
0010
0000
1000
0000
0010
0000
,
0001
0000
0100
0010
1000
0000
0010
0000
1000
0000
0100
0000
0001
0000
0100
0000
,
1000
0000
1010
0000
0000
0000
0011
0000
0001
0000
1000
0001
1000
0000
0000
0000
,
0100
0000
0010
0000
0000
1100
0000
0000
0011
0000
0000
1001
0000
0000
0110
0000
,
0000
1010
0000
0000
0101
0000
0000
0011
0000
0000
1100
0000
1000
0000
0001
0000
,
0010
0000
0110
0000
0000
0101
0000
0000
1010
0000
0000
1100
0000
0000
1001
0000
,
0000
0101
0000
0000
0110
0000
0000
1010
0000
0000
1000
0000
0001
0000
0010
0000
,
0100
0000
1000
0000
0000
0011
0000
0000
1100
0000
0000
0101
0000
0000
0110
0000
,
0000
1001
0000
0000
1010
0000
0000
0011
0000
0000
1010
0000
0100
0000
0010
0000
,
1000
0000
1100
0000
0000
0011
0000
0000
1001
0000
0000
0110
0000
0000
1100
0000
,
0001
0001
0001
0001
0001
0100
0110
0000
,
1000
0010
0100
0010
1000
0000
0001
0010
0000
0000
0001
0000
0010
0000
0100
0000
,
1000
0010
1000
0001
0010
0100
1100
0000
,
0001
0010
0100
0010
0001
0000
1000
0010
0000
0000
0100
0000
0010
0000
1000
0000
,
0001
1000
0100
0010
0001
1001
0000
0010
,
0100
0001
1000
0001
0100
0000
0010
1000
0000
0000
0001
0000
1000
0000
0100
0000
,
0010
0001
1000
0001
1000
0010
1001
0000
,
0010
1000
0001
1000
0010
0000
0100
0001
0000
0000
1000
0000
0001
0000
0010
0000
,
0100
0010
0001
1000
0010
0100
1010
0000
,
0001
1000
0010
1000
0001
0000
0010
0001
0000
0000
1000
0000
0100
0000
0001
0000
,
0100
1000
0010
0100
0001
0010
0110
0000
,
1000
0100
0010
0100
1000
0000
0001
0010
0000
0000
0001
0000
1000
0000
0010
0000
,
0100
0001
0100
1000
0100
0110
0000
0001
,
0010
0001
1000
0001
0010
0000
0001
0100
0000
0000
0010
0000
1000
0000
0100
0000
,
1000
0001
0010
0100
1000
0001
1010
0000
,
0100
0001
1000
0001
0100
0000
0010
1000
0000
0000
0010
0000
0100
0000
0001
0000
,
1000
0100
0001
0100
1000
0001
0010
0001
,
1000
0001
0100
0000
0010
0000
1000
0000
0001
0000
0010
0000
0100
0000
1000
0000
,
0010
0100
0001
0000
1000
0000
0010
0000
0100
0000
0001
0000
0010
0000
0100
0000
,
1000
0001
0100
0000
0010
0000
1000
0000
0001
0000
0010
0000
1000
0000
0010
0000
,
0001
0100
0010
0000
1000
0000
0001
0000
1000
0000
0100
0000
0001
0000
0100
0000
,
2000
0000
0010
0000
0000
0010
3010
0000
,
0002
0000
0010
0000
0000
0010
0013
0000
,
0201
0000
0010
0000
0000
0010
0310
0000
,
2002
0000
0000
0000
0000
3003
0000
0000
,
0010
0000
1000
0000
0001
1000
0000
0010
0000
0000
0100
0000
0010
0000
0000
0000
,
1000
0000
0100
0000
0010
0001
0000
1000
0000
0000
0010
0000
0100
0000
0000
0000
,
0010
0000
1000
0000
0100
1000
0000
0001
0000
0000
0010
0000
0001
0000
0001
0000
,
1000
0000
0010
0100
0000
0010
0000
0100
0001
0000
1000
0000
1100
0000
0000
0000
,
0001
0000
0010
0000
0001
0100
0000
0010
0000
0000
0100
0000
0002
0000
0000
0000
,
1003
0000
0010
0000
0100
0010
0000
1000
0000
0000
0100
0000
2000
0000
0000
0000
,
3001
0000
0010
0000
0100
1000
0000
0001
0000
0000
1000
0000
0010
0000
0010
0000
,
0100
0000
0100
0001
0000
1000
0000
0001
1000
0000
0100
0000
0110
0000
0000
0000
,
1000
0000
0001
0000
0010
0001
1000
0000
0010
0000
0100
0010
0000
0100
0010
0000
,
1000
0000
0001
0000
0100
0010
1000
0000
0001
0000
1000
0100
0000
1000
0100
0000
,
0010
0000
0100
0000
1000
0001
0010
0000
0001
0000
0100
0001
0000
0100
0001
0000
,
1000
0000
0001
1000
0000
0010
0000
0100
0001
0000
0001
0000
0011
0000
0000
0000
,
1000
0000
0010
0000
0100
0010
1000
0000
0001
0000
0000
0110
0000
0000
0001
0000
,
1000
0000
0001
0000
0100
0001
1000
0000
0010
0000
0000
1001
0000
0000
0100
0000
,
0001
0000
1000
0000
0010
0100
0001
0000
0010
0000
0000
1100
0000
0000
0001
0000
,
1000
0000
0010
1000
0000
0010
0000
1000
0100
0000
0100
0000
0110
0000
0000
0000
,
0001
0000
0100
0010
0000
0100
0000
0010
1000
0000
1000
0000
1010
0000
0000
0000
,
0001
0100
0010
0100
0001
0000
1000
0100
0000
0000
1000
0000
0001
0000
0010
0000
,
0001
0100
1000
0100
0010
1000
1001
0000
,
1000
0001
0010
0001
1000
0000
0100
0010
0000
0000
0001
0000
0010
0000
0001
0000
,
1000
0100
0010
0100
1000
1001
0000
0010
,
0001
0010
0100
0010
0001
0000
1000
0010
0000
0000
1000
0000
0100
0000
0010
0000
,
0100
1000
0010
0100
0001
0001
1001
0000
,
0100
0001
1000
0001
0100
0000
0010
1000
0000
0000
0100
0000
1000
0000
0010
0000
,
0100
0001
1000
0010
0100
1000
0010
0001
,
1000
0001
0010
0100
0010
0000
0001
0010
0000
0000
0001
0000
1000
0000
0100
0000
,
1000
0010
0001
0010
1000
1000
1001
0000
,
0001
1000
0100
0010
0100
0000
1000
0001
0000
0000
0010
0000
0001
0000
1000
0000
,
0000
1000
0100
0001
1000
0010
0001
1000
,
0001
0100
0010
1000
0010
0000
0100
0001
0000
0000
0010
0000
0001
0000
0010
0000
,
0100
1000
0010
1000
0100
0100
0110
0000
,
1000
0001
0100
0010
1000
0000
0100
0010
0000
0000
0001
0000
0010
0000
0100
0000
,
1000
0010
0100
0010
0100
1000
0010
0001
,
0100
0000
1000
0000
0010
0000
0001
0000
1000
0001
1000
0000
0010
0100
0010
0000
,
0220
0000
0000
0000
,
0330
0000
0000
0000
;

//---------------dance-single - ----------------
#NOTES:
     dance-single:
     :
     Challenge:
     18:
     0.911732,0.882190,0.400415,0.032687,0.686426,781.000000,732.000000,49.000000,4.000000,264.000000,0.000000,0.911732,0.882190,0.400415,0.032687,0.686426,781.000000,732.000000,49.000000,4.000000,264.000000,0.000000:
// measure 0
0000
0000
0000
0000
,  // measure 1
MMMM
0000
0000
0000
,  // measure 2
MMMM
0000
0000
0000
,  // measure 3
0001
0000
0100
0000
0010
0000
0100
0001
0000
0000
1000
0000
0001
0000
MMMM
0000
,  // measure 4
0010
0000
0100
0000
0001
0000
1000
0001
0000
0000
0010
0000
0100
0000
MMMM
0000
,  // measure 5
0001
0000
1000
0000
0010
0000
1000
0001
0000
0000
0100
0000
0010
0000
1000
0000
,  // measure 6
0001
0000
1000
0100
0000
1000
0000
0001
0100
0000
0010
0000
0100
0000
MMMM
0000
,  // measure 7
1000
0000
0010
0000
0100
0000
0001
0010
0000
0001
1000
0000
0010
0000
MMMM
0000
,  // measure 8
0001
0000
1000
0000
0100
0000
1000
0010
0000
0100
0001
0000
1000
0000
MMMM
0000
,  // measure 9
0010
0000
0100
0000
1000
0000
0001
1000
0000
0001
1000
0000
0010
0000
0100
0000
,  // measure 10
0010
0010
0100
0100
0001
1000
1001
0000
,  // measure 11
0100
0000
0010
0000
1000
0001
1000
0000
0001
0000
0010
0001
0000
1000
0001
0000
,  // measure 12
1000
0000
0010
0000
1000
0001
1000
0000
0010
0000
0100
0010
0000
1000
0010
0000
,  // measure 13
1000
0000
0001
0000
0010
0001
0010
0000
0001
0000
1000
0100
0000
1000
0100
0000
,  // measure 14
1000
0000
0001
1000
0000
0001
0000
1000
0010
0000
0010
0000
0010
0000
MMMM
0000
,  // measure 15
0001
0000
1000
0000
0010
1000
0010
0000
0100
0000
0001
1000
0000
0001
1000
0000
,  // measure 16
0010
0000
1000
0000
0100
0010
0100
0000
1000
0000
0001
0010
0000
0001
0010
0000
,  // measure 17
0100
0000
0001
0000
1000
0001
1000
0000
0010
0000
1000
0001
0000
1000
0001
0000
,  // measure 18
0010
0000
0100
1000
0000
0001
0000
1000
0100
0000
0100
0000
0100
0000
MMMM
0000
,  // measure 19
0001
0000
0010
0001
0010
0000
0001
0000
1000
0000
0100
0000
0010
0000
0100
0000
,  // measure 20
1000
0000
0010
1000
0010
0000
1000
0000
0001
0000
0100
0000
0010
0000
0100
0000
,  // measure 21
0001
0000
1000
0010
1000
0000
0001
0000
1000
0000
0010
0000
0100
0000
0010
0000
,  // measure 22
1000
1100
MMMM
0101
MMMM
0010
0010
0010
,  // measure 23
0100
0000
0001
1000
0001
0000
0100
0000
0010
0000
1000
0000
0100
0000
1000
0000
,  // measure 24
0001
0000
1000
0100
1000
0000
0001
0000
0010
0000
0001
0000
0100
0000
0010
0000
,  // measure 25
1000
0000
0010
0100
0010
0000
1000
0000
0001
0000
0010
0000
0100
0000
1000
0000
,  // measure 26
0001
0000
0011
0000
MMMM
0000
1100
0000
MMMM
0000
0100
0010
0100
0000
0100
0000
,  // measure 27
1000
0000
1010
0000
0000
0011
0000
0000
1100
0000
0000
0101
0000
0000
0011
0000
,  // measure 28
0000
1001
0000
0000
0101
0000
0000
1010
0000
0000
1100
0000
0001
0000
1000
0000
,  // measure 29
0010
0000
1010
0000
0000
1100
0000
0000
0101
0000
0000
0011
0000
0000
0101
0000
,  // measure 30
0000
0110
0000
0000
1001
0000
0000
0110
0000
0000
1000
0000
0001
0000
0010
0000
,  // measure 31
0001
0000
0101
MMMM
0000
1100
MMMM
0000
1010
MMMM
0000
0011
0000
MMMM
1001
MMMM
,  // measure 32
0000
0110
MMMM
0000
0011
MMMM
0000
1100
MMMM
0000
1000
0000
0001
0000
0010
0000
,  // measure 33
0001
0000
1001
MMMM
0000
1010
MMMM
0000
0101
MMMM
0000
0011
MMMM
0000
1010
0000
,  // measure 34
0100
0100
0010
0010
0100
MMMM
1001
0000
,  // measure 35
0100
0010
1000
0010
0100
0000
0001
0010
0000
0000
0001
0000
1000
0000
0100
0000
,  // measure 36
1000
0100
0001
0100
1000
1000
1001
0000
,  // measure 37
0001
0010
0100
0010
0001
0000
1000
0010
0000
0000
1000
0000
0001
0000
0010
0000
,  // measure 38
0001
0100
1000
0100
MMMM
1001
MMMM
0110
,  // measure 39
0010
1000
0001
1000
0010
0000
0100
0010
0000
0000
1000
0000
0100
0000
0010
0000
,  // measure 40
0001
0100
0010
1000
0010
0010
0110
0000
,  // measure 41
1000
0100
0010
0100
1000
0000
0001
0100
0000
0000
0010
0000
0100
0000
0001
0000
,  // measure 42
0010
0001
1000
0100
1000
0001
0110
0000
,  // measure 43
0001
1000
0100
1000
0001
0000
0100
0010
0000
0000
1000
0000
0100
0000
0010
0000
,  // measure 44
0001
0010
0100
1000
0100
0010
0110
0000
,  // measure 45
1000
0010
0100
0010
1000
0000
0001
0010
0000
0000
0001
0000
0100
0000
0010
0000
,  // measure 46
1000
0010
0001
0010
MMMM
0110
MMMM
1001
,  // measure 47
1000
0001
0010
0001
1000
0000
0010
0100
0000
0000
0001
0000
0010
0000
0001
0000
,  // measure 48
1000
0100
0010
0001
1000
1000
1010
0000
,  // measure 49
0100
0001
1000
0001
0100
0000
0001
0010
0000
0000
0001
0000
1000
0000
0010
0000
,  // measure 50
1000
0100
0001
1000
0010
0001
1000
0010
,  // measure 51
0100
0001
0010
0000
0001
0000
1000
0000
0010
0100
0000
0000
0010
0000
1000
0000
,  // measure 52
0001
1000
0100
0000
1000
0000
0010
0000
0100
0000
0001
0000
0100
0000
1000
0000
,  // measure 53
0100
0001
1000
0000
0001
0000
0010
0000
0001
1000
0000
0000
0010
0000
0100
0000
,  // measure 54
0010
1000
0100
0000
1000
0000
0001
0000
1000
0000
0100
0000
0010
0000
MMMM
0000
,  // measure 55
1000
0010
1000
MMMM
0010
0001
0010
MMMM
,  // measure 56
0100
0001
0100
MMMM
1000
0010
1000
MMMM
,  // measure 57
0010
0001
0010
MMMM
1000
0100
1000
MMMM
,  // measure 58
0202
0000
0000
0000
0000
0303
MMMM
0000
,  // measure 59
0010
0000
1000
0000
0010
0000
0100
0001
0000
0000
0010
0000
0001
0000
MMMM
0000
,  // measure 60
1000
0000
0001
0000
0010
0000
0001
1000
0000
0000
0100
0000
0010
0000
MMMM
0000
,  // measure 61
1000
0000
0010
0000
0100
0000
0001
0010
0000
0000
0001
0000
0100
0000
MMMM
0000
,  // measure 62
0010
0000
0001
0010
0000
0100
0000
1000
0010
0000
0010
0000
0010
0000
MMMM
0000
,  // measure 63
0001
0000
0010
0000
0001
0000
1000
0010
0000
0000
1000
0000
0100
0000
MMMM
0000
,  // measure 64
0010
0000
0100
0000
0001
0000
1000
0100
0000
0000
0100
0000
0010
0000
MMMM
0000
,  // measure 65
1000
0000
0001
0000
0010
0000
0001
0100
0000
0000
0100
0000
0010
0000
MMMM
0000
,  // measure 66
0001
0000
1000
0001
0000
1000
0000
0010
0100
0000
0100
0000
0100
0000
MMMM
0000
,  // measure 67
0010
0000
1000
0000
0001
1000
0001
0000
1000
0000
0100
0010
0000
0010
0100
0000
,  // measure 68
1000
0000
0001
0000
0010
0001
0010
0000
0100
0000
1000
0010
0000
0010
1000
0000
,  // measure 69
0001
0000
0100
0000
0010
1000
0010
0000
1000
0000
0001
0010
0000
0010
0001
0000
,  // measure 70
1000
0000
0010
0100
0000
0001
0000
1000
0001
0000
0010
0000
0001
0000
MMMM
0000
,  // measure 71
1000
0000
0010
0000
0100
0010
0100
0000
0001
0000
0010
0001
0000
0001
1000
0000
,  // measure 72
0010
0000
0100
0000
0010
1000
0010
0000
1000
0000
0001
0010
0000
0010
0100
0000
,  // measure 73
1000
0000
0010
0000
0100
0001
0100
0000
0010
0000
1000
0001
0000
0001
1000
0000
,  // measure 74
0001
0000
0010
0001
0000
1000
0000
0100
1000
0000
1000
0000
1001
0000
MMMM
0000
,  // measure 75
0010
0000
0100
0010
0000
0100
0000
0010
0100
0000
0100
0000
0110
0000
MMMM
0000
,  // measure 76
1000
0001
0010
0100
1000
0000
0001
0010
0000
0000
0001
0000
1000
0000
0100
0000
,  // measure 77
1000
0010
0100
0001
0010
0010
0010
MMMM
,  // measure 78
0001
0010
0100
1000
0001
0000
0100
0010
0000
0000
0100
0000
0001
0000
0010
0000
,  // measure 79
0100
1000
0100
0001
MMMM
0110
MMMM
1000
,  // measure 80
0001
1000
0010
0100
0001
0000
1000
0100
0000
0000
1000
0000
0001
0000
0010
0000
,  // measure 81
0001
0100
0010
0100
0010
0010
0010
MMMM
,  // measure 82
1000
0010
0100
0001
1000
0000
0001
0010
0000
0000
0001
0000
0100
0000
0010
0000
,  // measure 83
1000
0100
0001
1000
0010
0001
1000
MMMM
,  // measure 84
0001
0010
0100
1000
0001
0000
0010
0001
0000
0000
1000
0000
0100
0000
1000
0000
,  // measure 85
MMMM
0000
1000
0000
0001
0000
0010
0000
0001
MMMM
0001
MMMM
0001
0000
MMMM
0000
,  // measure 86
1000
0001
0010
0100
0010
0000
0001
1000
0000
0000
0010
0000
0100
0000
0010
0000
,  // measure 87
MMMM
0000
0001
0000
0010
0000
1000
0000
0001
MMMM
0100
MMMM
0010
MMMM
0001
0000
,  // measure 88
0010
1000
0001
1000
0010
0000
0100
0010
0000
0000
1000
0000
0001
0000
0010
0000
,  // measure 89
0001
0000
0010
0000
0100
0000
1000
0000
0010
MMMM
0010
MMMM
0010
0000
MMMM
0000
,  // measure 90
1000
0001
0100
0010
1000
0000
0001
0010
0000
0000
0001
0000
1000
0000
0100
0000
,  // measure 91
1000
0100
0001
0100
1000
0001
0010
1000
,  // measure 92
0001
0000
1000
0000
0100
0000
0001
0000
1000
0001
0100
0001
0010
0100
0010
0002
,  // measure 93
2000
0000
0000
0000
0000
0000
3003
MMMM
;
