#TITLE:The Smile of You;
#SUBTITLE:;
#ARTIST:猫叉Master feat.JESSY;
#TITLETRANSLIT:;
#SUBTITLETRANSLIT:;
#ARTISTTRANSLIT:Nekomata Master feat.JESSY;
#GENRE:Elebits POP;
#CREDIT:;
#BANNER:The Smile of You_banner.png;
#BACKGROUND:The Smile of You_bg.png;
#LYRICSPATH:;
#CDTITLE:;
#MUSIC:The Smile of You.ogg;
#OFFSET:-0.420000;
#SAMPLESTART:99.239998;
#SAMPLELENGTH:14.120000;
#SELECTABLE:YES;
#BPMS:0.000000=136.000000
;
#STOPS:
;
#BGCHANGES:-0.100=The Smile of You.avi=1.000=0=0=0=StretchNoLoop====,
99999=-nosongbg-=1.000=0=0=0 // don't automatically add -songbackground-
;
#KEYSOUNDS:;
#ATTACKS:;

//---------------dance-single - ----------------
#NOTES:
     dance-single:
     :
     Easy:
     3:
     0.132318,0.183786,0.029172,0.196914,0.000000,127.000000,123.000000,4.000000,27.000000,0.000000,0.000000,0.132318,0.183786,0.029172,0.196914,0.000000,127.000000,123.000000,4.000000,27.000000,0.000000,0.000000:
0000
0000
0000
0000
,
0000
0000
0000
0000
,
0000
0000
0000
0000
,
0000
0000
0000
0000
,
1000
0000
0001
0000
,
1000
0000
0001
0000
,
0010
0000
0100
0000
,
0220
0000
0330
0000
,
0001
0000
0001
0000
,
0010
0000
0010
0000
,
0100
0000
0100
0000
,
1000
0000
1000
0000
,
0010
0000
0010
0000
,
1000
0000
1000
0000
,
0100
0000
0100
0000
,
0010
0000
0001
0000
,
0020
0000
0030
0000
,
0200
0000
0300
0000
,
1000
0000
0001
0000
,
0200
0000
0300
0000
,
0001
0000
0010
0000
,
0001
0000
1000
0000
,
0010
0000
0100
0000
,
0001
0000
1000
0000
,
0200
0000
0300
0000
,
0020
0000
0030
0000
,
0001
0000
1000
0000
,
0100
0000
0010
0000
,
0200
0000
0300
0000
,
2000
0000
3000
0000
,
0001
0000
0010
0000
,
0001
0000
0100
0000
,
0020
0000
0030
0000
,
1000
0000
0100
0000
,
0010
0000
0001
0000
,
2002
0000
3003
0000
,
0100
0000
0010
0000
,
1000
0000
0001
0000
,
2000
0000
3000
0000
,
0020
0000
0030
0000
,
0100
0000
0001
0000
,
0010
0000
0100
0000
,
1000
0000
0001
0000
,
0010
0000
0001
0000
,
0200
0000
0300
0000
,
0010
0000
0010
0000
,
1000
0000
0100
0000
,
0010
0000
0001
0000
,
0100
0000
0010
0000
,
2000
0000
3000
0000
,
0002
0000
0003
0000
,
0010
0000
0001
0000
,
0200
0000
0300
0000
,
0010
0000
1000
0000
,
2002
0000
3003
0000
,
0000
0000
0000
0000
,
0100
0010
0100
0000
,
0001
0000
0010
0000
,
0001
0100
0001
0000
,
1000
0000
0010
0000
,
0200
0000
0310
0000
,
0020
0000
1030
0000
,
2000
0000
3001
0000
,
0001
1000
0001
0000
,
1000
0010
1000
0000
,
0001
0000
0010
0000
,
0010
0100
0010
0000
,
0100
0000
1000
0000
,
0002
0000
0103
0000
,
0020
0000
1030
0000
,
2000
0000
3100
0000
,
0020
0000
0031
0000
,
0110
0000
0000
0000
;

//---------------dance-single - ----------------
#NOTES:
     dance-single:
     :
     Medium:
     8:
     0.312561,0.367572,0.153155,0.211500,0.000000,300.000000,279.000000,21.000000,29.000000,0.000000,0.000000,0.312561,0.367572,0.153155,0.211500,0.000000,300.000000,279.000000,21.000000,29.000000,0.000000,0.000000:
0000
0000
0000
0000
,
0000
0000
0000
0000
,
0000
0000
0000
0000
,
0000
0000
0000
0000
,
1000
0010
1010
0000
,
0001
0000
0100
0010
0000
1000
1000
0000
,
0001
0010
0100
1000
,
0010
0000
0100
0000
0001
0010
0001
0000
,
1001
0000
0000
0100
0000
0000
0010
0000
,
1000
0000
0010
0100
0000
0000
0001
0000
,
0010
0000
0001
1000
0001
0000
0010
0000
,
0100
1000
2002
3003
,
0010
0000
1000
0100
1000
0000
0001
0000
,
0010
0001
1000
0001
0000
0100
0100
0000
,
0010
0100
0010
0100
,
0001
1000
0100
0010
,
0012
0000
1003
0010
,
2010
0000
3100
0010
,
0001
0000
1000
0001
0000
0000
0100
0000
,
0010
0100
0001
0010
,
0001
0000
1000
0100
0000
0000
1000
0000
,
0010
0100
0202
0303
,
0010
0000
1000
0000
0100
0000
1000
0001
,
0010
0001
2002
3003
,
0100
0000
0010
1000
0000
0000
0100
0000
,
1000
0000
0001
0000
0010
0100
0010
0000
,
0001
0000
1000
0100
0000
0000
0010
0000
,
0001
0000
0100
0010
0100
0000
0001
0000
,
2000
0000
0000
0000
3100
0000
0010
0001
,
0010
0001
0100
0010
,
2020
0000
3030
0001
,
0100
0000
0010
1000
0000
0010
1000
0000
,
0002
0000
0013
0100
,
1000
0000
0010
0000
1000
0000
0001
0100
,
0000
0000
0001
0000
0010
0000
0001
0020
,
0000
0000
0030
0000
0000
0100
0100
0000
,
1000
0000
0001
1000
0001
0000
0100
0000
,
0010
0000
1000
0100
1000
0000
0001
0000
,
0010
0000
0001
0100
0000
0001
0100
0000
,
0010
0000
1000
0100
0000
1000
0100
0000
,
1000
0000
0010
0100
0000
0010
0100
0000
,
0001
0010
2002
3003
,
0100
0000
0010
0100
0010
0000
1000
0000
,
0100
0000
1000
0001
1000
0000
0100
0000
,
0010
0000
0001
0100
0000
0001
0100
0000
,
0001
0000
1000
0100
1000
0000
0001
0000
,
0100
0000
0010
0100
0000
0010
0100
0000
,
0001
0010
0202
0303
,
1000
0000
0100
0000
1000
0000
0010
0100
,
0001
0010
0001
1000
,
2200
0000
3300
0010
,
1000
0000
0001
0010
0000
0001
0100
0000
,
0020
0000
0000
0000
1030
0000
0100
1000
,
0001
0000
0010
0000
0001
1000
0001
0100
,
0000
0010
0000
0001
,
0000
0100
0000
1000
,
0010
0100
2002
3003
,
0010
0000
1000
0010
0100
0000
0001
0000
,
0010
0100
2002
3003
,
0010
0100
0010
0000
1000
0000
0001
0000
,
0011
0000
0000
1000
0100
0000
1000
0000
,
0010
0000
0100
0000
0001
1000
0001
0000
,
0020
0000
0030
0000
,
0001
1000
0010
0110
,
0100
0001
0022
0033
,
1000
0000
0001
0010
0100
0000
1000
0000
,
0010
0100
2020
3030
,
0100
0000
0001
0010
0001
0000
1000
0000
,
0010
0000
1000
0100
1000
0000
0001
0000
,
0010
0000
0001
0100
0001
0000
0010
0000
,
0100
1100
0001
0011
,
1000
0000
1001
0000
0010
0100
0010
0000
,
1001
0000
0000
0000
;

//---------------dance-single - ----------------
#NOTES:
     dance-single:
     :
     Hard:
     12:
     0.500098,0.472593,0.291724,0.196914,0.007293,480.000000,440.000000,40.000000,27.000000,0.000000,0.000000,0.500098,0.472593,0.291724,0.196914,0.007293,480.000000,440.000000,40.000000,27.000000,0.000000,0.000000:
// measure 0
0000
0000
0000
0000
,  // measure 1
0000
0000
0000
0000
,  // measure 2
2100
0100
3001
0000
,  // measure 3
0012
0010
1003
0000
,  // measure 4
0100
0000
0010
0000
0100
0000
0000
0000
0101
0000
0000
0000
0010
0000
1000
0010
,  // measure 5
0100
0001
0010
0100
0000
1000
1000
0000
,  // measure 6
0001
0010
0001
0010
0100
1000
0100
1000
,  // measure 7
0010
0100
0001
0010
0100
1000
1001
0000
,  // measure 8
0110
0000
0001
0100
0010
0100
0001
0000
,  // measure 9
1001
0000
1000
0100
0010
0100
1000
0001
,  // measure 10
0010
0001
0100
0000
1010
0000
0100
0001
,  // measure 11
0010
0001
1000
0100
1000
0010
0010
0000
,  // measure 12
0101
0000
0000
0000
0010
0000
1000
0000
0100
0000
0000
0000
1000
0000
0001
0100
,  // measure 13
0010
0100
0001
0010
0000
0001
0001
0000
,  // measure 14
1000
0100
1000
0100
0010
0001
0010
0001
,  // measure 15
1000
0010
0100
0001
0010
0100
0110
0000
,  // measure 16
0012
0000
1003
0010
0100
0000
0010
0000
,  // measure 17
2100
0000
3010
0100
0001
0000
0010
0000
,  // measure 18
0001
1000
0100
2000
0000
0010
3010
0000
,  // measure 19
0100
0001
0100
0000
0001
0010
0001
0000
,  // measure 20
1000
0100
0010
0001
0000
0100
0010
0100
,  // measure 21
0001
1000
0100
0000
1000
0010
0100
0001
,  // measure 22
0010
0000
0100
1000
0001
0000
0100
0010
,  // measure 23
1000
0000
0001
0010
0100
0000
0011
0000
,  // measure 24
1000
0001
0010
0200
0000
0010
0310
0001
,  // measure 25
0010
0100
1000
0010
1000
0100
0010
0001
,  // measure 26
0100
0010
1000
0001
0000
0100
0001
0010
,  // measure 27
0100
1000
0020
0000
1030
0001
0010
0100
,  // measure 28
0010
0000
0001
0100
0001
0000
1000
0010
,  // measure 29
0100
1010
0001
0011
,  // measure 30
1000
0100
0010
0001
0000
0100
0001
1000
,  // measure 31
0010
1000
0001
0010
0000
0001
0100
0010
,  // measure 32
2000
0000
3100
0010
0100
0000
0010
0000
,  // measure 33
0002
0000
0103
0010
0100
0000
0010
1000
,  // measure 34
0001
0010
0001
1000
0001
0010
1000
0010
,  // measure 35
0000
0001
0001
0001
0000
1000
0010
0001
,  // measure 36
0020
0000
1030
0100
1000
0000
0010
0100
,  // measure 37
0001
1000
0100
1000
0010
1000
0100
0000
,  // measure 38
0010
0100
1000
0002
0000
0100
0103
0010
,  // measure 39
1000
0001
0010
0200
0000
1000
1300
0010
,  // measure 40
0100
0001
1000
0010
0000
1000
0100
0010
,  // measure 41
0001
0100
0001
0010
0100
1000
1001
0000
,  // measure 42
0020
0000
0130
0001
0200
0000
0301
0010
,  // measure 43
0200
0000
1300
0001
1000
0010
0010
0000
,  // measure 44
0100
0001
0100
0020
0000
1030
0100
1000
,  // measure 45
0001
0010
0100
1000
0010
1000
0100
0010
,  // measure 46
0001
0100
0010
0200
0000
0301
0010
0001
,  // measure 47
1000
0010
0100
0001
0010
0100
0110
0000
,  // measure 48
1100
0000
0001
0000
1100
0000
0010
0100
,  // measure 49
0001
0010
0100
0000
1000
0001
0100
0000
,  // measure 50
2020
0000
0000
3030
0000
0000
0001
0010
,  // measure 51
0001
1000
0010
1000
0100
0010
0001
0000
,  // measure 52
0202
0000
0000
0303
0000
0000
0010
1000
,  // measure 53
0100
1000
0001
1000
0010
0100
0010
1010
,  // measure 54
0000
0001
0010
0100
0000
0010
0100
1000
,  // measure 55
0000
1000
0100
0010
0001
1000
1001
0000
,  // measure 56
1100
0000
0011
0000
1100
0000
0001
1000
,  // measure 57
0010
1000
0001
0010
0100
1000
0001
0100
,  // measure 58
0110
0000
1001
0000
0110
0000
1000
0001
,  // measure 59
0100
0001
0010
0001
1000
0100
1100
0000
,  // measure 60
0002
0000
0100
0100
0203
0000
0010
0010
,  // measure 61
0310
1000
0100
1000
0001
0010
0001
0000
,  // measure 62
0202
0000
0000
0000
0303
0000
0010
1000
,  // measure 63
0100
0010
0011
0000
0001
1000
1010
0000
,  // measure 64
0101
0000
1100
0000
0101
0000
0010
1000
,  // measure 65
0001
1000
0100
0010
0002
0100
0103
0000
,  // measure 66
1010
0000
0011
0000
1010
0000
0001
0100
,  // measure 67
0001
0010
0100
1000
0010
0100
0101
0000
,  // measure 68
0020
0000
1000
1000
1030
0000
0100
1000
,  // measure 69
0010
0100
0001
0010
0001
1000
0010
0000
,  // measure 70
0100
0001
0010
0001
1000
0001
0010
0100
,  // measure 71
1000
0010
1000
0001
0010
1000
0100
0001
,  // measure 72
0110
0000
0000
0000
;
