#TITLE:The Sky of Sadness;
#SUBTITLE:;
#ARTIST:猫叉Master;
#TITLETRANSLIT:;
#SUBTITLETRANSLIT:;
#ARTISTTRANSLIT:Nekomata Master;
#GENRE:CONTEMPORARY NATION 5;
#CREDIT:;
#BANNER:The_Sky_of_Sadness_banner.png;
#BACKGROUND:The_Sky_of_Sadness.png;
#LYRICSPATH:;
#CDTITLE:;
#MUSIC:The Sky of Sadness.ogg;
#OFFSET:0.293000;
#SAMPLESTART:70.139999;
#SAMPLELENGTH:12.000000;
#SELECTABLE:YES;
#BPMS:0.000000=138.000000
;
#STOPS:
;
#BGCHANGES:;
#KEYSOUNDS:;
#ATTACKS:;

//---------------dance-single - ----------------
#NOTES:
     dance-single:
     :
     Easy:
     6:
     0.224697,0.222147,0.090395,0.153672,0.004520,174.000000,164.000000,10.000000,17.000000,0.000000,0.000000,0.224697,0.222147,0.090395,0.153672,0.004520,174.000000,164.000000,10.000000,17.000000,0.000000,0.000000:
0000
0000
0000
0000
,
0000
0000
0000
0000
,
0100
0000
0010
1000
,
0000
0001
0010
0000
,
0001
0000
2002
0000
0000
3003
0000
0000
,
0010
0000
1000
0100
,
0000
1000
0001
0000
,
0010
0000
2002
0000
0000
3003
0000
0000
,
0100
0010
0100
0001
,
0000
0010
0001
1000
,
0100
1000
0000
0010
,
0100
0001
0100
0010
,
0000
1000
0100
0010
,
0001
1000
0000
0001
,
2002
3003
0010
0000
,
0010
0100
1000
0000
,
0010
1000
0000
0001
,
1000
0100
0000
0010
,
0001
0000
0100
0010
,
1000
0000
0100
1000
,
0000
0010
0000
0100
,
0010
1000
0001
0000
,
0001
0010
0100
0000
,
1000
0010
0000
0010
,
0100
0001
0000
1001
,
1000
0000
0100
1000
,
0010
0000
0100
0010
,
0000
0010
0100
0001
,
0000
1000
2002
0000
,
3003
0100
0000
0010
,
0100
0000
0001
0020
,
0000
0030
0100
0000
,
1000
0020
0000
0030
,
0100
0000
0010
1000
,
0001
1000
0020
0000
,
0130
0001
0000
0010
,
0200
0000
1300
0001
,
0000
1001
0100
0000
,
0010
1000
0000
0100
,
0020
0000
0000
0000
0000
0000
0000
0030
,
0000
0000
0001
0100
,
0010
0100
0000
0001
,
0010
0100
1000
0010
,
0000
0110
0100
0000
,
0001
1000
0000
0100
,
0010
0000
0001
0020
,
0000
0030
0001
0100
,
0010
1000
0010
0100
,
0001
0000
1000
0100
,
0000
1000
0020
0000
,
0130
0002
0000
0003
,
1000
0010
1000
0002
,
0000
0003
0100
0010
,
0100
0001
0000
0001
,
0010
0100
0010
0001
,
0000
0001
1000
0010
,
0100
0010
0000
0010
,
1000
0000
1100
0001
,
0000
0000
0011
0000
1000
0000
0000
1000
,
0000
0000
1000
0000
0000
1000
0000
0000
,
0001
0000
0000
0001
0000
0000
0001
0000
,
0000
0000
0001
0000
0000
0000
0000
0110
0000
0000
0000
0000
0000
0000
0000
0000
;

//---------------dance-single - ----------------
#NOTES:
     dance-single:
     :
     Medium:
     11:
     0.450686,0.583136,0.189831,0.225989,0.216949,349.000000,328.000000,21.000000,25.000000,0.000000,0.000000,0.450686,0.583136,0.189831,0.225989,0.216949,349.000000,328.000000,21.000000,25.000000,0.000000,0.000000:
// measure 0
0000
0000
0000
0000
,  // measure 1
0000
0000
0000
0000
,  // measure 2
0100
0000
0000
0010
0000
0000
0010
0000
1000
0000
0000
0000
0001
0000
0000
0100
,  // measure 3
0000
0000
0100
0000
0010
0000
0000
0000
1000
0000
0000
0001
0000
0000
0001
0000
,  // measure 4
0010
0000
0000
0000
0100
0000
0000
1000
0000
0000
1000
0000
0010
0000
0000
0000
,  // measure 5
0110
0000
0000
1000
0000
0000
0100
0000
1000
0000
0000
0000
0001
0000
0000
0100
,  // measure 6
0000
0000
0010
0000
0100
0000
0000
0000
0001
0000
0000
0010
0000
0000
0001
0000
,  // measure 7
1000
0000
0000
0000
0010
0000
0000
0100
0000
0000
0010
0000
1000
0000
0000
0000
,  // measure 8
1001
0000
0000
0100
0000
0000
0100
0000
0010
0000
0100
0000
0001
0000
0000
0010
,  // measure 9
0000
0000
0010
0000
0100
0000
1000
0000
0010
0000
0000
0100
0000
0000
0100
0000
,  // measure 10
0001
0000
1000
0000
0100
0000
0000
0010
0000
0000
0010
0000
0001
0000
0000
0000
,  // measure 11
1100
0000
0000
0010
0000
0000
0100
0000
0010
0000
0100
0000
0001
0000
0000
1000
,  // measure 12
0000
0000
0010
0000
1000
0000
0100
0000
1000
0000
0000
0001
0000
0000
0010
0000
,  // measure 13
0001
0000
0100
0000
0000
0010
0000
0100
0000
0010
0000
0100
0001
0000
0000
0000
,  // measure 14
2002
0000
3003
0000
0100
0000
0010
0100
,  // measure 15
0010
0000
1000
0100
0010
0000
0100
1000
,  // measure 16
0001
1000
0010
1000
,  // measure 17
0001
0010
0100
0000
1100
0000
0101
0000
,  // measure 18
0010
0000
1000
0100
1000
0000
0001
0000
,  // measure 19
0010
0000
0001
0100
0010
0000
1000
0000
,  // measure 20
0100
1000
0100
0000
0010
0000
0001
0000
,  // measure 21
0100
0010
1000
0010
0100
0000
0001
0010
,  // measure 22
0001
0000
1000
0000
0010
0000
0100
0010
,  // measure 23
0100
0000
0001
0000
0010
0100
1000
0000
,  // measure 24
0001
0000
1000
0000
0100
0010
0001
0000
,  // measure 25
1001
0000
0100
0010
0100
0000
0001
0000
,  // measure 26
1000
0000
0001
0010
0100
0000
0010
0000
,  // measure 27
0001
1000
0100
0000
1000
0000
0001
0100
,  // measure 28
0010
0100
0001
0000
2020
0000
3000
0000
,  // measure 29
0130
0001
0020
0000
0000
0000
0130
1000
,  // measure 30
0001
0000
1000
0100
1000
0000
0202
0000
,  // measure 31
0000
0303
0000
0000
0220
0000
0030
0000
,  // measure 32
0301
0010
0200
0000
0000
0000
1300
0010
,  // measure 33
0100
0000
0000
0000
0010
0000
1000
0000
0100
0000
0000
0000
1000
0000
0000
0001
,  // measure 34
0000
0000
0010
0000
0000
0100
0000
0000
1002
0000
0000
0000
0103
0000
0000
0000
,  // measure 35
0010
0100
0002
0000
0013
0000
0100
1000
,  // measure 36
0020
0000
0130
0001
1000
0100
1000
0000
,  // measure 37
1010
0000
0000
0000
0011
0000
0000
0000
1000
0000
0000
0100
0000
0000
1000
0000
,  // measure 38
0010
0000
0100
0000
0001
0000
0000
0010
0000
0000
0001
0000
1000
0000
0010
0000
,  // measure 39
0200
0000
0300
0220
,  // measure 40
0000
0000
0330
0000
0011
0000
1000
0100
,  // measure 41
0010
0100
1000
0000
0010
0100
0001
0100
,  // measure 42
0010
0000
1000
0010
0100
0010
1000
0000
,  // measure 43
0001
0010
0100
0010
0002
0000
1003
0000
,  // measure 44
0010
0100
0010
0000
1000
0000
0001
0010
,  // measure 45
0100
0000
0000
0000
1000
0000
0000
0000
0010
0000
0000
0000
0100
0000
0000
0010
,  // measure 46
0000
0000
0100
0000
0000
0001
0000
0000
1001
0000
0000
0000
1000
0000
0010
0000
,  // measure 47
0100
0010
1000
0000
0001
0010
1000
0010
,  // measure 48
0001
0000
0100
0010
1000
0010
0100
0000
,  // measure 49
0001
0100
1000
0100
0002
0000
0013
0000
,  // measure 50
0100
0000
1000
0000
0001
0000
0000
0100
0000
0000
0010
0000
0000
1000
0000
0000
,  // measure 51
2200
0000
0000
0000
0000
0000
3300
0000
0000
0000
0000
0000
0001
0000
0000
0010
,  // measure 52
0000
0100
0000
1000
0002
0000
0010
0000
,  // measure 53
0103
0010
0200
0000
0001
0000
0310
1000
,  // measure 54
0200
0000
0010
0000
1300
0010
0100
0000
,  // measure 55
0001
0010
0100
1000
0020
0000
1000
0000
,  // measure 56
0130
0001
0020
0000
0100
0000
0031
1000
,  // measure 57
0010
0000
0000
0000
0110
0000
0000
0000
1000
0000
0100
0000
0010
0001
0000
0000
,  // measure 58
1000
0010
0000
0000
0001
0100
0000
0000
0010
0100
0000
0100
0000
0000
0001
0010
,  // measure 59
0000
0010
0000
0000
0100
1000
0000
1000
0000
0000
0010
0100
0000
0100
0000
0000
,  // measure 60
0010
0100
0000
0110
0000
0000
1000
0100
0000
1100
0000
0000
0001
0010
0000
0011
,  // measure 61
0000
0000
1000
0010
0000
1000
0001
0100
0000
0000
0000
0000
0000
0000
0000
0000
;

//---------------dance-single - ----------------
#NOTES:
     dance-single:
     :
     Hard:
     15:
     0.742534,0.721977,0.424859,0.135593,0.858757,575.000000,528.000000,47.000000,15.000000,0.000000,0.000000,0.742534,0.721977,0.424859,0.135593,0.858757,575.000000,528.000000,47.000000,15.000000,0.000000,0.000000:
0000
0000
0000
0000
,
0000
0000
0000
0000
,
1000
0100
0000
0100
0000
0100
0000
0100
0010
0000
0001
0000
1000
0010
0000
0010
,
0000
0010
0000
0010
0100
0000
0001
0000
0010
0100
0000
0100
0000
0100
0000
0100
,
1000
0000
0010
0000
0100
0001
0000
0001
0000
0001
0000
0001
0010
0100
1000
0000
,
0010
0100
0000
0110
0000
0100
0000
0010
1000
0000
0100
0000
0010
0001
0000
1001
,
0000
0001
0000
1000
0010
0000
0100
0000
0001
0010
0000
0110
0000
0010
0000
0100
,
1000
0000
0010
0000
1000
0001
0000
0101
0000
0001
0000
0100
0010
0100
0001
0000
,
0010
0100
0000
1100
0000
1000
0000
0010
0100
0000
0001
0000
0010
0001
0000
1001
,
0000
1000
0000
0010
0100
0000
0001
0000
0010
0001
0000
0101
0000
0100
0000
0010
,
1000
0000
0100
0000
0010
0100
0000
0110
0000
0100
0000
1000
0010
0100
0001
0000
,
0010
0001
0000
1001
0000
1100
0000
0001
0010
0000
0100
0000
1000
0010
0000
0110
,
0000
1001
0000
0100
0001
0000
1000
0000
0010
0100
0000
0101
0000
0011
0000
1000
,
0100
0000
1000
0000
0001
0100
0000
0110
0000
0010
0000
0010
0100
0002
2000
0000
,
3003
0000
0000
0100
0010
1000
1000
0010
,
1000
0000
0100
0000
0010
0100
1000
0100
0010
0000
0001
0000
0100
0000
0010
0000
,
0100
0001
0010
0000
0001
0000
0010
0000
0010
0000
0001
0000
1000
0000
0100
1000
,
0010
1000
0100
0000
1000
0000
0010
0000
0001
0000
0010
0000
1001
0000
0000
0000
,
0100
0000
0001
0000
0001
0000
0100
0000
0010
0000
1000
0000
0010
0100
0001
0100
,
0010
0000
1000
0000
0100
0000
0010
0000
0001
0000
1000
0010
0100
0000
0001
0000
,
0001
0000
0100
0000
0010
0000
1000
0100
0010
0100
1000
0000
0001
0000
0100
0010
,
0100
0001
0011
0000
0010
0100
0100
1000
,
0010
0000
0010
0000
1000
0010
0100
0010
1000
0000
0001
0000
0100
0000
0001
0000
,
0010
0100
1000
0000
0010
0000
1000
0000
1000
0000
0001
0000
0010
0000
0001
0100
,
0010
0100
0001
0000
1000
0000
0100
0010
0001
0000
1000
0000
0110
0000
0000
0000
,
0001
0000
0010
0000
0010
0000
0100
0000
1000
0000
1000
0000
0010
0100
0001
0100
,
0010
0000
1000
0000
0001
0000
0010
0000
0001
1000
0100
0000
1000
0000
0010
0000
,
0010
0000
1000
0000
0010
0000
1000
0100
0010
0100
1000
0000
0001
0000
0100
0010
,
0100
0001
1001
0000
0210
0000
0001
0000
,
0310
1000
1200
0000
0010
0000
1300
0010
,
0210
0000
0000
0000
0001
0000
0000
0000
0310
0000
1000
0000
0001
0000
0010
0100
,
1000
0000
0010
0000
1000
0010
0100
0000
0002
0000
0000
0000
1000
0000
0000
0000
,
0103
0010
2000
0000
0100
0000
3001
0100
,
0010
0000
1000
0100
1000
0000
0010
0000
0100
0000
0010
0000
0100
0000
0001
0010
,
0001
0000
1000
0000
0001
0100
0001
0000
1000
0000
0000
0110
0000
0000
1000
0100
,
0010
0000
0100
0000
1000
0000
0000
0101
0000
0000
0010
1000
0100
0000
0010
0000
,
0001
0000
0000
1100
0000
0000
0010
0100
0001
0000
0010
0000
0100
0000
0000
0011
,
0000
0000
1000
0010
1000
0000
0001
0100
0001
0000
0000
0011
0000
0000
1100
0000
,
1000
0000
0010
0000
0110
0000
0000
1001
0000
0000
0011
0000
1000
0000
0010
0000
,
0200
0000
0000
0000
0000
0000
0000
0000
0000
0000
0000
0020
0000
0000
0000
0000
,
0000
0000
0330
0000
0000
0000
0000
0000
1000
0100
0000
1000
0010
0000
0100
0010
,
1000
0010
0100
0000
0001
0010
0000
0001
0100
0000
0010
0100
0001
0100
0010
0000
,
1000
0001
0000
0010
0001
0000
1000
0100
0010
0100
1000
0000
0001
0100
0000
0010
,
0100
0000
0001
0010
0100
0010
0001
0000
2000
0000
0000
3100
0000
0000
1000
0010
,
0100
0000
0010
1000
0200
0000
0000
1300
0000
0000
1000
0001
0010
0000
0001
1000
,
0020
0000
0000
0130
0000
0000
0001
0000
0100
0010
0100
0000
0001
0000
0000
1100
,
0000
0000
1001
0000
0000
0011
0000
0000
0001
0100
0000
0010
0100
0000
0001
1000
,
0100
1000
0001
0000
1000
0010
0000
0100
0010
0000
1000
0001
0010
0001
1000
0000
,
0001
0010
0000
0100
1000
0000
0001
0100
1000
0100
0001
0000
1000
0100
0000
0010
,
0001
0000
1000
0100
0001
0100
1000
0000
0020
0000
0000
0130
0000
0000
0001
0010
,
0100
0000
0010
0100
1000
0000
0000
1010
0000
0000
0011
0000
0000
1100
0000
0000
,
0201
0000
0000
0000
0010
0000
0000
0000
0301
0000
0010
0100
1000
0000
0000
0110
,
0000
0000
0101
0000
0000
0000
0010
1000
0100
0000
1000
0000
0010
0100
0000
0010
,
0100
0000
0001
0000
0010
0000
0100
0000
1000
0010
0000
1000
0010
0000
0100
0000
,
0001
0000
0010
0000
0001
1000
0000
0001
1000
0000
0100
0000
0010
0000
1000
0000
,
0010
0000
0001
0000
0200
0000
0000
0000
0310
0000
1000
0100
0010
0000
0100
0000
,
1000
0000
0001
0000
0100
0000
0010
0100
0001
0000
0010
0000
0100
0000
1000
0000
,
0010
1000
0000
0000
0001
0010
0000
0000
0100
1000
0000
0000
0001
0100
0010
0000
,
1000
0010
0100
0000
0001
1000
0010
1000
0001
0100
0000
0011
0000
0000
1000
0010
,
0000
0101
0000
0000
0010
0100
0000
1001
0000
0000
0010
0001
0000
1100
0000
0000
,
0010
1000
0000
0101
0000
0000
0010
0100
0000
1010
0000
0000
1000
0001
0000
0110
,
0000
0000
0001
0010
1000
0010
0001
0100
0000
0000
0000
0000
0000
0000
0000
0000
;
