#TITLE:The Sampling Paradise;
#SUBTITLE:;
#ARTIST:Mamonis;
#TITLETRANSLIT:;
#SUBTITLETRANSLIT:;
#ARTISTTRANSLIT:;
#GENRE:HARD TRANCE;
#CREDIT:;
#BANNER:The_Sampling_Paradise_banner.png;
#BACKGROUND:The_Sampling_Paradise.png;
#LYRICSPATH:;
#CDTITLE:;
#MUSIC:The Sampling Paradise.ogg;
#OFFSET:-0.460000;
#SAMPLESTART:64.440002;
#SAMPLELENGTH:15.000000;
#SELECTABLE:YES;
#DISPLAYBPM:150.000000;
#BPMS:0.000000=150.000000
,28.000000=75.000000
,29.500000=300.000000
,30.500000=150.000000
,61.000000=300.000000
,63.000000=150.000000
,234.000000=300.000000
,236.000000=150.000000
,264.000000=300.000000
,265.000000=150.000000
;
#STOPS:61.000000=0.100000,
61.500000=0.100000,
62.000000=0.100000,
62.500000=0.100000,
91.000000=1.200000,
125.750000=0.400000,
128.750000=0.400000,
131.750000=0.400000,
149.000000=1.200000,
184.750000=0.400000,
187.750000=0.400000,
191.000000=0.400000,
264.000000=0.200000,
264.500000=0.200000,
265.000000=0.200000
;
#BGCHANGES:;
#KEYSOUNDS:;
#ATTACKS:;

//---------------dance-single - ----------------
#NOTES:
     dance-single:
     :
     Easy:
     8:
     0.356064,0.397101,0.085067,0.170133,0.042533,293.000000,283.000000,10.000000,20.000000,0.000000,0.000000,0.356064,0.397101,0.085067,0.170133,0.042533,293.000000,283.000000,10.000000,20.000000,0.000000,0.000000:
0000
0000
0000
0000
,
0000
0000
0000
0000
,
0000
0000
0000
0000
,
0000
0000
0000
0000
,
0001
0000
0000
1000
0000
0000
0001
0000
,
0100
0010
0100
0010
,
1000
0001
1000
0001
,
0020
0000
0130
0100
0000
0000
1000
0000
,
0010
0100
0010
1000
,
0010
0100
0001
0010
,
0001
1000
0001
0100
,
0010
1000
1001
0001
,
0100
0010
0100
0001
,
1000
0100
0010
0001
,
1000
0000
0000
0000
0010
0000
0100
0000
0010
0000
0000
0000
1000
0000
0000
1000
,
0000
1000
0002
0000
0000
0000
0013
0000
,
0100
1000
0100
0010
,
0001
0000
1000
0001
1000
0000
0010
0000
,
0100
0000
0010
1000
0010
0000
0100
0000
,
0001
0000
0000
0000
0010
0000
0000
0000
1001
0000
0000
0000
0100
0000
0000
0100
,
0000
0000
0100
0000
0010
0000
0000
0010
0000
0000
0010
0000
1000
0000
0000
1000
,
0000
1000
0002
0000
0000
0000
0103
0010
,
0100
0000
0010
0000
0100
0000
0000
0000
0010
0000
0000
0000
2002
3003
0000
0000
,
0010
0010
0100
0100
,
0001
0001
0010
0010
,
0100
0100
1000
1000
,
0001
0000
0001
0100
0010
0000
0110
0000
,
2000
0000
0010
3010
,
0020
0000
0000
0000
0000
0000
0000
0000
0130
0000
0000
0100
0000
0000
0100
0000
,
0002
0010
0010
0013
,
0001
0000
1000
0000
0100
0010
0100
0000
,
1000
0000
0000
0000
0001
0000
0000
0001
0000
0000
0000
0000
0100
0000
0000
0000
,
0010
0000
0000
0010
0000
0000
0000
0000
0010
0000
0000
0000
1000
0000
0000
1000
,
0002
0000
0103
0000
0010
0000
0100
0001
,
1000
0100
0100
1000
,
1000
0001
0001
0010
,
0010
0000
0001
0100
0001
0000
1000
0100
,
1000
0000
0000
0000
0220
0330
0000
0000
1000
0000
0010
0000
1000
0000
0000
0000
,
0001
0000
0001
0000
0010
0001
0010
0000
,
0100
0000
0100
0000
1000
0010
1000
0000
,
0001
0000
0001
0000
0100
0010
0100
0000
,
0001
1000
0001
0000
0100
0001
0100
0000
,
0010
0000
0010
0000
1000
0100
1000
0000
,
0001
0000
0001
0000
0100
0010
1000
0000
,
0001
0000
0010
0000
0100
0000
0000
0000
1000
0000
0000
0001
0000
0000
1000
0000
,
0020
0000
0130
0000
0001
0001
0001
0000
,
2000
0000
0000
3000
0100
0000
0100
0000
0100
0000
0000
0000
0020
0000
0000
0030
,
0001
0010
0100
1000
,
0000
0000
0000
1000
,
0001
0000
1000
0000
0010
0100
0100
0000
,
0001
1000
0001
0010
,
0100
0000
1000
0100
1000
0000
0002
0000
,
0000
0100
0103
0010
,
1000
0000
0001
1000
0001
0000
0200
0000
,
0010
0000
0310
0000
0010
0000
1000
0010
,
0100
0001
0010
0220
,
0000
0000
0330
1000
,
1000
0000
0001
0000
0001
0000
0100
0010
,
0100
0010
0100
0000
0020
0000
0000
0000
,
1030
0100
1000
0000
0001
0000
1001
0000
,
0100
0001
0100
0000
0010
0000
1010
0000
,
0100
0001
0100
0000
0010
1000
0010
0000
,
1000
0001
0010
0000
0001
1000
0100
0000
,
1000
0010
0100
0000
0010
0000
0110
0000
,
0100
0001
0010
0000
0001
0000
0011
0000
,
1000
0010
1000
0000
0001
0100
0001
0000
,
2000
0000
0000
0000
3000
0000
0000
0000
0010
0000
0100
0010
0000
0000
0000
0000
;

//---------------dance-single - ----------------
#NOTES:
     dance-single:
     :
     Medium:
     12:
     0.486095,0.482194,0.178640,0.255200,0.170133,400.000000,379.000000,21.000000,30.000000,0.000000,0.000000,0.486095,0.482194,0.178640,0.255200,0.170133,400.000000,379.000000,21.000000,30.000000,0.000000,0.000000:
0000
0000
0000
0000
,
0000
0000
0000
0000
,
0000
0000
0000
0000
,
0000
0000
0000
0000
,
0001
0100
0010
1000
0000
0010
0100
0000
,
0001
1000
0010
0000
1000
0001
0100
0000
,
0010
0100
0010
0100
0001
0000
1001
0000
,
2000
0000
3200
0000
0320
0000
0032
0000
0003
0000
0000
0000
0001
0000
0000
0010
,
0000
0000
0001
0000
0000
0000
1000
0000
0100
0000
0000
0000
1000
0000
0000
0010
,
0000
0000
1000
0000
0001
0000
1000
0000
0001
0000
0000
0000
0010
0000
0000
0100
,
0000
0010
0000
0001
1000
0000
0000
0010
,
0010
0000
0000
0000
0100
0000
0000
0000
0110
0000
0000
0000
1000
0000
0000
0100
,
0000
1000
0001
0010
0100
0000
0010
0001
,
0000
0000
0001
0000
1000
0000
0010
0000
0100
0000
0000
0000
0010
0000
0000
0100
,
0000
0000
0010
0000
1000
0000
0001
0000
1000
0000
0000
0000
0001
0000
0000
0001
,
0000
0000
0001
0000
2000
0000
3200
0000
0320
0000
0032
0000
1003
0000
0000
0010
,
0000
0100
0010
1000
0001
0000
1000
0010
,
0100
0000
0000
0000
0010
0000
1000
0000
0001
0000
0000
0000
0010
0000
0000
0001
,
0000
0000
1000
0000
0001
0000
0010
0000
0100
0000
0000
0000
1000
0000
0000
0010
,
0000
0000
0100
0000
0001
0000
0000
0000
1001
0000
0000
0000
0010
0000
0000
0010
,
0000
0000
0010
0000
0100
0000
0000
0100
0000
0000
0100
0000
0001
0000
0000
0001
,
0000
0001
1000
1000
1000
0000
0001
0010
,
0100
0000
1000
0000
0010
0000
0100
0000
0001
0000
0000
0000
0220
0330
0000
0000
,
0001
0000
1000
0000
0001
0000
0000
0100
0000
0000
0010
0000
0100
0000
0000
0000
,
0010
0000
1000
0000
0010
0000
0000
0100
0000
0000
0001
0000
0010
0000
0000
0000
,
0100
1000
0100
0000
1000
0010
1000
0000
,
0001
0000
0000
0100
0000
0000
0001
0000
1000
0000
0100
0000
0020
0000
0000
0000
,
0031
0000
1000
0000
0100
0000
0000
0010
0000
0000
0100
0000
1000
0000
0000
0000
,
0001
0000
0100
0000
0010
0000
0000
0100
0000
0000
0001
0000
1000
0000
0010
0000
,
1000
0001
0010
0000
0001
1000
0100
0000
,
0010
0000
0000
0110
0000
0000
0100
0000
1000
0000
0001
0000
0010
0000
0100
0000
,
1000
0000
0010
0000
1000
0000
0000
2002
3003
0000
0000
0000
0010
0000
0100
0000
,
0001
0000
0000
2200
3300
0000
0000
0000
0010
0000
1000
0000
0100
0000
0000
0022
,
0033
0000
0100
0001
1000
0000
0001
0010
,
0200
0000
1300
0010
1000
0000
0001
0010
,
0001
0000
1000
0100
1000
0000
0001
0100
,
0001
0000
0100
0010
0100
0010
1000
0001
,
1000
0000
0001
0000
2002
3003
0000
0000
0010
0000
0100
0000
0001
0000
0000
0011
,
0000
0000
1000
0000
0100
0000
0000
0000
1000
0000
0010
0000
0100
0000
0000
0101
,
0000
0000
0001
0000
1000
0000
0100
0000
1000
0000
0001
0000
0100
0000
0000
0010
,
0000
1000
0100
0010
0001
1000
0001
0000
,
1000
0000
0010
0000
0200
0000
0000
0000
0301
0000
0010
0000
0001
0000
0000
1100
,
0000
0000
1000
0000
0010
0000
0000
0000
1000
0000
0001
0000
0010
0000
0000
0101
,
0000
0010
0100
0000
0001
1000
0010
0000
,
1000
0000
0001
0000
0010
0000
0000
0000
0001
0000
0000
0010
0000
0000
0100
0000
,
1000
0000
0001
0000
1000
0000
0010
0000
0100
0000
0100
0000
0100
0000
0000
1001
,
0000
0000
0100
0000
0010
0000
0010
0000
0010
0000
0000
1001
0000
0000
0100
0000
,
0002
0023
0230
1300
,
0000
0000
0000
1000
,
0010
1000
0010
0000
1000
0001
0010
0001
,
1000
0010
0100
0000
0110
0000
0001
0000
,
0010
0000
0001
0000
0010
0000
0000
0000
0001
0000
1000
0000
0001
0000
0000
0010
,
0000
0000
0100
0000
1000
0000
0001
0000
1000
0000
0100
0000
0010
0000
0000
0010
,
0000
0000
0010
0000
0001
0000
1000
0000
0001
0000
0100
0000
0020
0000
0000
1000
,
0000
1030
0001
1000
0100
0000
0010
0001
,
0010
0100
1000
0001
1000
0000
0220
0000
,
0000
0000
0330
0000
0000
0000
1000
0001
,
0010
0000
0000
0100
0000
0000
1000
0000
0001
0000
1000
0000
0010
0000
0100
0000
,
0001
0000
0000
1000
0000
0000
1000
0000
0020
0000
0000
0000
0000
0000
0000
0000
,
0130
0000
0001
0000
0100
0000
0000
0110
0000
0000
0010
0000
1000
0000
0100
0000
,
1000
0000
0001
0000
0010
0000
0000
0101
0000
0000
0010
0000
1000
0000
0100
0000
,
1000
0001
0010
0100
0000
0100
1000
0001
,
0100
0010
0100
0001
1000
0100
0001
0000
,
0100
0000
1000
0000
0010
0000
0000
0101
0000
0000
0001
0000
0010
0000
0001
0000
,
1000
0000
0100
0000
0010
0000
0000
1100
0000
0000
0001
0000
0010
0000
0100
0000
,
0001
0100
1000
0000
0010
0100
0001
1000
,
0002
0000
0023
0000
0130
1000
0000
0000
0010
0000
1000
0001
0000
0000
0000
0000
;

//---------------dance-single - ----------------
#NOTES:
     dance-single:
     :
     Hard:
     16:
     0.805702,0.822567,0.416826,0.229680,1.114372,663.000000,614.000000,49.000000,27.000000,0.000000,0.000000,0.805702,0.822567,0.416826,0.229680,1.114372,663.000000,614.000000,49.000000,27.000000,0.000000,0.000000:
// measure 0
0000
0000
0000
0000
,  // measure 1
0000
0000
0000
0000
,  // measure 2
0000
0000
0000
0000
,  // measure 3
0000
0000
0000
0000
,  // measure 4
1000
0000
0001
0000
0010
0000
0110
0000
0000
1000
0001
0000
0010
0000
0100
0000
,  // measure 5
1000
0010
1000
0010
0100
0001
0100
0000
0001
0010
0001
0010
0100
1000
0100
0000
,  // measure 6
1000
0001
1000
0001
1000
0001
1000
0001
0100
0000
0100
0000
0010
0100
0010
0100
,  // measure 7
0020
0000
0032
0000
0203
0000
2300
0000
0000
0000
0000
0000
3001
0000
0010
0001
,  // measure 8
0000
0100
0001
1000
0000
1000
0010
0000
0100
0000
0010
0100
0001
0000
1000
0100
,  // measure 9
0000
1000
0010
1000
0000
0100
0000
0001
0100
0000
1000
0010
1000
0000
0001
0010
,  // measure 10
0000
0100
1000
0001
0000
1000
0010
0000
0100
0000
0001
0000
1000
0100
0000
0100
,  // measure 11
0010
0000
0001
0010
0000
0001
1000
0001
0100
0000
0010
0100
0001
0000
1000
0010
,  // measure 12
0000
1000
0100
0010
0000
0010
0100
0000
1000
0000
0001
0000
1000
0000
0010
0100
,  // measure 13
0000
0010
0100
0010
1000
0000
0001
0000
1000
0000
0001
0000
0010
0000
0001
0010
,  // measure 14
0000
0100
1000
0000
0010
0100
0010
0000
1000
0000
0100
0000
1000
0100
1000
0001
,  // measure 15
0010
0001
0100
0000
0020
0000
0032
0000
0203
0000
2300
0000
3010
0000
1000
0001
,  // measure 16
0000
1000
0010
0100
0000
0110
0000
0100
0001
0000
1000
0100
1000
0010
0000
0010
,  // measure 17
0100
0010
0100
0010
1000
0001
0000
0001
0010
0000
0100
0000
1000
0000
0001
0000
,  // measure 18
0010
0000
0001
1000
0010
0000
1000
0000
0001
0000
0010
0100
1000
0001
1000
0010
,  // measure 19
0100
0010
2000
0000
3001
0010
0100
0000
1000
0000
0001
0000
0010
0000
0001
1000
,  // measure 20
0000
0001
0010
0000
0100
0000
1000
0001
0000
1000
0100
0000
1000
0000
0010
0100
,  // measure 21
0000
0010
1000
0000
0001
0010
0001
0010
0001
0010
0001
0000
1000
0000
1000
0000
,  // measure 22
0010
0100
0000
0110
0000
0100
0000
0101
0000
1000
0020
0000
0200
0000
0330
0000
,  // measure 23
0001
0000
0001
0000
1000
0010
0000
1010
0000
0100
0000
0101
0000
0100
0010
0000
,  // measure 24
1000
0000
1000
0000
0001
0010
0000
0110
0000
0100
0000
1100
0000
1000
0001
0000
,  // measure 25
0010
0000
0001
0000
1000
0100
0010
0001
0000
0100
0010
0000
0000
1000
0010
0000
,  // measure 26
0100
0000
0000
0000
0000
0000
0001
0000
0000
1000
0000
0000
0000
0000
0000
0001
0000
0000
1000
0000
0000
0010
0000
0000
0100
0000
0000
0010
0000
0000
0000
0000
0000
0010
0000
0000
1000
0000
0001
0000
1000
0000
0001
0000
0000
0000
0000
0000
,  // measure 27
0010
0000
0010
0000
0100
1000
0000
1001
0000
0001
0000
0011
0000
0100
1000
0000
,  // measure 28
0010
0000
1000
0000
0001
0010
0000
0011
0000
0001
0000
0101
0000
0010
1000
0000
,  // measure 29
0100
0000
1000
0000
0001
0010
0000
0001
0000
1000
0010
0000
0100
0000
0001
0000
,  // measure 30
1000
0000
0000
0101
0000
0000
0011
0000
0001
1000
0000
0010
0000
1000
0001
0000
,  // measure 31
1000
0000
0010
0000
0001
0010
0000
1010
0001
0000
0010
0100
1000
0000
0100
0000
,  // measure 32
0001
0100
0000
1100
1000
0000
0010
0100
0001
0000
0010
0000
0100
0000
1000
0002
,  // measure 33
0013
0100
0010
0000
0001
0000
1000
0010
0000
0100
0010
0000
1000
0000
1000
0000
,  // measure 34
0001
0000
0010
0000
0100
0000
1000
0000
0000
0000
0000
0000
0010
0000
0000
0000
0000
0000
0100
0000
0000
0000
0000
0000
0010
0000
0000
1000
0000
0000
0000
0000
0000
1000
0000
0000
0001
0000
0000
0000
0000
0000
0010
0000
0000
0000
0000
0000
,  // measure 35
0001
0100
0000
0100
0010
0000
1000
0000
0100
0010
0000
0010
0100
0000
1000
0000
,  // measure 36
0001
1000
0000
1000
0010
0100
0000
0010
0100
0010
0000
0100
0010
0100
0000
0010
,  // measure 37
0100
0010
0000
0100
2002
3003
0000
0000
1010
0000
0010
0000
0100
0001
0000
0011
,  // measure 38
0000
0010
0000
0110
0000
0100
1000
0100
1000
0000
0010
0000
0010
0100
0000
0101
,  // measure 39
0000
0001
0000
1001
0000
1000
0010
0100
0010
0000
1000
0000
0001
0010
0001
1000
,  // measure 40
0000
1000
0001
0000
0100
0010
0100
0000
0010
0000
1000
0100
0000
1000
0010
0000
,  // measure 41
0100
0000
0000
0000
0000
0000
0001
0000
0000
0000
0000
0000
1000
0000
0100
0000
0010
0000
0001
0000
0000
0000
0000
0000
0100
0000
0000
0000
0000
0000
0010
0000
0000
0000
0000
0000
1000
0000
0000
0100
0000
0000
0000
0000
0000
1001
0000
0000
,  // measure 42
0000
0001
0000
0011
0000
0010
0100
1000
0001
0000
1000
0000
0010
0100
0000
0110
,  // measure 43
0000
0101
0000
0001
0000
0001
1000
0001
0010
0000
0100
0000
1000
0000
0001
0100
,  // measure 44
0000
0100
0010
0000
1000
0000
0001
0000
1001
0000
0000
1010
0000
0000
0011
0000
,  // measure 45
1000
0010
0000
0100
0000
0001
0010
0000
0001
0000
0001
0000
1000
0100
0000
0011
,  // measure 46
0000
1001
0000
0101
0001
0000
0001
0000
0010
0100
0000
1001
0000
1100
0000
1010
,  // measure 47
0200
0300
0200
0300
0200
0300
0100
0000
,  // measure 48
0000
0000
0000
0000
0000
0000
0000
0000
0000
0000
0000
0000
0001
0000
0000
0001
,  // measure 49
0010
0000
0001
0000
1000
0000
0010
0000
0100
0000
0010
0000
1000
0000
0000
1000
,  // measure 50
0001
0000
1000
0000
0100
0010
0100
0000
1000
0000
0001
0000
0100
0000
0000
0010
,  // measure 51
0100
0000
0010
0000
1000
0001
1000
0000
0010
0000
0100
0000
0001
0000
0010
0001
,  // measure 52
0000
1000
0100
0000
2000
0000
3200
0000
0320
0000
0032
0000
1003
0000
0010
1000
,  // measure 53
0100
0000
1000
0000
0001
0000
0010
0001
0100
0000
0010
0000
1000
0000
0100
1000
,  // measure 54
0000
0100
1000
0000
0001
0010
0000
0011
0000
0010
0001
0000
1000
0000
0010
0000
,  // measure 55
0100
0000
0000
0000
0000
0000
0001
0000
0000
1000
0000
0000
0001
0000
0010
0000
0001
0000
0010
0000
0000
0000
0000
0000
0100
0000
0000
0000
0000
0000
1000
0000
0000
0000
0000
0000
0020
0000
0000
0000
0000
0000
0000
0000
0000
0000
0000
0000
,  // measure 56
0000
0000
0000
0000
0000
0000
0000
0000
0000
0000
0000
0000
0000
0000
0000
0100
0000
0000
0000
0000
0000
0000
0000
0000
0130
0000
0000
0000
0100
0000
0000
0000
0100
0000
0000
0000
0010
0000
0000
0000
0000
0000
1000
0000
0000
0000
0000
0000
,  // measure 57
0001
1000
0000
0010
0000
0110
0000
0010
0000
1000
0001
0000
0010
0000
0100
0000
,  // measure 58
1000
0001
0000
1001
0000
0001
0000
1000
0020
0000
0000
0000
0100
0000
0000
0000
,  // measure 59
0031
0000
1000
0000
0001
0010
0000
0110
0000
0100
0000
1100
0000
1000
0001
1000
,  // measure 60
0010
0000
0100
0000
0001
0010
0000
0011
0000
0001
0000
1001
0000
1000
0010
0100
,  // measure 61
0010
0000
1000
0000
0001
0000
0100
0001
0000
1000
0010
1000
0000
0001
0010
0100
,  // measure 62
1000
0000
0000
0000
0000
0000
0010
0000
0000
0100
0000
0000
0000
0000
0000
0001
0000
0000
0100
0000
0000
0010
0000
0000
1000
0000
0000
0001
0000
0000
1000
0000
0000
0001
0000
0000
1000
0000
0100
0000
0010
0000
0001
0000
0000
0000
0000
0000
,  // measure 63
1000
0000
0001
0000
0100
0010
0000
1001
0000
0001
0000
0101
0000
1000
0010
0100
,  // measure 64
0001
0000
0010
0000
0100
1000
0000
1001
0000
0001
0000
0011
0000
0010
0100
0010
,  // measure 65
0001
0000
1000
0000
0100
0000
0010
0100
0000
1000
0001
0000
0100
0000
0010
0000
,  // measure 66
2200
3300
0202
0303
1010
0001
0000
1000
0000
0001
0010
1000
0000
0000
0000
0000
;
