#TITLE:The Nameless;
#SUBTITLE:;
#ARTIST:RoughSketch;
#TITLETRANSLIT:;
#SUBTITLETRANSLIT:;
#ARTISTTRANSLIT:;
#GENRE:;
#CREDIT:;
#BANNER:The Nameless_banner.png;
#BACKGROUND:The Nameless_bg.png;
#LYRICSPATH:;
#CDTITLE:;
#MUSIC:The Nameless.ogg;
#OFFSET:-0.190000;
#SAMPLESTART:69.940002;
#SAMPLELENGTH:12.000000;
#LASTBEATHINT:305.000000;
#SELECTABLE:YES;
#DISPLAYBPM:163.000000;
#BPMS:0.000000=163.000000
,46.000000=326.000000
,48.000000=163.000000
,82.000000=326.000000
,84.000000=163.000000
,259.000000=326.000000
,261.000000=163.000000
;
#STOPS:45.875000=0.368000,
72.000000=0.184000,
72.250000=0.184000,
72.500000=0.184000,
72.750000=0.184000,
73.000000=0.184000,
73.250000=0.184000,
73.500000=0.184000,
73.750000=0.184000,
74.000000=0.184000,
74.250000=0.184000,
184.000000=1.104000,
249.000000=0.184000,
249.250000=0.184000,
249.500000=0.184000,
249.750000=0.184000,
250.000000=0.184000,
250.250000=0.184000,
250.500000=0.184000,
250.750000=0.184000,
251.000000=0.184000,
251.250000=0.184000,
293.000000=1.104000,
299.000000=0.092000,
300.750000=0.092000,
301.250000=0.092000,
301.500000=0.092000,
301.750000=0.092000,
302.000000=0.092000,
302.250000=0.092000,
302.500000=0.092000,
302.750000=0.092000,
303.000000=0.092000
;
#BGCHANGES:;
#KEYSOUNDS:;
#ATTACKS:;

//---------------dance-single - ----------------
#NOTES:
     dance-single:
     :
     Easy:
     8:
     0.288191,0.336987,0.133378,0.200067,0.050017,242.000000,226.000000,16.000000,24.000000,0.000000,0.000000,0.288191,0.336987,0.133378,0.200067,0.050017,242.000000,226.000000,16.000000,24.000000,0.000000,0.000000:
0000
0000
0000
0000
,
0000
0000
0000
0000
,
0100
0000
0010
0200
,
0020
0000
0000
0330
,
1000
0000
0100
2000
,
0002
0000
3003
0000
,
0010
0000
0100
0001
,
0020
0000
0032
0013
,
0200
0000
2300
0000
,
3002
0000
0103
0000
,
0010
0010
0010
0110
,
1000
0001
2002
3003
,
0100
0010
0100
0010
,
1000
0100
1000
0000
,
0001
0100
0001
0100
,
0010
0100
0001
0000
,
0010
0001
0100
0010
,
1000
0001
0100
0000
,
0010
0000
0100
0000
0010
2000
0000
0000
,
0000
0000
3000
0001
,
0000
0001
0000
0000
,
1000
0100
1000
0010
,
0000
0010
0100
0010
,
1000
0001
0010
0001
,
1000
0000
1000
0001
,
0010
0001
0100
0010
,
1000
0010
0100
0001
,
0011
0000
1100
0000
,
0010
0100
0001
1000
,
0010
0000
0000
0010
0000
0000
0010
0000
0000
0000
0000
0000
0000
0000
0000
0000
,
0100
0000
0000
0100
0000
0000
0100
0000
0000
0000
0000
0000
0000
0000
0000
0000
,
0001
0000
0000
0001
0000
0000
0001
0000
0000
0000
0000
0000
0000
0000
0000
0000
,
1000
0000
0000
1000
0000
0000
1000
0000
0000
0000
0000
0000
0000
0000
0000
0000
,
0010
0000
0000
0100
0000
0000
0110
0000
0000
0000
0000
0000
0000
0000
0000
0000
,
0001
0000
0000
0010
0000
0000
0011
0000
0000
0000
0000
0000
0000
0000
0000
0000
,
1000
0000
0000
0100
0000
0000
1100
0000
0000
0000
0000
0000
0000
0000
0000
0000
,
0010
0000
0000
2000
0000
0000
0002
0000
0000
0000
0000
0000
3003
0000
0000
0000
,
0100
0100
0100
0100
,
0010
0010
0010
0010
,
1000
1000
1000
1000
,
0001
0001
2002
3003
,
0100
0000
0000
0010
0000
0000
0100
0000
0010
0100
0000
0000
,
0001
0000
0000
0010
0000
0000
0001
0000
0010
0001
0000
0000
,
1000
0000
0000
0100
0000
0000
1000
0000
0100
1000
0000
0000
,
0010
0000
0000
1000
0000
0000
0001
0000
1000
0100
0000
0000
,
0010
0010
0010
0010
,
0110
0001
0100
0000
,
0100
0001
0010
0100
,
1000
0010
0100
0000
,
0100
0010
1000
2002
,
3003
0010
0100
0000
,
0100
0001
1000
0100
,
0010
0002
0000
0000
,
1003
0100
1000
0010
,
0100
0001
0010
0001
,
0100
0001
0010
0000
,
0010
0001
1000
0100
,
1000
0010
1000
2200
,
3300
0000
0001
0000
0000
0010
0000
0000
,
0100
0000
0000
1000
0000
0000
0010
0000
,
0000
0200
0000
0000
0000
0000
0000
0000
,
0300
0000
0000
0000
,
0000
0000
0001
0000
1000
0000
0010
0100
,
0000
0000
0200
0000
,
0020
0000
0330
0000
,
0000
1000
0100
0010
,
0100
1000
0100
0110
,
0000
0001
0100
0010
,
0100
0001
0100
0110
,
0000
1000
0010
0100
,
0001
0010
0100
1001
,
0000
0010
1000
0001
,
0100
0010
0100
1001
,
0110
0000
0100
0000
;

//---------------dance-single - ----------------
#NOTES:
     dance-single:
     :
     Medium:
     13:
     0.548993,0.791931,0.233411,0.308436,0.279260,461.000000,433.000000,28.000000,37.000000,0.000000,0.000000,0.548993,0.791931,0.233411,0.308436,0.279260,461.000000,433.000000,28.000000,37.000000,0.000000,0.000000:
// measure 0
0000
0000
0000
0000
,  // measure 1
0000
0000
0000
0000
,  // measure 2
1002
0000
0000
0000
0103
0000
0010
0200
,  // measure 3
0000
0000
0000
0000
0301
0000
0010
0100
,  // measure 4
2000
0000
0000
0000
3010
0000
0100
0020
,  // measure 5
0000
0000
1030
0000
,  // measure 6
1001
0000
0100
0010
0000
2000
0000
0000
,  // measure 7
3100
0010
0000
0010
0000
0000
0001
0100
,  // measure 8
0020
0000
0000
0000
1030
0001
0000
1000
,  // measure 9
0000
0001
0010
0100
0000
1000
0010
0000
,  // measure 10
0100
0000
0000
0000
0110
0000
0000
0000
0001
0000
0000
0000
1000
0001
1000
0000
,  // measure 11
0100
0110
0022
0033
,  // measure 12
1000
0010
0100
0010
1000
0001
0010
0000
,  // measure 13
0001
0100
0010
0100
0001
0010
0100
0000
,  // measure 14
1000
0010
0100
0001
0010
0100
1000
0000
,  // measure 15
0010
0000
1000
0000
0001
0000
0100
0000
0010
0000
1000
0000
0100
0010
0100
0000
,  // measure 16
1000
0000
0010
0000
0100
0000
0010
0000
1000
0000
0001
0000
0010
0001
1000
0000
,  // measure 17
0001
0000
0100
0000
0010
0000
1000
0000
0001
0000
1000
0000
0100
0010
0100
0000
,  // measure 18
2000
3010
0200
0301
0020
0130
2000
3001
0200
0310
2002
0000
0000
0000
0000
0000
,  // measure 19
0000
0000
3003
0110
,  // measure 20
0000
0110
1001
0000
,  // measure 21
0010
1000
0100
1000
0001
0010
0100
0010
,  // measure 22
0000
0010
0001
1000
0010
0000
0110
0000
,  // measure 23
1000
0001
0010
0001
0100
0010
1000
0100
,  // measure 24
0000
0100
1000
0001
0100
0010
1000
0000
,  // measure 25
0100
0010
0100
1000
0001
0100
0010
0000
,  // measure 26
0010
0100
0001
0010
0100
0001
0100
0000
,  // measure 27
1000
0000
0001
0100
0001
0000
0000
0000
1000
0000
0010
0000
0100
0000
0001
0000
,  // measure 28
0000
0001
0010
0100
0010
0001
1000
0000
,  // measure 29
0010
0000
0000
0010
0000
0100
0010
0000
0000
0000
0000
0000
0110
0000
0000
0000
,  // measure 30
1000
0000
0000
1000
0000
0100
1000
0000
0002
0000
0000
0000
0000
0000
0000
0000
,  // measure 31
0103
0000
0000
0100
0000
0010
0100
0000
0000
0000
0000
0000
0101
0000
0000
0000
,  // measure 32
0010
0000
0000
0010
0000
0001
0010
0000
0002
0000
0000
0000
2003
0000
0000
0000
,  // measure 33
3100
0000
0000
0010
0000
0100
0010
0000
0000
0000
0001
0000
0100
0000
0000
0000
,  // measure 34
0010
0000
0000
1000
0000
0010
1000
0000
0000
0000
0001
0000
0001
0000
0000
0000
,  // measure 35
0100
0000
0000
0010
0000
1000
0100
0000
0000
0000
0010
0000
0001
0000
0000
0000
,  // measure 36
0100
0000
0000
0001
0000
0010
0200
0000
0000
0000
0000
0000
0300
0000
0000
0000
,  // measure 37
1000
0000
0000
1100
0000
0000
0010
0000
1000
0010
0000
1000
,  // measure 38
0001
0000
0000
0011
0000
0000
0100
0000
0001
0100
0000
0001
,  // measure 39
1000
0000
0000
1001
0000
0000
0010
0000
0100
0010
0000
0100
,  // measure 40
0001
0000
0000
1001
0000
0000
0100
0000
0010
0100
0000
0010
,  // measure 41
1000
0000
0100
1000
0000
0010
1000
0000
0001
1000
0000
0000
,  // measure 42
0001
0000
0010
0001
0000
1000
0001
0000
0100
0001
0000
0000
,  // measure 43
1000
0000
1000
0010
0000
0010
0100
0000
0100
0001
0000
0000
,  // measure 44
0010
0000
0010
0100
0000
0100
1000
0000
1000
0001
0000
0001
,  // measure 45
0100
0000
0100
0010
0000
0100
0001
0010
0100
1000
0010
0100
,  // measure 46
0002
0003
0000
0000
0000
0000
0000
0000
1000
0000
0000
0000
0100
0000
0000
0000
0010
0000
0000
0000
0100
0000
0000
0000
0000
0000
0000
0000
0100
0000
0000
0000
,  // measure 47
1000
0001
0100
0010
0100
0001
0000
0001
,  // measure 48
1000
0000
1001
0000
0010
0100
0000
0100
,  // measure 49
0001
0010
0100
1000
0010
0200
0000
0010
,  // measure 50
0310
0000
1000
0001
0010
0001
0000
0100
,  // measure 51
0010
0100
0001
0010
0100
1000
0000
1000
,  // measure 52
0010
0200
0000
0000
0000
0000
0000
0000
,  // measure 53
0000
0310
1000
0100
0001
0100
1000
0010
,  // measure 54
0100
0001
0010
0001
1000
0100
0000
0100
,  // measure 55
0010
0100
1000
0001
0100
0010
0000
0010
,  // measure 56
0100
0001
1000
0001
0010
0100
0000
0100
,  // measure 57
0010
0001
1000
0010
0100
0001
0000
0001
,  // measure 58
1000
0001
1000
0000
0010
0000
0000
0110
0000
0000
1000
0000
0000
1100
0000
0000
,  // measure 59
0001
0000
0000
0011
0000
0000
0100
0000
0000
0110
0000
0000
0001
0000
0000
1001
,  // measure 60
0000
0220
0000
0000
0000
0000
0000
0000
,  // measure 61
0330
0000
0000
0000
,  // measure 62
1000
0001
1000
0000
0020
0130
0002
0013
0200
1300
0020
0130
0002
0013
2200
0000
,  // measure 63
0000
3300
0000
0000
0202
0000
0303
0000
,  // measure 64
2002
0000
0000
0000
3003
0000
0010
0100
,  // measure 65
0010
0000
1000
0100
0010
0100
1000
0100
,  // measure 66
0010
0000
0001
0100
0010
0100
0001
0100
,  // measure 67
0010
0000
1000
0010
0100
0001
1000
0001
,  // measure 68
0010
0000
0001
0100
0010
1000
0001
0100
,  // measure 69
0110
0000
0001
0010
1000
0010
0001
0010
,  // measure 70
0100
1000
0010
1000
0100
0001
0100
1000
,  // measure 71
0001
0100
0010
0100
1000
0100
0001
0100
,  // measure 72
0010
1000
0001
0010
0100
0001
0100
0010
,  // measure 73
0001
1000
0001
1000
0000
0000
0000
0000
0220
0000
0000
0000
0000
0000
0000
0000
,  // measure 74
0000
0000
0000
0000
,  // measure 75
0000
0000
0000
0000
,  // measure 76
0330
0000
0000
0000
;

//---------------dance-single - ----------------
#NOTES:
     dance-single:
     :
     Hard:
     17:
     0.813366,1.203735,0.466822,0.433478,0.875292,683.000000,627.000000,56.000000,52.000000,0.000000,0.000000,0.813366,1.203735,0.466822,0.433478,0.875292,683.000000,627.000000,56.000000,52.000000,0.000000,0.000000:
// measure 0
0000
0000
0000
0000
,  // measure 1
0000
0000
0000
0000
,  // measure 2
0220
0000
0030
0000
0302
0023
0230
2300
,  // measure 3
0000
0000
0001
0000
0001
0000
3002
0013
,  // measure 4
0220
0000
0030
0000
2300
3020
0230
0302
,  // measure 5
0000
1000
1000
1003
,  // measure 6
0210
0000
0001
0001
0000
1000
1300
0000
,  // measure 7
0120
0100
0000
0001
0000
0100
0130
0001
,  // measure 8
2002
0000
0003
0000
3020
0002
0030
0023
,  // measure 9
2000
3030
0020
0230
0302
0023
0230
1300
,  // measure 10
0001
0000
0000
0000
1001
0000
0000
0000
0100
0000
0010
0000
1000
0001
0010
0100
,  // measure 11
1000
0001
0011
1000
0202
0000
0303
0000
,  // measure 12
0010
0000
1000
0100
0010
0000
0010
0100
1000
0000
0001
0100
0010
0000
0010
0100
,  // measure 13
0001
0000
0010
0100
1000
0000
1000
0100
0010
0000
0001
1000
0100
0000
1000
0001
,  // measure 14
0100
0000
0010
1000
0100
0000
0100
1000
0010
0000
0010
0100
0001
0000
0001
0100
,  // measure 15
0010
0000
1000
0001
0010
0000
0010
0001
1000
0000
0010
0100
0020
0000
0000
0000
,  // measure 16
1030
0000
0100
0010
0001
0000
1000
0100
0010
0000
0001
0100
0010
0000
1000
0010
,  // measure 17
0100
0000
0001
1000
0100
0000
1000
0001
0010
0000
0001
0100
0001
0000
0010
0001
,  // measure 18
1000
0101
1010
1100
0011
0110
1001
1100
0011
0101
2002
0000
0000
0000
0000
0000
,  // measure 19
0000
0000
0000
0000
3003
0000
0220
0330
,  // measure 20
1001
0000
0220
0330
0001
0010
0100
1000
,  // measure 21
0001
1000
0100
0010
0100
1000
0001
0100
,  // measure 22
0010
0000
0100
0000
0001
0000
0100
0000
0010
0000
1000
0000
0100
0000
1000
0010
,  // measure 23
0100
0001
0010
0100
0010
0001
1000
0010
,  // measure 24
0100
0000
0010
0000
1000
0000
0010
0000
0100
0000
0001
0000
0010
0100
1000
0001
,  // measure 25
0100
0000
0010
0000
0001
0000
0010
0000
0100
0000
0001
0000
0010
0100
1000
0000
,  // measure 26
0010
0000
1000
0000
0010
0000
0100
0000
1000
0000
0100
0000
0010
1000
0001
0010
,  // measure 27
0001
0000
1000
0100
1000
0000
0010
0000
0100
0000
0000
0011
0000
0000
1000
0001
,  // measure 28
0100
0000
0010
0000
0010
0000
0100
0000
0001
0000
1000
0100
0000
1000
0010
1000
,  // measure 29
0001
0000
0000
0110
0000
0001
0020
0000
0000
0000
0031
0000
0100
0000
1000
0000
,  // measure 30
0100
0000
0000
0011
0000
0100
1000
0000
0020
0000
0000
0000
0130
0000
0000
0000
,  // measure 31
1001
0000
0000
1100
0000
0010
0100
0000
0000
0000
1000
0001
1000
0000
0100
0000
,  // measure 32
0010
0000
0000
1100
0000
0010
0001
0000
2000
0000
0000
0000
3001
0000
0000
0000
,  // measure 33
0110
0000
0000
0011
0000
1000
0001
0000
0000
0000
0100
0010
0100
0001
0010
0000
,  // measure 34
0001
0000
0000
1010
0000
0100
0010
0000
0000
0000
1000
0100
1000
0010
0100
0000
,  // measure 35
0001
0000
0000
1001
0000
0010
0100
0000
0000
0000
1000
0010
0100
0000
0001
0000
,  // measure 36
0010
0000
0000
0101
0000
0020
2000
0000
0000
0000
0000
0000
3030
0000
0000
0000
,  // measure 37
0001
0010
0100
0010
0100
1000
0010
0100
0010
1000
0000
0100
,  // measure 38
1000
0010
0100
0010
1000
0100
0010
0100
0010
0001
0000
0100
,  // measure 39
0001
1000
0100
1000
0001
0010
0001
1000
0100
0010
0000
0010
,  // measure 40
0100
1000
0001
0100
0010
1000
0001
0010
0100
2000
0000
0000
,  // measure 41
3010
0100
0010
1000
0100
1000
0001
0010
0001
0100
0010
0100
,  // measure 42
0001
0010
0001
0100
0010
0100
0001
0010
0001
1000
0100
1000
,  // measure 43
0010
0100
1000
0100
0010
1000
0100
0010
0100
1000
0010
0100
,  // measure 44
0001
0100
0010
0100
0001
0010
0100
0010
0001
0100
0010
0001
,  // measure 45
0010
0010
0010
0100
0100
0100
0001
0001
0001
1000
1000
1000
,  // measure 46
0220
0330
0000
0000
0000
0000
0000
0000
0001
0000
0000
0000
0100
0000
0010
0000
1000
0000
0000
0000
0001
0000
0000
0000
0000
0000
0000
0000
0001
0000
0000
0000
,  // measure 47
0010
0000
0100
0000
1000
0000
0010
0100
0001
0000
1000
0000
0010
0000
0100
0010
,  // measure 48
1000
0000
0001
0000
0010
0000
0100
1000
0100
0000
1000
0000
0010
0000
0100
0001
,  // measure 49
0010
0001
1000
0010
0001
0010
1000
0001
,  // measure 50
0100
0010
0100
0010
1000
0000
0100
0010
0001
0000
1000
0000
0010
0000
1000
0000
,  // measure 51
0001
0000
0010
0100
1000
0000
0010
0000
0100
0000
0001
0000
0000
0000
0001
0000
,  // measure 52
0100
1000
0200
0000
0001
0000
1000
0000
,  // measure 53
0301
0000
0010
0100
1000
0010
1000
0010
0100
0001
0100
0001
0010
0100
0010
0100
,  // measure 54
1000
0001
0010
0000
0001
0000
0100
0010
1000
0000
0100
0000
0000
0000
0100
0010
,  // measure 55
0001
0000
1000
0000
0010
0000
0100
0001
0010
0000
0001
0000
0000
0000
0001
1000
,  // measure 56
0100
0000
1000
0000
0010
0000
0100
0010
1000
0000
0100
0000
0010
0000
0001
1000
,  // measure 57
0010
1000
0001
1000
0010
0000
0100
0000
0010
0000
1000
0000
0001
0000
0010
0000
,  // measure 58
0010
0100
0000
0000
0011
0000
0000
1100
0000
0000
1010
0000
0000
0101
0000
0000
,  // measure 59
1001
0000
0000
0110
0000
0000
1010
0000
0000
0011
0000
0000
1100
0000
0000
1001
,  // measure 60
0000
0202
0000
0000
0000
0000
0000
0000
,  // measure 61
0000
0303
0000
0000
,  // measure 62
0010
1000
0001
0100
0010
1100
1010
0101
0011
1001
0110
0101
1100
0110
1001
0000
,  // measure 63
0000
0000
0220
0330
,  // measure 64
0220
0000
0000
0000
0330
0000
1000
0010
,  // measure 65
0100
0000
0001
0000
0010
0000
0100
0010
0001
0000
1000
0010
0100
0000
0001
0010
,  // measure 66
0100
0000
0010
0001
1000
0000
0010
0100
0001
0000
1000
0100
0010
0000
0010
0100
,  // measure 67
1000
0000
0001
0100
0010
0000
1000
0100
0010
0000
0100
1000
0001
0000
0100
0010
,  // measure 68
1000
0000
0001
0010
0100
0000
1000
0010
0100
0000
0010
1000
0001
0000
0010
0001
,  // measure 69
0100
0010
1000
0001
0100
0001
0010
0100
1000
0010
0100
0000
0001
0100
0010
1000
,  // measure 70
0100
0010
0001
0000
1000
0100
0010
0100
1000
0010
0100
0000
0001
1000
0100
0000
,  // measure 71
0100
1000
0001
0000
0010
0001
1000
0100
1000
0010
0100
0000
0001
0010
0100
0010
,  // measure 72
0001
1000
0010
0000
0100
0001
1000
0010
1000
0100
0010
0001
0100
0000
0001
0100
,  // measure 73
1000
0000
1000
0100
0000
0000
0000
0000
0001
0020
0200
0000
0000
0000
0000
0000
,  // measure 74
0000
0000
0000
0000
,  // measure 75
0000
0000
0000
0000
,  // measure 76
0330
0000
0000
0000
;
