#TITLE:The Kingsroad;
#SUBTITLE:;
#ARTIST:RINZO;
#TITLETRANSLIT:;
#SUBTITLETRANSLIT:;
#ARTISTTRANSLIT:;
#GENRE:;
#CREDIT:;
#BANNER:The_Kingsroad_banner.png;
#BACKGROUND:The_Kingsroad.png;
#LYRICSPATH:;
#CDTITLE:;
#MUSIC:The Kingsroad.ogg;
#OFFSET:-0.100000;
#SAMPLESTART:59.290001;
#SAMPLELENGTH:12.800000;
#LASTBEATHINT:236.000000;
#SELECTABLE:YES;
#BPMS:0.000000=150.000000
;
#STOPS:
;
#BGCHANGES:;
#KEYSOUNDS:;
#ATTACKS:;

//---------------dance-single - ----------------
#NOTES:
     dance-single:
     :
     Easy:
     6:
     0.259521,0.298123,0.121787,0.192829,0.000000,179.000000,167.000000,12.000000,19.000000,0.000000,0.000000,0.259521,0.298123,0.121787,0.192829,0.000000,179.000000,167.000000,12.000000,19.000000,0.000000,0.000000:
0000
0000
0000
0000
,
0000
0000
0000
0000
,
0000
0000
0000
0000
,
0000
0000
0000
0000
,
0000
0000
0000
0000
,
0020
0000
0000
0030
,
0200
0000
0000
0300
,
0002
0000
0000
0003
,
2000
0000
0000
3000
,
0001
0100
0001
1000
,
0010
1000
0100
0000
,
1000
0010
1000
0001
,
0100
0001
0010
0000
,
1000
0100
1000
0000
,
0001
0100
0001
0000
,
1000
0010
0100
0001
,
0010
0100
1001
0000
,
1000
0010
1000
0000
,
0001
0010
0001
0000
,
0100
0010
1000
0001
,
2002
0000
0000
0000
0000
3003
0000
0000
,
0100
0010
1000
0000
,
0001
0100
0010
0100
,
0020
0000
1030
0001
,
0010
0001
1000
0000
,
0100
1000
0010
0100
,
0001
1000
0001
0000
,
0101
0000
1010
0000
,
0001
0010
0100
1000
,
0002
0000
0013
0000
,
0200
0010
0310
0000
,
1000
0100
1000
0001
,
0200
0000
0310
0010
,
2002
3003
0001
0100
,
0010
1000
0100
0000
,
1000
0001
0010
0100
,
0220
0000
0330
0000
,
0010
0001
1000
0100
,
1000
0010
0100
0000
,
0001
0010
0001
1000
,
0100
1000
0020
0130
,
0000
1001
1000
0010
,
0100
0001
1000
0100
,
1000
0001
0011
0000
,
1000
0010
1010
0000
,
0200
0000
0001
0301
,
1000
0010
0100
0001
,
0010
0001
1000
0000
,
0010
1000
0100
0000
,
1000
0001
0010
0000
,
0001
1000
0100
0000
,
0010
0100
1000
0100
,
1000
0001
0110
0000
,
1001
0001
0010
0100
,
1000
0010
0100
0001
,
1000
0010
0100
0010
,
1000
0001
0020
0030
,
0100
1000
0010
0100
,
0001
0010
2002
3003
;

//---------------dance-single - ----------------
#NOTES:
     dance-single:
     :
     Medium:
     10:
     0.443651,0.474968,0.050744,0.121787,0.005074,306.000000,301.000000,5.000000,12.000000,0.000000,0.000000,0.443651,0.474968,0.050744,0.121787,0.005074,306.000000,301.000000,5.000000,12.000000,0.000000,0.000000:
0000
0000
0000
0000
,
0000
0000
0000
0000
,
0000
0000
0000
0000
,
0000
0000
0000
0000
,
0000
0000
0000
0000
,
0012
0000
0103
0000
,
0010
1000
0100
0000
,
2001
0000
3010
0000
,
0100
0001
1000
0010
,
1000
0001
1000
0010
0000
0100
0001
0000
,
0010
0001
1000
0001
0000
1000
0100
0000
,
1000
0010
0100
0000
0001
0010
0100
0000
,
1000
0001
1000
0001
0200
0000
0310
0000
,
1000
0010
0100
0000
0001
0010
0100
0000
,
1000
0010
0100
0000
0001
0010
0100
0000
,
0010
0001
1000
0100
1000
0000
0010
0000
,
0100
0001
1000
0010
1000
0000
0100
0000
,
1000
0001
0100
0000
0001
1000
0010
0000
,
1000
0001
0010
0000
0001
1000
0100
0000
,
1000
0000
0000
0001
0000
0000
0100
0000
0000
0000
0010
0000
0100
0000
0010
0000
,
2000
0000
0000
3001
,
0010
0000
0001
0100
0000
0010
1000
0000
,
0100
0000
1000
0010
0000
0100
0001
0000
,
0010
0001
1000
0000
0100
1000
0001
0000
,
0100
0010
1000
0001
0010
0000
0100
0000
,
1000
0000
0010
0100
0000
0001
0010
0000
,
0001
0000
0100
0010
0000
1000
0100
0000
,
1000
0001
0100
0000
0010
1000
0100
0010
,
0001
0000
1001
0000
0100
0010
0100
0000
,
0002
0000
0013
0000
0001
1000
0010
0000
,
1000
0100
1000
0010
0100
0000
0001
0000
,
0010
0000
0100
1000
0100
0010
0001
0000
,
0100
0001
1000
0100
1000
0000
0010
0000
,
2001
0000
0000
0000
3100
0000
0010
0100
,
0000
1000
0001
0100
0010
0100
0001
0000
,
0020
0000
0031
0000
1000
0010
0100
0010
,
2000
0000
0001
3001
,
0100
0010
1000
0010
0200
0000
0301
0000
,
0010
0000
0001
1000
0010
1000
0100
0000
,
0010
0001
0100
0001
0010
0000
0001
1000
,
0010
0000
0100
0010
1000
0001
0200
0000
,
0300
0000
1001
0000
1000
0000
0010
0100
,
0001
0000
1000
0010
0100
0010
0100
0000
,
0001
0010
0000
0001
1000
0100
1000
0000
,
0001
0100
0010
0100
0001
1000
0010
0000
,
0200
0000
0301
1000
0001
0000
1000
0010
,
0000
0100
0001
1000
0010
1000
0001
0000
,
0010
0000
0100
1000
0001
0100
0010
0000
,
1000
0000
0010
0100
0002
0000
1003
0000
,
0010
0000
1000
0100
1000
0010
0100
0000
,
0001
0000
0100
0010
1000
0010
0100
0001
,
0010
0000
0100
1000
0001
1000
0010
0000
,
0100
0001
1000
0010
0100
0001
0010
0000
,
0100
1000
0100
0010
0100
0000
1000
0001
,
0100
0000
0010
1000
0001
0010
0001
0000
,
1000
0010
1000
0001
1000
0000
0010
0100
,
0001
0000
0001
1000
0100
0010
0001
0000
,
0010
0001
0010
0100
0010
0001
1000
0100
,
1000
0010
0100
0001
0010
0000
0000
0000
;

//---------------dance-single - ----------------
#NOTES:
     dance-single:
     :
     Hard:
     15:
     0.669826,0.715496,0.243573,0.131935,0.294318,462.000000,438.000000,24.000000,13.000000,0.000000,0.000000,0.669826,0.715496,0.243573,0.131935,0.294318,462.000000,438.000000,24.000000,13.000000,0.000000,0.000000:
// measure 0
0000
0000
0000
0000
,  // measure 1
0000
0000
0000
0000
,  // measure 2
0000
0000
0000
0000
,  // measure 3
0000
0000
0000
0000
,  // measure 4
0000
0000
0000
0000
,  // measure 5
1020
0100
1000
0130
,  // measure 6
1002
0013
2100
3001
,  // measure 7
0210
0001
0010
0301
,  // measure 8
2100
0001
0010
3100
,  // measure 9
0001
0010
0001
1000
0100
0001
0100
1000
,  // measure 10
0010
0100
1000
0100
0001
0010
1000
0010
,  // measure 11
0001
0100
0010
1000
0100
0010
0001
0010
,  // measure 12
0100
1000
0010
0100
0001
1000
1001
0000
,  // measure 13
1000
0000
0010
0000
0100
0010
0100
0000
0001
0000
0010
0000
0100
0010
0100
0000
,  // measure 14
1000
0000
0100
0000
1000
0001
1000
0000
0001
0000
0010
0000
0001
1000
0001
0000
,  // measure 15
0100
0000
0010
0000
1000
0100
1000
0000
0010
0000
0100
0000
0001
0010
0001
0000
,  // measure 16
1000
0000
0001
0000
0100
0010
0100
0010
0100
0000
0001
0000
1000
0000
0000
0000
,  // measure 17
0010
0000
0100
0000
0010
1000
0010
0000
0100
0000
0010
0000
0100
0001
0100
0000
,  // measure 18
0001
0000
0010
0000
0001
1000
0001
0000
1000
0000
0100
0000
1000
0001
1000
0000
,  // measure 19
0010
0000
0000
0110
0000
0000
1001
0000
0000
0000
0100
0000
0010
0100
0010
1000
,  // measure 20
0001
0000
0010
0001
1000
0000
0010
0000
0100
0010
0100
0010
0200
0000
0000
0000
,  // measure 21
0301
0000
0010
0000
0001
1000
0001
0000
0100
0000
0010
0000
1000
0000
0100
0000
,  // measure 22
1000
0000
0001
0000
0010
0100
0010
0000
0001
0000
1000
0000
0010
0000
0100
0000
,  // measure 23
0010
1000
0100
0001
0000
0001
0100
1000
,  // measure 24
0010
0000
0100
0000
0001
1000
0001
1000
0001
0000
0100
0000
0010
0000
0000
0000
,  // measure 25
1000
0000
0100
0000
1000
0010
0100
0000
0001
0000
0100
0000
0010
0000
0100
0000
,  // measure 26
0001
0000
0010
0000
0001
0100
0010
0000
0100
0000
0010
0000
1000
0000
0010
0000
,  // measure 27
0100
0001
1000
0010
0000
1000
0200
0000
,  // measure 28
0310
0000
0010
0000
0110
0000
0000
0000
0001
1000
0001
0000
0100
0000
0000
0000
,  // measure 29
0011
0000
0001
1000
0010
1000
0100
1000
,  // measure 30
0000
0000
0001
0000
0100
0000
0010
0000
1000
0001
1000
0000
0020
0000
0000
0000
,  // measure 31
1030
0001
0010
1000
0010
0001
0100
1000
,  // measure 32
0100
0010
0100
0000
0001
0000
0100
0000
0010
0000
1000
0000
0010
0000
0000
0000
,  // measure 33
1001
0000
0000
0000
0010
0000
0100
0010
0100
0000
0001
0000
1000
0000
0001
0000
,  // measure 34
0000
0000
0100
0000
0010
0000
1000
0000
0010
0000
0100
0001
1000
0000
0010
0000
,  // measure 35
1000
0100
0001
0100
1000
0010
0100
0010
,  // measure 36
0001
0000
1000
0000
0100
0000
0010
0000
0100
0010
0100
0010
0100
0000
0000
0000
,  // measure 37
1001
0001
0100
0010
2000
0000
3001
0010
,  // measure 38
0001
0100
1000
0100
0010
0100
0001
0010
,  // measure 39
0100
1000
0100
0010
0100
0000
1100
1000
,  // measure 40
0001
0000
0010
0000
0001
0000
1000
0000
0010
0000
0100
0001
0100
0000
0010
0000
,  // measure 41
0000
0000
1001
0001
0020
0000
0130
1000
,  // measure 42
0010
0100
0001
0100
0010
1000
0100
0010
,  // measure 43
0001
1001
0000
0100
0110
0010
2000
0000
,  // measure 44
3001
0000
0100
0000
0010
0000
0100
0000
0001
1000
0100
1000
0020
0000
0000
0000
,  // measure 45
0130
0000
0001
0000
1000
0000
0010
0000
1000
0100
1000
0000
0001
0000
0010
0000
,  // measure 46
0001
0100
0001
0000
1000
0000
0010
0000
0100
0000
0010
0000
0100
0001
0100
0001
,  // measure 47
1000
0000
0010
0000
0100
0000
0010
0000
1000
0000
0001
0010
0001
0000
0100
0000
,  // measure 48
0010
1000
0010
1000
0001
0000
0100
0000
0010
0000
0100
0000
1001
0000
0000
0000
,  // measure 49
0100
0000
0001
0000
1000
0010
1000
0000
0001
0100
0001
0000
0100
0000
0010
0000
,  // measure 50
1000
0000
0010
0000
0001
0000
0010
0000
0100
0000
0001
0000
1000
0010
1000
0010
,  // measure 51
0100
0001
0010
0001
1000
0010
0100
0000
,  // measure 52
0010
1000
0010
1000
0001
0100
0001
0100
0010
0100
0001
1000
0010
0000
0000
0000
,  // measure 53
1100
1000
0010
0100
0101
0000
0010
0001
,  // measure 54
0100
0000
0010
0000
1000
0000
0100
0000
0010
0000
0001
0010
0001
0000
1000
0000
,  // measure 55
1010
0010
0100
0001
0011
0000
1100
1000
,  // measure 56
0001
0000
0010
0000
0100
0000
0010
0000
0001
1000
0001
1000
0001
0000
0000
0000
,  // measure 57
0110
0010
1000
0001
1001
1000
0100
0010
,  // measure 58
0001
0010
0001
0100
0010
1000
0100
1000
0002
0000
0000
0000
0003
0000
0000
0000
;
